#TITLE:Prelude;
#SUBTITLE:12/21;
#ARTIST:AFI;
#TITLETRANSLIT:;
#SUBTITLETRANSLIT:;
#ARTISTTRANSLIT:;
#GENRE:Alternative Rock;
#CREDIT:N00b_Saib0t;
#BANNER:Prelude 12-21.png;
#BACKGROUND:Prelude 12-21-bg.png;
#LYRICSPATH:;
#MUSIC:Prelude 12-21.ogg;
#OFFSET:0.804;
#SAMPLESTART:49.240002;
#SAMPLELENGTH:11.960000;
#SELECTABLE:YES;
#BPMS:0.000000=75.000000
,25.000000=150.000000
,198.500000=75.000000
;
#STOPS:129.000000=1.200000
;
#BGCHANGES:;
#KEYSOUNDS:;
#ATTACKS:;

//---------------dance-single - N00b_Saib0t----------------
#NOTES:
     dance-single:
     N00b_Saib0t:
     Challenge:
     13:
     0.552919,0.562125,0.740247,0.042300,0.000000,292.000000,70.000000,4.000000,0.000000,0.000000,0.000000,0.552919,0.562125,0.740247,0.042300,0.000000,292.000000,70.000000,4.000000,0.000000,0.000000,0.000000:
0000
0000
0001
0000
0010
0000
0000
1000
,
0100
0010
0001
0000
1000
0000
0000
0001
,
0010
0100
1000
0000
0010
0000
0000
0100
,
0010
0100
0001
0000
0010
0000
0000
1000
,
0100
1000
0010
0000
0001
0000
0000
1000
,
0001
2000
0000
0000
0000
0000
0000
0000
,
0000
3000
0011
0000
0000
0000
0110
0000
,
0000
1010
0000
0000
0110
0000
0011
0000
,
0000
0101
0000
1100
,
0000
1010
0000
0000
1100
0000
0101
0000
,
0000
0011
0000
1001
,
0000
0110
0000
0000
1100
0000
0101
0000
,
0000
1010
0000
1100
,
0000
1001
0000
0000
0110
0000
0101
0000
,
0000
1100
0000
0110
,
0000
1001
0000
0000
0101
0000
1010
0000
,
0000
0011
0000
1100
,
0000
1001
0000
0000
0011
0000
0110
0000
,
0000
0000
0101
0010
0000
0000
1010
0100
,
0000
0011
0100
0010
1001
0010
0101
1000
,
0010
0000
1100
0001
0000
0000
0110
0010
,
0000
1010
0100
0001
0011
0010
1100
1000
,
0001
1000
0101
0100
0000
0000
0110
0001
,
0000
1010
1000
0100
0011
0010
1010
1000
,
0001
0000
1100
0010
0000
0000
0101
1000
,
0000
1100
1000
0100
0010
0001
0110
1000
,
0001
1000
0110
0001
1000
0001
0011
0100
,
0001
1010
0100
0010
1100
0010
1001
1000
,
0100
0010
0101
1000
0001
0010
1100
0001
,
1000
0110
1000
0010
1100
0100
0011
1000
,
0001
0100
1010
0100
0010
1000
0101
1000
,
0010
1010
0001
0100
0110
0010
0011
0100
,
0001
0000
0100
0000
2002
3003
0000
0000
0010
0000
0100
0000
1000
0000
0100
0000
,
0010
0001
0010
0100
0001
0000
0000
0000
,
0100
0001
0100
0010
0100
0001
0100
0010
,
1000
0100
0010
0001
1000
0010
1000
0010
,
0100
1000
0100
0010
0100
0010
0001
0010
,
0100
0001
1000
0100
0010
0001
0010
0100
,
1001
1000
0001
0100
0010
0100
0001
0010
,
0100
1000
0001
1000
0010
0100
0010
0100
,
0001
1000
0010
0100
0010
1000
0100
1000
,
0100
0010
0001
0010
0100
1000
0010
1000
,
0010
1000
0100
1000
0010
0100
0001
0010
,
0100
1000
0100
0010
0001
0100
0010
1000
,
0100
0010
0100
1001
0100
0010
0011
0100
,
1000
0001
0100
0010
1000
1000
0100
0010
,
0100
0001
0010
0001
1000
0001
1001
0010
,
1001
1000
0001
1000
0001
1000
0100
1000
,
0100
0010
1000
0001
1000
0100
0001
0100
,
1000
0010
0100
0010
0001
0000
0000
0001
,
0000
0000
0001
0010
0200
0300
0000
0000
;

//---------------dance-single - N00b_Saib0t----------------
#NOTES:
     dance-single:
     N00b_Saib0t:
     Hard:
     11:
     0.472852,0.428286,0.211499,0.042300,0.000000,289.000000,20.000000,4.000000,0.000000,0.000000,0.000000,0.472852,0.428286,0.211499,0.042300,0.000000,289.000000,20.000000,4.000000,0.000000,0.000000,0.000000:
// measure 0
0000
0000
1000
0000
1000
0000
0000
0001
,  // measure 1
0010
0001
0010
0000
0100
0000
0000
1000
,  // measure 2
0100
1000
0100
0000
0010
0000
0000
0010
,  // measure 3
0100
0010
0100
0000
0001
0000
0000
0100
,  // measure 4
0001
0100
0001
0000
1000
0000
0000
0100
,  // measure 5
0010
2002
0000
0000
0000
0000
0000
0000
,  // measure 6
0000
3003
0010
0000
0000
0000
0010
0000
,  // measure 7
0000
0001
0000
0000
0100
0000
1001
0000
,  // measure 8
0000
0100
0000
0100
,  // measure 9
0000
1000
0000
0000
0010
0000
1001
0000
,  // measure 10
0000
0001
0000
0001
,  // measure 11
0000
0010
0000
0000
1000
0000
1100
0000
,  // measure 12
0000
1000
0000
1000
,  // measure 13
0000
0100
0000
0000
0001
0000
0101
0000
,  // measure 14
0000
1000
0000
0100
,  // measure 15
0000
0010
0000
0000
0001
0000
0011
0000
,  // measure 16
0000
0001
0000
0010
,  // measure 17
0000
0100
0000
0000
1000
0000
1010
0000
,  // measure 18
0000
0000
1100
0101
0000
0000
1010
0100
,  // measure 19
0000
1000
0100
0010
0001
0010
0100
1000
,  // measure 20
0000
0000
1100
0101
0000
0000
1010
0011
,  // measure 21
0000
0001
0010
0100
1000
0100
0010
0001
,  // measure 22
1000
0100
1000
0000
0000
0000
0011
1010
,  // measure 23
0000
0100
0010
0100
0001
0100
0010
0100
,  // measure 24
0000
0000
0110
1001
0000
0000
1001
0110
,  // measure 25
0000
0001
0100
0010
1000
0100
0010
0001
,  // measure 26
0100
0001
0010
0001
0100
0001
1000
0100
,  // measure 27
0001
0100
1000
0010
1000
0001
0100
0001
,  // measure 28
1000
0010
1000
0001
0010
0100
1000
0001
,  // measure 29
1000
0010
1000
0010
1000
0100
0010
0100
,  // measure 30
1000
0001
1000
0100
1000
0010
1000
0001
,  // measure 31
0010
0001
0100
0010
0100
0010
1000
0001
,  // measure 32
1000
0100
0020
0030
1000
0100
1000
0100
,  // measure 33
0010
0001
0010
0100
1000
0000
0000
0000
,  // measure 34
0001
0010
0100
0001
0100
1000
0100
0010
,  // measure 35
0001
0100
0010
0001
0010
1000
0001
0100
,  // measure 36
0010
1000
0100
0001
0100
0010
0001
0010
,  // measure 37
0100
0001
0100
1000
0010
0001
0010
0100
,  // measure 38
0001
1000
0001
0100
0010
0100
0001
0010
,  // measure 39
0100
1000
0100
0010
0100
1000
0010
0100
,  // measure 40
0001
0100
0010
1000
0001
0100
0001
0100
,  // measure 41
1000
0100
0001
1000
0100
1000
0001
1000
,  // measure 42
0100
1000
0001
1000
0100
1000
0010
0001
,  // measure 43
0010
1000
0001
0010
1000
0010
0001
0100
,  // measure 44
0010
1000
0010
1000
0100
1000
0100
1000
,  // measure 45
0001
0100
0010
0001
0010
1000
0001
0010
,  // measure 46
0100
1000
0100
0010
0100
0010
0100
0010
,  // measure 47
0100
0001
0100
1000
0001
1000
0010
1000
,  // measure 48
0010
1000
0100
0010
0100
1000
0010
0100
,  // measure 49
0001
0010
0100
1000
0001
0000
0000
0100
,  // measure 50
0000
0000
1000
0100
0020
0030
0000
0000
;

//---------------dance-single - N00b_Saib0t----------------
#NOTES:
     dance-single:
     N00b_Saib0t:
     Medium:
     7:
     0.277970,0.240911,0.000000,0.021150,0.000000,182.000000,0.000000,2.000000,0.000000,0.000000,0.000000,0.277970,0.240911,0.000000,0.021150,0.000000,182.000000,0.000000,2.000000,0.000000,0.000000,0.000000:
0000
0000
0100
0000
0100
0000
0000
0001
,
1000
0001
0000
0000
0010
0000
0000
0001
,
0100
0001
0000
0000
0010
0000
0000
1000
,
0001
1000
0000
0000
0100
0000
0000
0100
,
1000
0100
0000
0000
0010
0000
0000
0100
,
0010
0100
0000
0000
0000
0000
0000
0000
,
0000
0001
0000
0001
,
0000
0001
0000
0000
1000
0000
1000
0000
,
0000
0010
0000
0010
,
0000
0010
0000
0000
0100
0000
0100
0000
,
0000
1000
0000
1000
,
0000
1000
0000
0000
0001
0000
0001
0000
,
0000
0100
0000
0100
,
0000
0100
0000
0000
0010
0000
0010
0000
,
0000
1000
0000
0001
,
0000
1000
0000
0000
0001
0000
1000
0000
,
0000
0001
0000
1000
,
0000
0001
0000
0000
1000
0000
0001
0000
,
0000
0000
1000
0000
0000
0000
0010
0010
,
0000
1000
0100
0010
,
0001
0000
0010
0010
0000
0000
1000
1000
,
0000
0001
0010
0100
,
1000
0000
0001
0000
0000
0000
1000
0001
,
0000
1000
0100
0010
,
0001
0000
0001
1000
0000
0000
0100
0010
,
1000
0010
0100
0001
,
1000
0001
0001
1000
,
0100
0000
0010
0000
0001
0010
0001
0000
,
0010
0001
0100
0001
,
0010
0000
0010
0000
0100
0001
0100
0000
,
0001
0100
0010
0001
,
0001
0010
0010
0001
,
1000
0100
0002
0003
0100
0000
0100
0000
,
0001
0100
0100
0000
,
0010
0001
1000
0010
,
0100
0001
1000
0100
,
1000
0000
0001
0000
0010
1000
0010
0000
,
0001
1000
0001
0100
,
1000
0100
0100
0010
,
1000
0010
1000
0100
,
0100
1000
0100
0001
,
0100
1000
0010
0100
,
1000
0010
1000
0001
,
1000
0010
0010
0100
,
1000
0100
0010
0001
,
0100
0001
1000
0010
,
1000
0010
1000
0001
,
1000
0100
1000
0010
,
1000
0010
1000
0100
,
0010
0000
1000
0000
0000
0000
0000
0100
,
0000
0000
1000
0100
0020
0030
0000
0000
;

//---------------dance-single - N00b_Saib0t----------------
#NOTES:
     dance-single:
     N00b_Saib0t:
     Easy:
     5:
     0.161646,0.240911,0.010575,0.063450,0.000000,100.000000,1.000000,6.000000,0.000000,0.000000,0.000000,0.161646,0.240911,0.010575,0.063450,0.000000,100.000000,1.000000,6.000000,0.000000,0.000000,0.000000:
0000
0000
0100
0000
0000
0000
0000
0001
,
0000
0001
0000
0000
0000
0000
0000
0001
,
0000
0001
0000
0000
0000
0000
0000
1000
,
0000
1000
0000
0000
0000
0000
0000
0100
,
0000
0100
0000
0000
0000
0000
0000
0100
,
0000
0100
0000
0000
0000
0000
0000
0000
,
0000
0001
0000
1000
,
0000
0000
0100
0100
,
0000
1000
0000
0001
,
0000
0000
0010
0010
,
0000
2000
0000
0000
,
0000
0000
0000
3001
,
0000
0200
0000
0000
0000
0000
0000
0000
,
0000
0000
0000
0301
,
0000
0020
0000
0000
0000
0000
0000
0000
,
0000
0000
0000
0000
0000
0030
0100
0000
,
0000
0010
0000
0100
,
0000
0000
1000
0001
,
0000
1000
0000
0010
,
0000
1000
0000
0100
,
0000
0010
0000
0001
,
0000
0001
0000
0010
,
0000
0100
0000
1000
,
0000
1000
0000
0010
,
0000
0001
0000
0100
,
0000
0010
0000
0001
,
0000
0001
0000
1000
,
0000
0010
0001
0010
,
0001
0010
0000
0001
,
0000
0010
0000
0100
,
0001
0100
0001
0100
,
0000
0010
0000
0001
,
0000
0000
2002
3003
0100
0000
0010
0000
,
0100
0010
0100
0000
,
0010
0000
1000
0010
,
0000
0001
1000
0000
,
1000
0000
0010
0000
,
0001
0000
0001
0000
,
1000
0000
0100
0000
,
1000
0000
0010
0000
,
0100
0000
0001
0000
,
0100
0000
0010
0000
,
1000
0000
0001
0000
,
1000
0000
0010
0000
,
1000
0000
0010
0000
,
0100
0000
1000
0000
,
0010
0000
0100
0000
,
0001
0000
1000
0000
,
0010
0000
1000
0000
,
0010
0000
0000
0000
,
0000
0000
2000
0000
0000
3000
0000
0000
;

//---------------dance-single - N00b_Saib0t----------------
#NOTES:
     dance-single:
     N00b_Saib0t:
     Beginner:
     2:
     0.129921,0.159418,0.000000,0.000000,0.000000,86.000000,0.000000,0.000000,0.000000,0.000000,0.000000,0.129921,0.159418,0.000000,0.000000,0.000000,86.000000,0.000000,0.000000,0.000000,0.000000,0.000000:
0000
0000
0100
0000
0000
0000
0000
0001
,
0000
0000
0000
0000
0000
0000
0000
0001
,
0000
0000
0000
0000
0000
0000
0000
1000
,
0000
0000
0000
0000
0000
0000
0000
0100
,
0000
0000
0000
0000
0000
0000
0000
0100
,
0000
0000
0000
0000
,
0000
0001
0000
0001
,
0000
0000
0001
0001
,
0000
1000
0000
1000
,
0000
0000
1000
1000
,
0000
1000
0000
0000
,
0000
0000
0000
0001
,
0000
0100
0000
0000
0000
0000
0000
0000
,
0000
0000
0000
0001
,
0000
0010
0000
0000
0000
0000
0000
0000
,
0000
0000
0000
1000
,
0000
0100
0000
0100
,
0000
0000
0100
0100
,
0000
1000
0000
1000
,
0000
1000
0000
1000
,
0000
0010
0000
0010
,
0000
0010
0000
0010
,
0000
0100
0000
0100
,
0000
0100
0000
0010
,
0000
0010
0000
0010
,
0000
1000
0000
1000
,
0000
1000
0000
0010
,
0000
0010
0000
0010
,
0000
0010
0000
1000
,
0000
0010
0000
0100
,
0000
0100
0000
0100
,
0000
0000
0000
0000
,
0000
0010
0100
0100
,
0100
0100
0100
0000
,
0010
0000
0000
0010
,
0000
0000
1000
0000
,
1000
0000
0000
0000
,
0001
0000
0001
0000
,
1000
0000
1000
0000
,
1000
0000
0010
0000
,
0010
0000
0010
0000
,
0010
0000
0010
0000
,
1000
0000
1000
0000
,
1000
0000
1000
0000
,
1000
0000
0010
0000
,
0010
0000
0010
0000
,
0010
0000
0100
0000
,
0100
0000
0100
0000
,
0100
0000
0010
0000
,
0010
0000
0000
0000
,
0000
0010
0000
0000
;
