#TITLE:I Was Made For Lovin' You;
#SUBTITLE:;
#ARTIST:KISS;
#TITLETRANSLIT:;
#SUBTITLETRANSLIT:;
#ARTISTTRANSLIT:;
#GENRE:Disco Rock;
#CREDIT:N00b_Saib0t;
#BANNER:I Was Made For Lovin' You.png;
#BACKGROUND:I Was Made For Lovin' You-bg.png;
#LYRICSPATH:;
#CDTITLE:;
#MUSIC:I Was Made For Lovin' You.ogg;
#OFFSET:3.258511;
#SAMPLESTART:70.000000;
#SAMPLELENGTH:14.200000;
#LASTBEATHINT:4.645050;
#SELECTABLE:YES;
#BPMS:0.000000=128.449997
,319.000000=64.224998
,357.000000=128.449997
;
#STOPS:
;
#BGCHANGES:;
#KEYSOUNDS:;
#ATTACKS:;

//---------------dance-single - ----------------
#NOTES:
     dance-single:
     :
     Challenge:
     16:
     0.671219,0.960488,0.163593,0.380448,0.690513,1235.000000,1192.000000,43.000000,100.000000,0.000000,3.000000,0.671219,0.960488,0.163593,0.380448,0.690513,1235.000000,1192.000000,43.000000,100.000000,0.000000,3.000000:
// measure 0
0000
0000
0000
0000
,  // measure 1
0000
0000
0000
0000
,  // measure 2
0000
0000
0000
0000
,  // measure 3
0000
0000
0000
0000
,  // measure 4
1000
0001
1000
0001
1000
0001
1000
0001
1000
0001
1000
0001
1000
0001
1000
0001
,  // measure 5
1000
0010
1000
0010
1000
0010
1000
0010
1000
0010
1000
0010
1000
0010
1000
0010
,  // measure 6
1000
0100
1000
0100
1000
0100
1000
0100
1000
0100
1000
0100
1000
0100
1000
0100
,  // measure 7
1000
0001
1000
0001
1000
0001
1000
0001
1000
0001
0000
1000
0100
0000
1000
0000
,  // measure 8
0001
1000
2200
3300
2020
0000
3030
0002
,  // measure 9
0003
1000
0202
0000
0000
0000
0000
0000
,  // measure 10
0303
0000
2000
3000
0002
0003
0000
2000
,  // measure 11
3000
0001
2020
0000
0000
0000
0000
0000
,  // measure 12
0000
3030
0002
0000
2003
0000
0000
3002
,  // measure 13
0003
0000
1000
0000
0002
0000
0003
0000
0001
0010
0100
0000
0010
0100
1000
0000
,  // measure 14
0200
0000
0000
0000
0000
0300
0000
0000
,  // measure 15
0001
0010
0100
0000
0001
0000
0010
0100
1000
0000
0010
0100
1000
0000
1000
0000
,  // measure 16
0200
0000
0000
0300
1000
0000
0100
0000
0010
0000
0001
0000
0010
0000
0100
0000
,  // measure 17
0010
1000
0100
1000
0010
1000
0001
0100
,  // measure 18
0010
1000
0100
0010
0001
0100
0010
1000
,  // measure 19
0010
0100
0010
1000
0010
1000
1001
0000
,  // measure 20
0010
0001
1000
0100
0010
0100
0001
0100
,  // measure 21
1000
0100
0010
1000
0100
0001
0100
1000
,  // measure 22
0010
1000
0010
0100
0010
0001
1000
0100
,  // measure 23
0010
0000
0001
0000
1000
0000
0000
0000
1001
0000
0000
0100
1000
0000
0001
0000
,  // measure 24
0001
0010
0001
0010
0001
0010
0001
0010
0001
0010
0001
0010
0001
0010
0001
0010
,  // measure 25
0001
1000
0001
1000
0001
1000
0001
1000
0001
1000
0001
1000
0001
1000
0001
1000
,  // measure 26
0001
0100
0001
0100
0001
0100
0001
0100
0001
0100
0001
0100
0001
0100
0001
0100
,  // measure 27
0001
0010
0100
0010
0100
0010
0100
0010
0100
0010
0100
0010
0100
0010
0100
0010
,  // measure 28
0001
1000
0100
1000
0010
1000
0100
1000
0010
1000
0100
1000
0010
1000
0100
1000
,  // measure 29
0010
1000
0001
0010
0001
0100
0001
0010
0001
0100
0001
0010
0001
0100
0001
0010
,  // measure 30
0001
0010
0001
0010
0001
0010
0001
0010
0001
0010
0001
0010
0001
0010
0001
0010
,  // measure 31
0001
1000
0001
1000
0001
1000
0001
1000
0001
1000
0001
1000
0001
1000
0001
1000
,  // measure 32
0001
0100
0001
0100
0001
0100
0001
0100
0001
0100
0001
0100
0001
0100
0001
0100
,  // measure 33
0001
1000
0100
1000
0010
1000
0001
1000
0100
1000
0010
1000
0001
1000
0100
0010
,  // measure 34
0001
1000
0100
1000
0010
1000
0100
1000
0010
1000
0100
1000
0010
1000
0100
1000
,  // measure 35
0010
1000
0001
0010
0001
0100
0001
0010
0001
0100
0001
0010
0001
0100
0001
0010
,  // measure 36
0001
1000
0100
1000
0010
1000
0001
1000
0100
1000
0010
1000
0001
1000
0100
1000
,  // measure 37
0010
1000
0100
1000
0010
1000
0001
1000
0100
0010
0001
1000
0100
0010
0001
0000
,  // measure 38
0000
1000
0001
2000
0000
3001
2000
0000
,  // measure 39
3001
2000
0000
3002
0000
0003
1001
0000
,  // measure 40
0100
1000
0010
0100
0001
1000
0100
0010
,  // measure 41
0001
1000
0010
0100
0001
0010
0100
1000
,  // measure 42
0010
0100
0001
0010
0100
0010
0100
1000
,  // measure 43
0010
0100
0001
1000
0001
1000
0001
1000
,  // measure 44
0001
0010
0100
1000
0010
0100
0001
0010
,  // measure 45
0100
1000
0010
0100
0001
0010
0100
1000
,  // measure 46
0010
0100
0001
0010
0100
1000
0001
0100
,  // measure 47
0010
0000
1000
0000
0001
0000
0010
0000
0100
0000
1000
0000
0010
0000
0000
0001
,  // measure 48
1000
0000
0001
0010
0001
0100
0001
1000
0001
0010
0001
0100
0001
1000
0001
0010
,  // measure 49
0001
1000
0100
0010
0001
1000
0001
0100
0001
0010
0001
1000
0010
1000
0010
1000
,  // measure 50
0001
1000
0010
1000
0001
1000
0001
0010
0001
0100
0001
1000
0001
0100
0001
1000
,  // measure 51
0001
1000
0001
1000
0100
0010
0001
1000
0100
1000
0100
1000
0100
1000
0001
1000
,  // measure 52
0001
1000
0001
1000
0010
1000
0010
1000
0010
1000
0001
1000
0001
0100
0001
0010
,  // measure 53
0001
0100
0001
0010
0001
0100
0001
1000
0001
0100
0001
0010
0001
0100
0001
1000
,  // measure 54
0001
1000
0001
0100
0001
0010
0001
0010
0100
1000
0001
1000
0001
1000
0001
1000
,  // measure 55
0001
1000
0001
1000
0010
1000
0001
1000
0100
1000
0001
1000
0100
1000
0010
1000
,  // measure 56
0001
1000
0100
1000
0010
1000
0001
1000
0100
0010
0100
0010
0100
0010
0100
0010
,  // measure 57
0100
0010
0001
0100
0010
1000
0100
0010
0001
0100
0010
1000
0100
1000
0100
1000
,  // measure 58
0100
1000
0001
1000
0001
1000
0001
1000
0010
1000
0010
1000
0010
1000
0001
1000
,  // measure 59
0010
1000
0001
1000
0100
1000
0001
0100
0001
1000
0001
0010
0001
0100
0001
1000
,  // measure 60
0001
0100
0001
1000
0001
0010
0001
0100
0001
1000
0001
0010
0001
0100
0001
0100
,  // measure 61
0001
1000
0001
1000
0001
0010
0001
0010
0001
1000
0100
0010
0001
1000
0200
0000
,  // measure 62
0302
2003
3002
0003
2000
3002
0003
2000
,  // measure 63
3002
0003
2000
0000
0000
0001
3000
1001
,  // measure 64
0000
0100
1000
0100
0010
0100
0001
0100
,  // measure 65
1000
0100
0010
0001
1000
0010
1000
0001
,  // measure 66
1000
0100
0010
0001
0010
0100
1000
0001
,  // measure 67
0100
0010
1000
0001
0010
0100
0001
0100
,  // measure 68
1000
0010
1000
0001
1000
0010
1000
0100
,  // measure 69
0010
0001
0010
1000
0010
0001
0010
0100
,  // measure 70
0010
0001
1000
0100
0010
0100
1000
0001
,  // measure 71
1000
0000
0001
0000
0110
0000
1000
0010
1000
0000
0001
0100
0001
0000
1000
0000
,  // measure 72
0100
1000
0100
1000
0100
1000
0100
1000
,  // measure 73
0001
1000
0001
1000
0001
1000
0001
1000
,  // measure 74
0001
1000
0100
0010
0001
0010
0100
1000
,  // measure 75
0001
0100
0010
1000
0010
1001
0000
0100
,  // measure 76
0010
1000
0001
1000
0010
1000
0001
1000
,  // measure 77
0100
1000
0001
1000
0010
1000
0001
1000
,  // measure 78
0010
1000
0001
1000
0100
1000
0001
1000
,  // measure 79
0100
0000
1000
0000
0100
0000
0100
0000
0100
1000
0100
1000
0200
0000
0000
0000
,  // measure 80
0000
2300
0000
3002
,  // measure 81
0000
0000
0000
0000
1003
0000
0100
0010
0000
0000
0001
0000
2000
0000
0000
0000
,  // measure 82
0000
3002
0000
2003
,  // measure 83
0000
0000
0000
3010
0000
0010
0200
0000
0001
0000
0010
0000
0302
0000
0000
0000
,  // measure 84
0000
0000
1003
0002
0000
0000
0000
0000
0000
0000
0000
0000
0203
0000
0000
0000
,  // measure 85
0000
0300
0000
0010
0000
0100
0002
0000
2003
0000
3002
0000
0203
0000
0000
0000
,  // measure 86
0300
0000
0100
0020
0000
0000
0000
0000
0030
0000
0000
0000
1000
0100
0010
0001
,  // measure 87
1000
0000
1000
2000
0000
3000
1100
0000
1010
0000
1001
0000
1010
0000
1100
0000
,  // measure 88
1010
0000
0000
0000
1001
0000
0000
0000
1100
0000
0000
0000
1010
0000
0000
0000
1001
0000
0000
0000
1100
0000
0000
0000
1000
0100
0010
0001
1000
0100
0010
0001
,  // measure 89
1000
0100
0010
0001
2000
0000
0000
3000
1000
0000
0100
0000
1000
0000
0100
0000
1000
0000
0100
0000
1000
0000
0100
0000
1000
0000
0100
0000
1000
0000
0100
0000
,  // measure 90
1000
0001
1000
0001
1000
0001
1000
0001
1000
0001
1000
0001
1000
0001
1000
0001
,  // measure 91
1000
0010
1000
0010
1000
0010
1000
0010
1000
0010
1000
0010
1000
0010
1000
0010
,  // measure 92
1000
0001
0010
0001
0010
0001
0010
0001
0010
0001
0010
0001
0010
0001
0010
0001
,  // measure 93
0010
0001
0100
0001
0100
0001
0100
0001
0100
0001
0100
0001
0100
0001
0100
0001
,  // measure 94
0100
0001
0100
0010
0100
0010
0100
0010
0100
0010
0100
0010
0100
0010
0100
0010
,  // measure 95
1000
0010
1000
0010
1000
0010
1000
0010
1000
0010
1000
0010
1000
0010
1000
0010
,  // measure 96
1000
0001
1000
0001
1000
0001
1000
0001
1000
0001
1000
0001
1000
0001
1000
0001
,  // measure 97
1000
0100
0010
0001
0000
0000
0200
0000
0010
0000
0300
0000
0100
0000
0010
0000
,  // measure 98
0100
0000
0010
0100
1000
0000
0001
0010
0100
0000
0001
0000
0010
0100
1000
0000
,  // measure 99
0100
0000
0020
0000
0000
0000
0000
0000
0002
0030
0000
0000
1003
0100
0010
0000
,  // measure 100
2000
0000
0000
0000
3010
0100
0010
0000
2000
0000
3002
0000
0000
0000
1000
0000
,  // measure 101
1003
0000
0000
1000
0002
0000
0000
0000
0100
0000
0000
0000
2000
0000
0000
0000
,  // measure 102
3000
1000
0000
0103
2020
0000
0000
0000
,  // measure 103
0000
0000
0000
0000
0000
0000
3030
0101
0000
0000
0000
2002
0000
0000
0000
0000
,  // measure 104
3003
1100
0000
0100
2002
0000
0000
0000
,  // measure 105
0000
0000
0000
0000
3003
0000
0000
0011
0000
0000
0000
0220
0000
0000
0000
0000
,  // measure 106
0330
0000
2000
0000
0000
0001
0000
0002
3000
0000
0000
0000
0000
0000
0000
0000
,  // measure 107
0000
0003
0000
1100
0000
0202
0000
0303
,  // measure 108
2000
0000
0001
3002
0000
0000
0000
0003
,  // measure 109
0000
0000
0020
0000
0000
0000
2030
0000
0000
0000
3202
0000
0000
0303
1000
0000
,  // measure 110
0100
0000
0100
0010
0000
2200
0000
3322
,  // measure 111
0000
1033
0000
1000
0000
0002
0000
1003
,  // measure 112
0001
0000
0001
0100
0000
1001
0000
0110
,  // measure 113
0000
0002
0000
2003
0000
3002
0000
0103
,  // measure 114
0010
0000
0010
0100
0000
2000
0000
3002
,  // measure 115
0000
0023
0000
2030
0000
3002
0000
0103
,  // measure 116
0010
0000
0000
0000
1000
0000
0001
0000
0110
0000
1000
0100
1000
0000
0001
0010
,  // measure 117
0001
0001
1000
0001
1000
0100
0010
1001
,  // measure 118
1000
0001
0010
0001
1000
0100
0001
1000
,  // measure 119
0100
1000
0010
0100
1000
0100
0010
1001
,  // measure 120
0001
0100
0010
0001
0100
0010
1000
0100
,  // measure 121
1000
0100
0010
0001
0001
0010
0100
1001
,  // measure 122
0010
0100
0010
1000
0100
0001
0100
0001
,  // measure 123
1000
0100
0010
0100
1000
0100
0010
1001
,  // measure 124
1000
0000
0100
0000
0010
0000
0001
0000
1000
0000
1000
0100
0010
0001
1000
0100
,  // measure 125
0010
0001
0000
0000
0000
0000
0020
0000
0000
0000
0230
0000
0000
0000
1300
0000
,  // measure 126
0001
0000
0100
0010
0000
2000
0000
3002
,  // measure 127
0000
0023
0000
2030
0000
3200
0000
1300
,  // measure 128
0100
0000
1000
0100
0000
0011
0000
1010
,  // measure 129
0000
0002
0000
2003
0000
3020
0000
1030
,  // measure 130
0001
0000
0001
1000
0000
0001
0000
1000
,  // measure 131
0000
0001
0000
0002
0000
1000
0000
1003
,  // measure 132
0100
0000
0010
2002
0000
0000
0000
3003
;
