#TITLE:Can't Stop the Rain;
#SUBTITLE:;
#ARTIST:Cascada;
#TITLETRANSLIT:;
#SUBTITLETRANSLIT:;
#ARTISTTRANSLIT:;
#GENRE:Eurodance;
#CREDIT:N00b_Saib0t;
#BANNER:Can't Stop The Rain.png;
#BACKGROUND:Can't Stop The Rain-bg.png;
#LYRICSPATH:;
#MUSIC:Can't Stop the Rain.ogg;
#OFFSET:0.384;
#SAMPLESTART:56.125999;
#SAMPLELENGTH:15.000000;
#SELECTABLE:YES;
#BPMS:0.000000=142.000000,104.000000=71.000000,120.000000=142.000000,212.000000=71.000000;
#STOPS:179.500000=1.690000
;
#DELAYS:;
#TIMESIGNATURES:0.000000=4=4
;
#BGCHANGES:;
#KEYSOUNDS:;
#ATTACKS:;

//---------------dance-single - N00b_Saib0t----------------
#NOTES:
     dance-single:
     N00b_Saib0t:
     Challenge:
     12:
     0.612,0.689,0.240,0.030,0.375,401.000,24.000,3.000,0.000,3.000,2.000,0.000,0.612,0.689,0.240,0.030,0.375,401.000,24.000,3.000,0.000,3.000,2.000,0.000:
0000
0000
0000
0000
,
0000
0000
0000
0000
,
0000
0000
0000
0000
,
1000
0001
1000
0010
1000
0100
1000
0001
,
1000
0010
1000
0001
1000
0100
1000
0100
,
1000
0010
1001
0100
0001
0010
1001
0100
,
1100
0100
0101
1000
0001
1000
1001
0010
,
0001
1000
0110
0001
0100
0010
0101
1000
,
0100
0010
0001
0010
0100
1000
0010
1000
,
0100
1000
0001
0100
0010
1000
0100
0010
,
0001
1000
0001
1000
0010
1000
0100
1000
,
0001
0100
0010
1000
0010
1000
0001
0100
,
0001
1000
0100
0001
0100
1000
0010
0001
,
0010
1000
0101
1000
0100
0100
0110
1000
,
0010
0100
0101
0010
0001
0100
0110
0000
,
4000
0004
0000
0000
0000
0000
0000
0000
0000
0000
0000
0000
0000
0000
3003
0000
,
0220
1000
0000
0001
0000
1000
0330
0000
,
1000
0000
0000
0100
0010
0000
0000
0001
0100
0000
0000
0010
1000
0000
0000
0100
,
0010
0000
0000
0001
1000
0000
0000
0010
0100
0000
0000
0001
0010
0000
0000
1000
,
0010
0000
0000
0001
1000
0000
0000
0001
0100
0000
0000
0010
1000
0000
0000
1000
,
0010
0000
0000
1000
0100
0000
0000
1000
0010
0000
0100
0000
0010
0000
0001
0000
,
0010
0000
0000
1000
0010
0000
0000
0100
1000
0000
0000
0100
0001
0000
0000
0100
,
0010
0000
0000
0100
0001
0000
0000
1000
0100
0000
0000
0010
0001
0000
0000
0010
,
0100
0000
0000
1000
0100
0000
0000
0010
0100
0000
0000
1000
0001
0000
0000
1000
,
0001
0000
0000
1000
0010
0000
0000
1000
0100
0000
0001
0000
0100
0000
1000
0000
,
0020
0000
0000
0030
,
0001
1000
0100
0010
0001
0000
0010
0000
1000
0010
0100
0001
1000
0000
0100
0000
,
1000
0010
0100
0001
0100
0000
1000
0000
0001
1000
0010
0100
0010
0000
0001
0000
,
0100
0010
1000
0100
0010
0000
1000
0000
0010
0001
0010
0001
0100
0000
0010
0000
,
0100
0001
0010
0100
1000
0000
0001
0000
1000
0100
0010
0001
0100
0010
1000
0100
,
0010
0001
1000
0100
1000
0010
1000
0100
,
1000
0001
1000
0100
1000
0010
0001
1000
,
0100
0001
0010
0100
0010
0001
0010
0100
,
0010
1000
0010
0001
1000
0100
0001
0100
,
1000
0010
0001
0010
1000
0010
0110
1000
,
0100
0010
1100
0001
1000
0010
1001
0100
,
0010
1000
1010
1000
0100
1000
0011
0001
,
0100
0010
1000
0100
0010
0001
0010
0100
,
1000
0010
0100
0001
0100
0010
1000
0001
,
1000
0010
1000
0100
0001
1000
0010
0001
,
0100
0001
0010
1000
0010
0100
1000
0001
,
1000
0100
0010
0001
1000
0010
0001
1000
,
0100
0001
1010
1000
0100
0010
0011
0010
,
0100
1000
1100
0100
0010
0100
0110
0100
,
0001
0100
0101
0100
1100
0010
1001
1000
,
1000
0000
0000
1000
0100
0000
0000
0100
0010
0000
0000
0010
0001
0000
0000
0001
,
0100
0000
0000
0100
0010
0000
0000
0010
1000
0000
0000
1000
0100
0000
0000
0100
,
0010
0000
0000
0010
1000
0000
0000
1000
0010
0000
0000
0010
0001
0000
0000
0001
,
0100
0000
0000
0100
0010
0000
0000
0010
1000
0000
0100
0000
0010
0000
0001
0000
,
1000
0000
0000
1000
0001
0000
0000
0001
0100
0000
0000
0100
1000
0000
0000
1000
,
0100
0000
0000
0100
0010
0000
0000
0010
0100
0000
0000
0100
0001
0000
0000
0001
,
0010
0000
0000
0010
0100
0000
0000
0100
1000
0000
0000
1000
0001
0000
0000
0001
,
0100
0000
0000
0100
0001
0000
0000
0001
1000
0000
0010
0000
0001
0000
1000
0000
,
0100
0000
0000
0000
;

//---------------dance-single - N00b_Saib0t----------------
#NOTES:
     dance-single:
     N00b_Saib0t:
     Beginner:
     1:
     0.104,0.116,0.000,0.040,0.000,69.000,0.000,4.000,0.000,0.000,0.000,0.000,0.104,0.116,0.000,0.040,0.000,69.000,0.000,4.000,0.000,0.000,0.000,0.000: // measure 1
0000
0000
0000
0000
,  // measure 2
0000
0000
0000
0000
,  // measure 3
0000
0000
0000
0000
,  // measure 4
1000
0000
0000
0000
,  // measure 5
1000
0000
0000
0000
,  // measure 6
0001
0000
0000
0000
,  // measure 7
0010
0000
0000
0000
,  // measure 8
1000
0000
0000
0000
,  // measure 9
1000
0000
0000
0000
,  // measure 10
0001
0001
0000
0000
,  // measure 11
0010
0000
0000
0000
,  // measure 12
0100
0000
0000
0000
,  // measure 13
1000
0000
0000
0000
,  // measure 14
0100
0000
0000
0000
,  // measure 15
0100
0000
0000
0000
,  // measure 16
0010
0000
0001
0000
,  // measure 17
0010
0000
0000
0000
,  // measure 18
0100
0000
0100
0000
,  // measure 19
0100
0100
0000
0000
,  // measure 20
1000
0000
1000
0000
,  // measure 21
1000
1000
0000
0000
,  // measure 22
0010
0000
0010
0000
,  // measure 23
0010
0010
0000
0000
,  // measure 24
0001
0000
0001
0000
,  // measure 25
0001
0001
0000
0000
,  // measure 26
0100
0000
0000
0000
,  // measure 27
2000
0000
0000
0000
,  // measure 28
3200
0000
0000
0000
,  // measure 29
0320
0000
0000
0000
,  // measure 30
0032
0000
0000
0000
,  // measure 31
0013
0000
0000
0000
,  // measure 32
1000
0000
0000
0000
,  // measure 33
0001
0000
0000
0000
,  // measure 34
0100
0000
0000
0000
,  // measure 35
0001
0000
0000
0000
,  // measure 36
0100
0000
0000
0000
,  // measure 37
0100
0000
0100
0000
,  // measure 38
0100
0000
0000
0000
,  // measure 39
1000
0000
0000
0000
,  // measure 40
0100
0000
0000
0000
,  // measure 41
0010
0000
0000
0000
,  // measure 42
0010
0000
0000
0000
,  // measure 43
0001
0001
0000
0000
,  // measure 44
0100
0000
0000
0000
,  // measure 45
1000
0000
0000
0000
,  // measure 46
0100
0000
0000
0000
,  // measure 47
0010
0000
0010
0000
,  // measure 48
0001
0000
0001
0000
,  // measure 49
1000
0000
0000
0000
,  // measure 50
1000
0000
0000
0000
,  // measure 51
0100
0000
0100
0000
,  // measure 52
0100
0100
0000
0000
,  // measure 53
0001
0000
0001
0000
,  // measure 54
0001
0000
0000
0000

//---------------dance-single - N00b_Saib0t----------------
#NOTES:
     dance-single:
     N00b_Saib0t:
     Easy:
     5:
     0.189,0.186,0.030,0.010,0.000,128.000,3.000,1.000,0.000,0.000,0.000,0.000,0.189,0.186,0.030,0.010,0.000,128.000,3.000,1.000,0.000,0.000,0.000,0.000:
0000
0000
0000
0000
,
0000
0000
0000
0000
,
0000
0000
0000
0000
,
0001
0000
0010
0000
,
0010
1000
1000
1000
,
1000
0000
0010
0000
,
0010
0000
0100
1000
,
1000
0000
0001
0000
,
0010
0000
0010
0100
,
0010
0001
0010
0000
,
0010
1000
0010
0010
,
0010
0100
0001
0000
,
1000
1000
0100
0000
,
0010
0001
0001
0000
,
0001
0100
1000
0000
,
1000
0000
0100
0000
,
1000
0000
0000
0000
,
1000
0000
0010
0000
,
0001
0010
0100
0100
,
1000
0000
0100
0000
,
0100
1000
0001
1000
,
0010
0000
0010
0000
,
1000
0010
1000
0010
,
0010
0000
1000
0000
,
0200
0000
0000
0000
,
1300
0000
0000
0000
,
0010
0000
1000
0000
,
0100
0000
0100
0000
,
1000
0000
0100
1000
,
0010
0000
0010
0010
,
1000
0000
1000
0000
,
1000
0000
1000
0000
,
1000
0000
1000
0000
,
1010
0000
0000
0000
,
0100
0100
1000
0000
,
1000
0100
1000
0000
,
1000
1000
0100
1000
,
1000
0000
0010
0001
,
1000
0100
0100
0000
,
1000
0100
1000
0000
,
1000
0000
1000
0000
,
0010
0000
0000
0100
,
0100
0100
0100
0000
,
0001
0001
0001
0100
,
1000
0010
1000
0000
,
1000
0100
0100
0000
,
0010
0100
0010
0000
,
0010
1000
0100
0000
,
0100
0000
0100
0000
,
1000
0000
0000
0000
,
0110
0000
0000
0000
,
1100
0000
0000
0000
,
0001
0100
0010
0000
,
0100
0000
0000
0000
;

//---------------dance-single - N00b_Saib0t----------------
#NOTES:
     dance-single:
     N00b_Saib0t:
     Medium:
     7:
     0.333,0.318,0.250,0.070,0.000,201.000,25.000,7.000,0.000,0.000,0.000,0.000,0.333,0.318,0.250,0.070,0.000,201.000,25.000,7.000,0.000,0.000,0.000,0.000:
0000
0000
0000
0000
,
0000
0000
0000
0000
,
0000
0000
0000
0000
,
1000
0010
0001
1000
,
0001
0000
0010
0000
1000
0001
0010
0000
,
0100
0000
0010
0100
0000
0001
0000
0100
,
0000
0010
0000
1000
0100
0000
0010
0000
,
1000
0001
1000
0100
,
0002
0013
0000
0100
,
0100
0010
1000
0100
,
0100
0000
0100
0000
1000
0000
0001
0100
,
0010
0001
0010
1000
,
0002
0100
0100
0013
,
0001
0000
1000
0100
0000
1000
0000
0000
,
0001
0000
0100
0000
1000
0000
0001
1000
,
0100
0001
0010
1000
,
0200
0000
0000
0000
0000
0000
0000
0300
,
1000
0001
0001
1000
,
1100
0101
1100
0110
,
0001
1000
1000
0001
,
0011
0000
1010
0000
0100
1000
0001
0000
,
0010
0100
0100
0010
,
0101
0011
0101
1001
,
0100
0010
0010
0100
,
1100
1010
1000
0100
,
2000
0000
0000
0000
,
3001
0000
0100
0000
0010
1000
0001
0000
,
0100
0001
1000
0100
,
0010
0000
0001
0010
,
1000
0000
0001
0000
0100
0000
0010
1000
,
0010
0001
0010
1000
,
0001
0010
0100
0100
,
2000
0000
3100
0000
,
0010
0001
0010
0001
,
0011
1000
0100
0001
,
0010
0100
1000
0010
,
0001
1000
0010
0001
,
0010
0000
1000
0000
0001
0010
1000
0000
,
0100
1000
0100
0010
,
0100
1000
0100
1000
,
0001
0010
0001
0100
,
0020
1030
0000
0100
,
0100
1000
0001
0100
,
0100
0000
0100
0000
0001
0000
0010
0100
,
1000
0000
0010
0001
1000
0000
0002
0000
,
0013
0100
0100
0010
,
1010
1100
1010
1001
,
0100
0010
0010
0100
,
0101
0000
0011
0000
1000
0010
0100
0000
,
0001
1000
1000
0001
,
1100
0101
1100
0110
,
1000
0001
0001
1000
,
1010
0011
0010
1000
,
1000
0000
0000
0000
;

//---------------dance-single - N00b_Saib0t----------------
#NOTES:
     dance-single:
     N00b_Saib0t:
     Hard:
     9:
     0.449,0.477,0.300,0.040,0.280,280.000,30.000,4.000,0.000,0.000,0.000,0.000,0.449,0.477,0.300,0.040,0.280,280.000,30.000,4.000,0.000,0.000,0.000,0.000:
0000
0000
0000
0000
,
0000
0000
0000
0000
,
0000
0000
0000
0000
,
0001
0100
1000
0010
,
0001
1000
0001
0010
,
0001
1010
0100
0011
,
0001
0000
0110
0000
1000
0001
1010
0000
,
0010
1100
0010
0011
,
0100
0000
1000
0000
0010
0000
0100
0001
,
0010
0001
0100
0010
,
1000
0010
0001
0010
,
1000
0010
0100
0000
0100
0001
1000
0000
,
1000
0001
0010
0100
1000
0001
0100
0000
,
0010
1010
0001
0011
,
0100
0000
0011
0000
1000
0010
0110
0000
,
0001
0101
1100
1010
,
0021
0000
0000
0030
,
0010
0000
0000
0001
0100
0000
0000
0100
0010
0000
0000
0010
1000
0000
0000
1000
,
0001
0000
0000
0001
0010
0000
0000
0010
0100
0000
0000
0100
1000
0000
0000
1000
,
0010
0000
0000
0010
0001
0000
0000
0001
0010
0000
0000
0010
1000
0000
0000
1000
,
0100
0000
0000
0100
0010
0000
0000
0001
1000
0000
0010
0000
0100
0000
0001
0000
,
1000
0000
0000
0001
0100
0000
0000
0100
0010
0000
0000
0010
1000
0000
0000
1000
,
0100
0000
0000
0100
1000
0000
0000
1000
0001
0000
0000
0001
0100
0000
0000
0100
,
0010
0000
0000
0010
0001
0000
0000
0001
0010
0000
0000
0010
1000
0000
0000
1000
,
0001
0000
0000
0001
0100
0000
0000
0100
0010
0000
1000
0000
0001
0000
0010
0000
,
0200
0000
0000
0300
,
1100
0101
1000
0001
,
0100
0010
0100
0000
0001
0000
1000
0000
,
0010
0100
0010
0000
0001
0000
0010
0000
,
1000
0100
1000
0010
1000
0001
1000
0010
,
1000
0001
0100
1000
,
0010
0100
0010
1000
,
0010
1100
0001
1010
,
0010
1001
0100
1100
,
1000
0101
1000
1010
,
0001
0000
0100
0000
1000
0000
0001
0010
,
1000
0010
0001
1000
,
0100
1000
0010
1000
,
0100
1000
0001
0000
0001
0010
0100
0000
,
1000
0010
1000
0001
0100
0010
0100
0000
,
1000
1100
0010
1010
,
0001
0000
1010
0000
0100
1000
1001
0000
,
0010
0010
0100
0100
,
1000
1000
0001
0001
,
1100
0000
0000
0000
1010
0000
0000
0000
0011
0000
0000
0000
0202
0000
0000
0303
,
0010
0000
0000
0100
1000
0000
0000
1000
0001
0000
0000
0001
0010
0000
0000
0010
,
0100
0000
0000
0100
0001
0000
0000
0001
1000
0000
0000
1000
0010
0000
0000
0010
,
0001
0000
0000
0001
0100
0000
0000
0100
0001
0000
0000
0001
0010
0000
0000
0010
,
1000
0000
0000
1000
0001
0000
0000
0100
0010
0000
1000
0000
0100
0000
0010
0000
,
0100
0000
0000
0100
1000
0000
0000
1000
0001
0000
0000
0001
0010
0000
0000
0010
,
1000
0000
0000
1000
0010
0000
0000
0010
0100
0000
0000
0100
1000
0000
0000
1000
,
0001
0000
0000
0001
0100
0000
0000
0100
0001
0000
0000
0001
0010
0000
0000
0010
,
0100
0000
0000
0100
1000
0000
0000
1000
0010
0000
1000
0000
0001
0000
1000
0000
,
0100
0000
0000
0000
;
