#TITLE:BURNIN' THE FLOOR;
#SUBTITLE:(FROM NONSTOP MEGAMIX);
#ARTIST:NAOKI;
#TITLETRANSLIT:;
#SUBTITLETRANSLIT:;
#ARTISTTRANSLIT:;
#GENRE:;
#CREDIT:;
#BANNER:BURNIN' THE FLOOR(FROM NONSTOP MEGAMIX).png;
#BACKGROUND:BURNIN' THE FLOOR(FROM NONSTOP MEGAMIX)-bg.png;
#LYRICSPATH:;
#CDTITLE:;
#MUSIC:BURNIN' THE FLOOR(FROM NONSTOP MEGAMIX).ogg;
#OFFSET:0.041000;
#SAMPLESTART:40.263000;
#SAMPLELENGTH:15.000000;
#SELECTABLE:YES;
#DISPLAYBPM:155.000000;
#BPMS:0.000000=155.171997
,12.000000=155.057007
;
#STOPS:
;
#BGCHANGES:0.000=BURNIN' THE FLOOR(FROM NONSTOP MEGAMIX).avi=1.000=0=0=0=StretchNoLoop====,
99999=-nosongbg-=1.000=0=0=0 // don't automatically add -songbackground-
;
#KEYSOUNDS:;
#ATTACKS:;

//---------------dance-single - ----------------
#NOTES:
     dance-single:
     N00b_Saib0t:
     Challenge:
     9:
     0.444433,0.576375,0.061727,0.259253,0.030863,252.000000,247.000000,5.000000,21.000000,0.000000,0.000000,0.444433,0.576375,0.061727,0.259253,0.030863,252.000000,247.000000,5.000000,21.000000,0.000000,0.000000:
// measure 0
0000
0000
0000
0000
,  // measure 1
0000
0000
0000
0000
,  // measure 2
0000
0000
0000
0000
,  // measure 3
0000
0000
0000
0000
,  // measure 4
0000
0000
0000
1000
0100
0010
0001
0200
,  // measure 5
0000
0000
0000
0000
,  // measure 6
0001
0000
0000
0000
,  // measure 7
0310
0000
0000
0000
,  // measure 8
0000
1000
0100
0020
0000
0000
0000
0030
,  // measure 9
0002
0000
0100
0000
0010
0000
1000
0100
,  // measure 10
0000
0010
0000
0003
0000
1000
0100
0010
,  // measure 11
0001
0100
0010
2000
0000
0000
0000
0000
,  // measure 12
0000
3000
0000
1000
0100
0010
0001
0100
,  // measure 13
0010
1000
0100
0010
0000
0002
0000
0000
,  // measure 14
0000
1003
0000
0000
0000
1000
0100
0010
,  // measure 15
0001
0100
0010
1000
0000
0000
0001
0010
,  // measure 16
0001
0100
0000
1000
0010
1000
0100
0010
,  // measure 17
0001
0100
0000
0000
0000
0000
0000
0000
,  // measure 18
1000
0100
0010
0001
0000
1000
0100
0010
,  // measure 19
0000
0001
1000
0010
0100
0001
0010
0100
,  // measure 20
1000
0010
0100
0001
0000
0010
0100
1000
,  // measure 21
0000
0002
0000
0100
0000
1003
0000
0000
,  // measure 22
1000
0010
1000
0001
0000
0001
0010
0001
,  // measure 23
0000
0001
0010
0100
1000
0100
0010
0001
,  // measure 24
0100
0010
1000
0001
0000
0001
1000
0001
,  // measure 25
1000
0100
1000
0010
1000
0010
1000
0001
,  // measure 26
0100
0000
0000
0000
0001
0000
0000
0000
0001
0000
1000
0100
0000
0000
0000
0000
,  // measure 27
1000
0000
0010
0000
0100
0000
0001
0000
0010
0000
0100
1000
0000
0000
0000
0000
,  // measure 28
0010
0000
0010
0000
1000
0000
0010
0000
0100
0000
0001
0000
1000
0000
0000
0001
,  // measure 29
0100
0001
0010
0100
1000
0010
0100
0000
,  // measure 30
0010
1000
0001
0100
0001
1000
0001
0000
,  // measure 31
0010
0000
0100
0000
0010
0000
0000
0000
1000
0000
0001
0000
1000
0000
0000
0010
,  // measure 32
1000
0000
0001
0000
0100
0000
0010
0000
1000
0000
0001
0000
0010
0000
0000
0001
,  // measure 33
1000
0010
0100
0001
0010
0100
1100
0000
,  // measure 34
0002
0000
0000
2003
0000
0000
3000
0001
,  // measure 35
0000
0010
0100
1000
0010
0100
0000
0000
,  // measure 36
0002
0000
0000
0013
0000
0000
0000
1100
,  // measure 37
0000
1000
0010
0200
0000
0301
0010
0100
,  // measure 38
1000
0000
0010
0200
0000
0000
0300
0011
,  // measure 39
0000
0010
0100
1000
0010
0100
0001
0020
,  // measure 40
0000
0030
0001
0000
0002
0000
0000
0000
0000
0000
0000
0000
0003
0000
0000
0000
,  // measure 41
0001
0010
0100
0020
0000
0000
0000
0030
,  // measure 42
2000
0000
0001
0000
0010
0000
3001
0010
,  // measure 43
0000
0002
0000
0003
0000
0001
1000
0010
,  // measure 44
0100
0000
0001
0020
0000
0000
0000
0000
,  // measure 45
0000
0000
0030
0001
0010
0100
1000
0010
,  // measure 46
0100
0001
0010
0100
0000
2200
0000
0000
,  // measure 47
3300
0022
0000
0033
0000
0001
1000
0010
,  // measure 48
0100
0001
0010
0100
0000
0000
1000
0010
,  // measure 49
0100
0001
0000
0010
0100
1000
0010
0100
,  // measure 50
0001
0010
0000
0100
0000
1000
0010
0100
,  // measure 51
0000
0001
0010
0100
1000
0100
0010
0001
;
