#TITLE:BOYS;
#SUBTITLE:(EURO MIX);
#ARTIST:SMILE.dk;
#TITLETRANSLIT:;
#SUBTITLETRANSLIT:;
#ARTISTTRANSLIT:;
#GENRE:;
#CREDIT:;
#BANNER:BOYS (EURO MIX).png;
#BACKGROUND:BOYS (EURO MIX)-bg.png;
#LYRICSPATH:;
#CDTITLE:;
#MUSIC:BOYS (EURO MIX).ogg;
#OFFSET:0.000000;
#SAMPLESTART:13.908000;
#SAMPLELENGTH:15.000000;
#SELECTABLE:YES;
#DISPLAYBPM:155.000000;
#BPMS:0.000000=155.307007
,91.000000=155.871002
,92.000000=155.313995
;
#STOPS:
;
#BGCHANGES:;
#KEYSOUNDS:;
#ATTACKS:;

//---------------dance-single - ----------------
#NOTES:
     dance-single:
     :
     Easy:
     6:
     0.279873,0.309601,0.071056,0.000000,0.000000,193.000000,186.000000,7.000000,0.000000,0.000000,0.000000,0.279873,0.309601,0.071056,0.000000,0.000000,193.000000,186.000000,7.000000,0.000000,0.000000,0.000000:
0000
0000
0000
0000
,
0000
0000
0000
0000
,
0000
0000
0000
0000
,
0000
0000
0000
0000
,
0000
0000
0000
0000
,
0100
0100
0001
0001
,
0100
0100
0001
0001
,
0100
0100
0001
0001
,
1000
0000
0000
1001
,
0100
0000
0100
0000
,
0001
1000
0010
0000
,
0100
0010
1000
0001
,
1000
0000
0001
0100
,
0010
0000
0010
0000
,
1000
0010
0100
0001
,
1000
0000
0000
0000
,
1000
0010
0100
1001
,
0010
0000
0010
1000
,
0001
0000
0001
1000
,
0010
0100
0001
1000
,
0001
0001
0001
0001
,
0100
0000
0100
0001
,
1000
0000
1000
0010
,
1000
0010
0100
0001
,
1000
0000
0000
0000
,
0001
0000
0001
1000
,
0010
1000
0001
0000
,
0100
0000
0100
0001
,
1000
0000
0010
0100
,
0001
0000
1000
0010
,
0100
0001
1000
0000
,
0010
0000
0100
0100
,
0001
0000
0001
0000
,
0010
0000
0010
0100
,
1000
0001
0100
0000
,
1000
0000
1000
0010
,
0100
0001
1000
0010
,
0100
0100
0001
1000
,
0010
0000
0010
1001
,
0100
0100
0010
1000
,
0001
0000
0001
0110
,
0100
0100
0001
1000
,
0001
0000
1000
0010
,
0100
0000
0100
0100
,
0100
0000
0001
1001
,
0010
0100
0010
0100
,
0001
1000
0001
0001
,
0100
0001
0100
0001
,
1000
0010
0100
0100
,
0001
0000
0010
0010
,
0100
0000
1000
1000
,
0010
1000
0001
0100
,
0010
0000
0010
1001
,
0100
0010
1000
0001
,
1000
0100
0010
0001
,
0100
0001
1000
0010
,
0100
0100
0100
0100
,
0001
0001
0001
1000
,
0010
0010
0010
0100
,
0001
0001
0100
0010
,
1000
1000
1000
0000
,
1001
0000
0000
0000
;

//---------------dance-single - ----------------
#NOTES:
     dance-single:
     :
     Medium:
     8:
     0.368331,0.493331,0.385732,0.000000,0.010151,254.000000,216.000000,38.000000,0.000000,0.000000,0.000000,0.368331,0.493331,0.385732,0.000000,0.010151,254.000000,216.000000,38.000000,0.000000,0.000000,0.000000:
0000
0000
0000
0000
,
0000
0000
0000
0000
,
0000
0000
0000
0000
,
0000
0000
0000
0000
,
0000
0000
0000
0000
,
1000
1000
0001
0001
,
0010
0010
0100
0100
,
1000
0010
0100
0001
,
1000
0000
0000
0000
0001
0001
0001
0000
,
0100
0000
0100
0101
,
1100
0000
1000
0001
,
0100
0000
0001
1001
,
0110
0000
0100
0100
,
0001
1000
0010
0000
,
0011
1010
0100
0100
,
0001
0000
0000
0000
0001
1000
0001
1000
,
0000
0000
0001
1001
,
0000
0100
0010
0100
,
0001
1000
0010
0010
,
0100
0101
0100
1100
,
0010
0000
0010
0000
0100
0001
1000
0010
,
0000
0100
0001
1000
,
0010
0100
0001
0001
,
1000
1010
0001
0011
,
0100
0000
0100
0001
0000
1000
0000
0000
,
0010
0000
0010
0100
,
0001
0000
1000
0001
0100
0000
0000
0000
,
1000
0000
1000
0001
0100
0000
0000
0000
,
0010
0100
0001
0001
,
1000
0000
0000
0000
1000
0000
1000
0001
,
0100
0010
0100
0000
0001
0000
0000
0000
,
0100
0000
0100
0000
,
0001
0000
1000
1000
,
0010
0000
0010
1000
,
0001
0000
0000
0000
0000
0100
0000
0000
0000
0000
0010
0000
0000
0000
0000
0000
0000
0000
0000
0000
0000
0000
0000
0000
,
1000
0010
1000
0001
,
0100
0100
1001
1001
,
0100
0000
0100
0101
,
1100
0000
1000
0001
,
0100
0000
0001
1001
,
0110
0000
0100
0100
,
0001
1000
0010
0000
,
0011
1010
0100
0100
,
0001
0000
0000
0000
0001
1000
0001
1000
,
0000
0000
0001
1001
,
0010
0100
0001
1000
,
1000
0010
0100
0001
,
1000
0000
0010
0000
0100
0001
0100
0000
,
1001
0110
0110
1001
,
0100
0000
0100
0000
0100
0010
1000
0001
,
0100
0000
0100
0000
0100
0001
1000
0010
,
0100
0101
0100
1100
,
1001
1001
1001
1001
,
0010
0000
0100
0001
1000
0000
1000
0000
,
0001
0000
1000
0010
0100
0000
0100
0000
,
0001
0101
1000
1100
,
1001
0110
0110
1001
,
0010
0000
0000
0000
1000
0100
0010
0010
,
0001
0000
0000
0000
0100
0010
0100
0001
,
1000
0000
0000
0000
1000
1000
0010
0100
,
0001
0001
1001
1001
;

//---------------dance-single - ----------------
#NOTES:
     dance-single:
     :
     Hard:
     10:
     0.490141,0.588241,0.101508,0.000000,0.081207,338.000000,328.000000,10.000000,0.000000,0.000000,0.000000,0.490141,0.588241,0.101508,0.000000,0.081207,338.000000,328.000000,10.000000,0.000000,0.000000,0.000000:
0000
0000
0000
0000
,
0000
0000
0000
0000
,
0000
0000
0000
0000
,
0000
0000
0000
0000
,
0000
0000
0000
0000
,
1000
0100
0000
1000
0100
0000
0010
0000
0000
0000
0010
0000
0010
0000
0010
0000
,
0001
1000
0000
0001
1000
0000
0100
0000
0000
0000
0100
0000
0100
0000
0100
0000
,
0010
0001
0000
0010
0001
0000
1000
0000
0000
0000
1000
0000
1000
0000
1000
0000
,
0010
0000
1000
1001
,
0010
0000
0100
0000
0001
1000
0010
0100
,
0000
0000
0100
0100
,
0001
0000
1000
0000
0010
0100
0001
1000
,
0000
0000
1000
1000
,
0001
0100
1000
0100
,
0001
0000
0001
0000
0001
1000
0010
0100
,
0001
0000
1000
0000
1000
0010
0100
0001
,
0000
0100
0100
1001
,
0100
0010
1000
0010
0100
0001
0100
0001
,
1000
0010
0100
0010
1000
0100
1000
0001
,
0100
0010
1000
0010
0100
0001
0100
0001
,
1000
0000
0000
1000
0000
0000
1000
0000
0000
0010
0000
0000
0010
0000
0010
0000
,
0100
0010
1000
0010
0100
0001
0100
0001
,
1000
0010
0100
0010
1000
0100
1000
0001
,
0100
0010
1000
0010
0100
0001
0100
0001
,
0010
0100
0000
0010
0100
0000
0001
0000
0000
0000
1000
0000
0000
0000
0000
0000
,
0100
0000
0001
1000
0001
0000
1000
0010
,
0010
0100
0001
1000
0001
0000
0000
0000
,
0100
0000
0100
0010
1000
0001
0100
0000
,
0001
0100
0000
0000
,
1000
0000
0001
1000
0010
0000
0100
0001
,
0001
0100
0010
0100
0010
0000
0000
0000
,
1000
0000
0000
0000
0010
1000
0010
0000
,
0100
0100
0000
0000
,
0100
1000
0100
0001
0100
1000
0100
0001
,
0010
1000
0010
0001
0010
1000
0010
0001
,
0100
1000
0100
0001
0100
1000
0100
0001
,
0010
1000
0010
0001
0010
1000
0010
0000
,
0010
0000
0100
0000
0001
1000
0010
0100
,
0000
0000
0100
0100
,
0001
0000
1000
0000
0010
0100
0001
1000
,
0000
0000
1000
1000
,
0001
0100
1000
0100
,
0001
0000
0001
0000
0001
1000
0010
0100
,
0001
0000
1000
0000
1000
0010
0100
0100
,
0001
0000
0100
0010
0100
0000
1001
0000
,
0010
0000
0100
0001
1000
0001
1000
0010
,
0000
0000
0000
0000
0100
0100
0100
0100
,
0001
0000
1000
0000
0010
0100
0001
1000
,
0001
0000
0000
0001
0000
0000
0001
0000
0000
1000
0000
0000
1000
0000
1000
0000
,
0001
0100
1000
0100
,
0001
0000
0001
0000
0001
1000
0010
0100
,
0001
0000
1000
0000
1000
0010
0100
0000
,
0001
1000
0000
0001
1000
0000
0000
0000
0000
0000
1001
0000
0000
0000
1001
0000
,
0010
0100
0010
0001
1000
0010
0100
0001
,
1000
0001
0100
0010
1000
0001
0100
0010
,
1000
0000
1000
0000
0010
0100
0001
1000
,
1001
0000
0110
0000
1001
1001
1001
0000
,
0100
1000
0100
0001
1000
0010
1000
0100
,
0010
1000
0010
0001
1000
0010
0100
0001
,
1000
0100
0010
0001
1000
0100
0010
0001
,
1000
0100
0000
1000
0100
0000
1000
0000
0000
0000
0001
0000
0000
0000
0000
0000
,
0100
0000
0000
0000
;

//---------------dance-single - ----------------
#NOTES:
     dance-single:
     :
     Challenge:
     15:
     0.806267,0.942125,0.182715,0.040603,0.603975,556.000000,538.000000,18.000000,4.000000,0.000000,0.000000,0.806267,0.942125,0.182715,0.040603,0.603975,556.000000,538.000000,18.000000,4.000000,0.000000,0.000000:
0000
0000
0000
0000
,
1000
0100
0000
1000
0100
0000
0010
0000
0000
0000
1000
0000
0001
0000
1000
0000
,
0001
0010
0000
0001
0010
0000
0001
0000
0000
0000
0100
0000
0001
0000
1000
0000
,
0010
1000
0000
0010
1000
0000
0100
0000
0000
0000
1000
0000
0001
0000
1000
0000
,
0001
0100
0000
0001
0100
0000
0001
0000
0000
0000
1000
0000
0001
0000
1000
0000
,
1000
0100
0000
0010
0001
0000
0100
0000
0000
0000
0010
0000
1000
0000
0001
0000
,
0001
0100
0000
0010
1000
0000
0001
0000
0000
0000
1000
0000
0001
0000
1000
0000
,
0010
0100
0000
0010
0100
0000
0001
0000
0000
0000
0100
0000
0010
0000
2000
0000
,
0002
0000
0000
0000
0000
0000
0000
3003
,
0001
0000
0001
0000
0010
0000
0010
0000
0100
1000
0010
0000
0100
0000
0100
0000
,
0001
0000
0001
0000
0010
0000
0010
0000
0100
0000
0100
0000
1000
0010
0001
0000
,
0010
0000
0010
0000
1000
0000
1000
0000
0100
0010
1000
0000
0010
0000
0010
0000
,
0001
0001
0100
0100
0010
0010
1000
0000
,
0001
0000
0010
0000
0001
0000
0100
0000
0010
1000
0100
0000
0010
0000
0010
0000
,
0001
0000
0100
0000
0001
0000
1000
0000
0001
0000
0010
0000
0100
1000
0001
0000
,
0100
0000
0010
0000
1000
0000
0100
0000
0010
0001
0100
0000
0010
0000
1000
0000
,
0001
0010
1000
0010
0001
0000
0110
0000
,
0100
0010
0100
0010
0100
0000
0001
1000
0001
1000
0001
0000
1000
0000
0001
0000
,
0010
0100
0010
0100
0010
0000
1000
0001
1000
0001
1000
0000
0100
0000
0010
0000
,
0001
0010
0001
0010
0001
0000
1000
0010
1000
0010
1000
0000
1000
0000
0001
0000
,
1000
0000
0000
0010
0000
0000
1000
0000
0001
0000
0000
0010
0000
0000
0100
0000
,
1000
0100
1000
0100
1000
0000
0001
0100
0001
0100
0001
0000
0100
0000
0010
0000
,
1000
0001
1000
0001
1000
0000
0001
1000
0001
1000
0001
0000
0010
0000
0100
0000
,
1000
0010
1000
0100
1000
0000
0001
0010
0001
0100
0001
0000
1000
0000
0001
0000
,
0100
0001
0000
1000
0001
0000
0010
0000
0000
0200
0000
0000
0000
0000
0300
0000
,
0100
1000
0001
1000
0010
1000
0100
0010
,
0001
0100
0010
1000
0100
0001
0100
1000
,
0010
0001
0010
1000
0100
1000
0001
0100
,
1000
0000
0100
0000
0001
0000
0100
0001
1000
0000
0000
0010
0000
0000
0100
0000
,
0010
1000
0100
0001
0100
0001
0100
1000
,
0100
0010
0001
0100
0010
1000
0010
0001
,
1000
0001
0010
1000
0001
0100
0001
1000
,
0100
0000
0010
0000
0001
0000
0100
0010
1000
0000
0000
0001
0000
0000
0010
0000
,
0100
1000
0001
0100
1000
0100
0001
0010
,
0001
0100
0010
0100
0001
0010
0100
1000
,
0010
0100
0001
0010
1000
0010
0001
0100
,
0010
0100
0001
1000
0001
1000
0001
0000
,
0010
0010
1000
1000
0100
0100
0010
0010
,
0001
0000
0001
0000
1000
0100
0000
0010
0001
0000
0001
0000
1000
0100
0000
0010
,
0001
0001
0100
0100
0010
0010
1000
1000
,
0001
0000
0001
0000
0010
0100
0000
1000
0001
0000
0001
0000
0010
0100
0000
1000
,
0010
0010
0100
0100
0001
0001
1000
1000
,
0100
0000
0100
0000
0010
0001
0000
1000
0100
0000
0100
0000
0000
0000
1001
0000
,
0000
0110
0000
0001
0010
0100
1000
0001
,
0100
1001
0010
0100
,
1000
0001
0100
0001
1000
0000
0001
1000
0100
1000
0001
0000
0011
0000
1100
0000
,
1000
0100
0010
0001
1000
0000
0001
0010
0100
1000
0001
0000
0110
0000
1001
0000
,
1000
0100
1000
0100
1000
0000
0001
0100
0001
0100
0001
0000
1010
0000
0101
0000
,
0000
0001
0000
0000
1000
0000
0010
0000
0000
0100
0000
0000
0001
0000
0010
0000
,
0001
1000
0001
1000
0001
0000
1000
0001
1000
0001
1000
0000
0110
0000
0110
0000
,
0010
1000
0010
1000
0010
0000
1000
0010
1000
0010
1000
0000
1010
0000
1010
0000
,
0001
0010
0001
0010
0001
0000
0010
0001
0010
0001
0010
0000
0011
0000
0011
0000
,
0000
0010
0000
0000
1000
0000
0001
0000
0000
0010
0000
0000
0100
0000
1000
0000
,
0001
0100
0001
0100
0001
0000
1000
0100
1000
0100
1000
0000
0010
0000
0100
0000
,
1000
0010
1000
0010
1000
0000
0001
0010
0001
0010
0001
0000
1000
0000
0001
0000
,
1000
0100
1000
0010
1000
0000
0001
0010
0001
0100
0001
0000
1000
0000
0001
0000
,
0000
0010
0000
0000
1000
0000
0001
0000
0000
0010
0000
0000
0100
0000
1000
0000
,
0001
1000
0001
1000
0001
0000
0001
1000
0001
1000
0001
0000
0010
0000
0010
0000
,
1000
0001
1000
0001
1000
0000
1000
0001
1000
0001
1000
0000
0100
0000
0100
0000
,
1000
0100
0010
0001
0100
0000
0010
1000
0100
0010
0001
0000
1100
0000
0011
0000
,
0000
1000
0001
0000
1000
0001
0000
0000
1000
0000
0001
0000
0000
0000
0000
0000
,
2000
0000
0001
0000
0010
0001
0000
3100
;

//---------------dance-single - ----------------
#NOTES:
     dance-single:
     :
     Beginner:
     3:
     0.165314,0.156704,0.000000,0.000000,0.000000,114.000000,114.000000,0.000000,0.000000,0.000000,0.000000,0.165314,0.156704,0.000000,0.000000,0.000000,114.000000,114.000000,0.000000,0.000000,0.000000,0.000000:
// measure 0
0000
0000
0000
0000
,  // measure 1
0000
0000
0000
0000
,  // measure 2
0000
0000
0000
0000
,  // measure 3
0000
0000
0000
0000
,  // measure 4
0000
0000
0000
0000
,  // measure 5
0000
0010
0000
0010
,  // measure 6
0000
0010
0000
0010
,  // measure 7
0000
1000
0000
1000
,  // measure 8
0000
1000
0000
1000
,  // measure 9
0000
0010
0000
0010
,  // measure 10
0000
0010
0000
0010
,  // measure 11
0000
0001
0000
0001
,  // measure 12
0000
0001
0000
0001
,  // measure 13
0000
1000
0000
1000
,  // measure 14
0000
1000
0000
1000
,  // measure 15
0000
0010
0000
0010
,  // measure 16
0000
0010
0000
0010
,  // measure 17
0000
1000
0000
0001
,  // measure 18
0000
1000
0000
0001
,  // measure 19
0000
1000
0000
0001
,  // measure 20
0000
0010
0000
1000
,  // measure 21
0000
0010
0000
0100
,  // measure 22
0000
0000
0010
0000
,  // measure 23
0100
0000
0010
0000
,  // measure 24
0100
0000
1000
0000
,  // measure 25
0001
0000
1000
0000
,  // measure 26
0001
0000
1000
0001
,  // measure 27
0000
0010
0000
0100
,  // measure 28
0000
0010
0000
0100
,  // measure 29
0000
1000
0000
0001
,  // measure 30
0000
0100
0000
0010
,  // measure 31
0000
0100
0000
0010
,  // measure 32
0000
0100
0000
0010
,  // measure 33
0000
1000
0000
1000
,  // measure 34
0000
1000
0000
0001
,  // measure 35
0000
0001
0000
0001
,  // measure 36
0000
1000
0000
1000
,  // measure 37
0000
0010
0000
0010
,  // measure 38
0000
0010
0000
0010
,  // measure 39
0000
0100
0000
0100
,  // measure 40
0000
0100
0000
0100
,  // measure 41
0000
1000
0000
1000
,  // measure 42
0000
1000
0000
1000
,  // measure 43
0000
0010
0000
0010
,  // measure 44
0000
0010
0000
0010
,  // measure 45
0000
0100
0000
0100
,  // measure 46
0000
0100
0000
0100
,  // measure 47
0000
0001
0000
0001
,  // measure 48
0000
0001
0000
1000
,  // measure 49
0000
1000
0000
1000
,  // measure 50
0000
0001
0000
1000
,  // measure 51
0000
0001
0000
1000
,  // measure 52
0000
0001
0000
1000
,  // measure 53
0000
0010
0000
0100
,  // measure 54
0000
0010
0000
0100
,  // measure 55
0000
0010
0000
0100
,  // measure 56
0000
0001
0000
1000
,  // measure 57
0001
0000
1000
0000
,  // measure 58
0000
0001
0000
1000
,  // measure 59
0000
0001
0000
1000
,  // measure 60
0000
0001
0000
1000
,  // measure 61
0000
0001
0000
0010
;
