#TITLE:LOVE麺 恋味 やわめ;
#SUBTITLE:;
#ARTIST:虹のコンキスタドール;
#TITLETRANSLIT:LOVEmen koi aji yawame;
#SUBTITLETRANSLIT:;
#ARTISTTRANSLIT:Niji no Conquistador;
#GENRE:;
#CREDIT:;
#BANNER:;
#BACKGROUND:LOVEmen koi aji yawame.jpg;
#LYRICSPATH:;
#CDTITLE:;
#MUSIC:LOVEmen koi aji yawame.ogg;
#OFFSET:1.084573;
#SAMPLESTART:54.713554;
#SAMPLELENGTH:14.000000;
#LASTBEATHINT:253.948898;
#SELECTABLE:YES;
#BPMS:0.000000=114.500000
,104.000000=114.999916
,108.000000=114.500000
,164.000000=114.000084
,168.000000=114.520088
,208.000000=114.560081
;
#STOPS:
;
#BGCHANGES:2.854=LOVEmen koi aji yawame.mp4=1.000=0=0=0=StretchNoLoop====,
99999=-nosongbg-=1.000=0=0=0 // don't automatically add -songbackground-
;
#KEYSOUNDS:;
#ATTACKS:;

//---------------dance-single - ----------------
#NOTES:
     dance-single:
     :
     Hard:
     12:
     0.478524,0.599713,0.186093,0.178339,0.209354,432.000000,408.000000,24.000000,23.000000,0.000000,0.000000,0.478524,0.599713,0.186093,0.178339,0.209354,432.000000,408.000000,24.000000,23.000000,0.000000,0.000000:
0000
0000
0000
0000
,
0000
0000
0000
0000
,
0000
0000
0000
0000
,
0001
0100
0001
0100
1000
0100
0001
2000
,
0100
0000
0000
0000
0000
0000
3100
0000
0000
0000
0000
0000
1000
0000
0000
0010
0100
0010
0100
0000
0000
0001
0000
0000
,
2000
0000
0000
0000
0010
0000
0000
0000
3001
0000
0000
0010
0100
0000
2000
0000
,
0001
0000
3001
0000
1000
0100
0010
0001
,
1000
0100
1000
0100
0001
0100
1000
0002
,
0010
0000
0000
0000
0000
0000
0013
0000
0000
0000
0000
0000
0001
0000
0000
0100
0010
0100
0010
0000
0000
1000
0000
0000
,
0002
0000
0000
0000
0010
0000
0000
0000
1003
0000
0000
0001
1000
0000
2002
0000
,
0000
0000
3003
0110
,
1000
0000
0001
0000
0100
0001
1000
0000
,
0001
0010
0100
1000
0010
1000
0010
0000
,
0100
0001
1000
0000
0001
0010
0100
0000
,
2000
0000
0000
0000
0010
0000
3000
0000
0010
1000
0001
0100
0001
0000
0000
0000
,
0010
0100
1000
0000
0010
1000
0001
0000
,
0100
0001
0010
0001
1000
0100
1000
0000
,
0010
1000
0100
0000
0001
0100
1000
0000
,
0010
0100
0001
0010
0001
0100
0010
0000
,
1000
0001
1000
0100
0000
0000
0000
0000
1000
0000
0010
0000
0100
0000
0000
0000
,
0010
0000
1000
0000
0100
0000
0000
0000
0010
0000
0001
0100
0001
0000
0000
0000
,
1000
0000
0001
0000
0100
0010
1000
0000
,
0100
1000
0001
0000
1000
0001
0010
0100
,
1000
0010
1000
0100
0001
0100
1000
0001
,
0100
0000
0000
0000
0000
0000
0010
0000
0000
0000
0000
0000
0001
0000
0000
0010
0100
0010
0100
0000
0000
0010
0000
0000
,
1000
0000
0101
0000
,
1100
0000
0000
0000
,
1001
0000
0001
0000
0100
0000
0001
0000
0010
0000
0000
0100
0010
0000
0001
0000
,
1000
0100
0001
0100
1000
0001
0011
0100
,
1001
1000
0010
0001
0010
1000
0001
0020
,
0000
0130
1000
0001
0011
0100
1100
0010
,
0101
0010
1000
0000
0101
0000
0011
0000
,
1000
0100
0001
0100
1000
0010
0001
0020
,
0100
0130
0001
0020
0100
0130
1000
0002
,
0000
0000
2003
0000
0001
0001
0000
0000
0100
0100
0000
0000
3002
0000
0000
0000
,
1003
0100
0010
0002
0000
0000
1003
0000
,
0001
0000
0000
0100
0000
0000
0010
0000
0000
2000
0000
0000
0000
0000
0000
0000
0000
0000
3001
0000
0100
0001
0000
0100
,
0001
0000
0000
1000
0000
0100
1000
0000
0000
0001
0000
0100
0001
0000
0100
0001
0000
1000
0000
0000
0100
0000
0000
1000
,
0100
0000
1000
0100
0000
0000
0010
0000
0000
0001
0000
1000
0000
0000
0001
1000
0000
0000
0001
0000
0000
1000
0000
0100
,
1000
0010
0100
0001
0010
1000
0010
0001
,
0100
0000
0000
0010
0000
1000
0000
0000
0001
0100
0000
0001
0200
0000
0000
0000
0000
0000
0310
0000
0000
0000
0000
0000
,
1001
0000
1100
0000
,
0202
0000
0000
0000
,
0000
0000
0000
0303
,
1001
0000
1000
0000
0010
0000
1000
0000
0100
0000
0000
0010
0100
0000
1000
0000
,
0001
0010
1000
0010
0001
1000
1100
0010
,
1001
0001
0100
1000
0100
0001
1000
0200
,
0000
0310
0001
1000
1100
0010
0101
0010
,
1001
0100
0001
0000
0011
0000
1100
0000
,
0001
0010
1000
0010
0001
0100
1000
0200
,
0010
0310
1000
0200
0010
0310
0001
2000
,
0000
0000
3001
0000
1000
0010
0000
0010
0100
0001
0100
0001
1000
0001
1000
0001
,
0010
0000
1001
0000
1000
0100
0010
0000
,
0100
0000
1000
0000
0001
0000
1000
0000
0100
0000
1000
0000
0010
0000
0100
0001
,
0100
0001
1000
0000
0001
0010
0100
0000
,
1000
0000
0010
0000
0100
0000
0010
0000
1000
0000
0001
0000
0010
0100
0010
0100
,
1000
0001
0100
0000
0010
1000
0100
1000
,
0001
0000
0010
0000
1000
0000
0010
0000
0001
0000
0100
0000
0010
0100
0010
0000
,
1000
0100
1000
0000
0001
0000
0000
0000
0010
0100
0010
0100
0010
0000
0000
0000
,
0001
0000
0100
0001
0100
0000
0000
0000
0010
1000
0010
1000
0010
0000
0100
0000
,
0000
0000
0001
0000
1000
0000
0000
0000
0001
0000
0010
0100
0010
0100
1000
0000
,
0000
0000
0010
0000
0100
0001
0100
0001
0100
0001
1000
0001
0010
0000
0100
0000
;

//---------------dance-single - ----------------
#NOTES:
     dance-single:
     :
     Medium:
     9:
     0.361108,0.383816,0.209354,0.155077,0.050400,326.000000,299.000000,27.000000,20.000000,0.000000,0.000000,0.361108,0.383816,0.209354,0.155077,0.050400,326.000000,299.000000,27.000000,20.000000,0.000000,0.000000:
0000
0000
0000
0000
,
0000
0000
0000
0000
,
0000
0000
0000
0000
,
1000
0100
1000
0100
0010
0000
0001
0000
,
0100
0000
0100
0000
0001
0100
1000
0100
,
0001
0000
0001
0000
0010
0000
0100
2000
,
0100
0000
3100
0000
1000
0100
0010
0000
,
0001
0100
0001
0100
0010
0000
1000
0000
,
0100
0000
0100
0000
1000
0100
0001
0100
,
1000
0000
0000
0000
1000
0000
0000
0000
0001
0000
0000
0100
0000
0000
0110
0000
,
0000
0000
0000
1001
,
1000
0000
0001
0000
0010
0100
1000
0000
,
0010
1000
0010
0100
,
0001
0010
0001
0000
0100
0010
1000
0000
,
0200
0000
0310
1001
,
1000
0100
1000
0000
0001
0010
0100
0000
,
1000
0000
0010
0000
0100
0001
0100
0000
,
0001
0011
1000
1010
,
0001
0000
0100
0000
0010
1000
0100
0000
,
2002
3000
0103
0100
,
0010
0000
1000
0000
0001
0010
0002
0000
,
1003
1000
0010
0100
,
0001
0000
0010
0000
0100
1000
0100
0000
,
1000
0010
1000
0010
0001
0000
0010
0000
,
1000
0000
0001
0000
0010
0100
1000
0001
,
0100
0000
0110
0000
,
1001
0000
0000
0000
0000
0001
0010
0100
,
1100
0000
0000
0000
1000
0000
0000
0000
0010
0000
0000
1000
0000
0000
0002
0000
,
0000
0010
0013
0000
0001
1000
0010
0100
,
0101
0000
0000
0000
0001
0000
0000
0000
0010
0000
0000
0100
0000
0000
2000
0000
,
0000
0010
3010
0000
1000
0001
0100
0010
,
1010
0000
0000
0000
1000
0000
0000
0000
0001
0000
0000
0010
0000
0000
0200
0000
,
0000
1000
1300
0000
0001
1000
0100
0010
,
0011
0000
0000
0000
0100
0000
0000
0000
1001
0000
0000
0010
0000
0000
1001
0000
,
0000
1000
0100
0000
1001
0000
0110
0000
,
1000
0100
1000
0002
0000
0000
0013
0000
,
0001
0100
0001
2000
0000
0000
3010
0000
,
0100
0001
1000
0001
0100
0100
0010
0000
,
1000
0100
0010
0100
,
1000
0100
0010
0100
1000
0001
0100
0000
,
0001
0100
1000
0100
0002
0000
1003
0000
,
1001
0000
1100
0000
,
0202
0000
0000
0000
,
0000
0000
0303
0000
0000
1000
0010
0100
,
0101
0000
0000
0000
0001
0000
0000
0000
0010
0000
0000
0001
0000
0000
2000
0000
,
0000
0010
3010
0000
1000
0001
0010
0100
,
1100
0000
0000
0000
1000
0000
0000
0000
0010
0000
0000
0100
0000
0000
0002
0000
,
0000
0010
0013
0000
0001
1000
0100
0010
,
0011
0000
0000
0000
0001
0000
0000
0000
1000
0000
0000
0010
0000
0000
0200
0000
,
0000
0001
0301
0000
1000
0001
0100
0010
,
1010
0000
0000
0000
1000
0000
0000
0000
0100
0000
0000
0010
0000
0000
1001
0000
,
0000
1000
0001
0000
1000
0100
0001
0100
,
1000
0000
0010
0000
0100
0001
1000
0000
,
0001
0010
0100
1000
0010
1000
0001
0000
,
1000
0000
0010
0000
0100
0001
1000
0000
,
0001
1000
0100
1000
0001
0010
0100
0000
,
1000
0100
0001
0000
0100
1000
0010
0000
,
0100
0001
0010
0001
0100
0010
0100
0000
,
0002
0000
0000
0000
0010
0000
0000
0000
1003
0000
0000
0001
0000
0000
1002
0000
,
0000
0000
1003
0000
0010
0000
0000
0000
1000
0000
0000
0100
0000
0000
0210
0000
,
0000
0000
1300
0000
0001
0000
0000
0000
0001
0000
0000
0100
0000
0000
0120
0000
,
0000
0000
1030
0000
0100
0000
1000
0000
0001
0000
0010
0100
0010
0000
0100
0000
;

//---------------dance-single - ----------------
#NOTES:
     dance-single:
     :
     Easy:
     5:
     0.211570,0.263341,0.139570,0.139570,0.000000,191.000000,173.000000,18.000000,18.000000,0.000000,0.000000,0.211570,0.263341,0.139570,0.139570,0.000000,191.000000,173.000000,18.000000,18.000000,0.000000,0.000000:
0000
0000
0000
0000
,
0000
0000
0000
0000
,
0000
0000
0000
0000
,
1000
0100
1000
0000
,
0001
0000
0100
0001
,
0100
0000
0010
2000
,
0001
0000
3001
1000
,
0001
0010
0001
0000
,
1000
0000
0010
1000
,
0010
0000
0100
0002
,
2000
0000
0000
3003
,
1000
0000
0001
0000
,
0010
0100
1000
0000
,
0020
0000
2030
0000
,
3002
0000
0000
1003
,
1000
0000
0100
0000
,
0010
0100
1000
0000
,
0002
0000
0203
0000
,
0310
1000
0010
0100
,
1001
0000
1000
0001
,
0200
0000
0310
0020
,
1030
0000
0001
1000
,
0100
0000
0010
0001
,
1000
0010
0100
0010
,
1000
0000
0001
0010
,
0100
0000
1000
0000
,
0001
0000
0000
0000
,
1001
0001
0100
0000
,
0001
1000
0100
1000
,
1001
1000
0010
1000
,
0100
0010
0100
0000
,
1001
1000
0100
0000
,
1000
0010
0100
0001
,
1001
0001
0100
0001
,
0020
0100
0130
1001
,
2000
0010
0000
3001
,
0002
0010
0000
1003
,
1000
0001
0100
0000
,
0001
0010
0100
0000
,
1000
0100
1000
0001
,
0100
0001
2000
0000
,
3001
0000
0010
0000
,
0200
0000
0000
0000
,
0300
0000
0000
0000
,
1001
1000
0010
0000
,
1000
0001
0010
0001
,
1001
0001
0100
0001
,
0010
0100
0010
0000
,
1001
0001
0010
0000
,
0001
0100
0010
1000
,
1001
1000
0010
1000
,
0200
0310
0200
2300
,
3010
1001
0001
0100
,
0001
0010
0100
0000
,
1000
0010
1000
0100
,
0010
0001
1000
0000
,
0001
0000
0100
0000
,
0010
1000
0001
1000
,
1001
0000
0110
0000
,
1001
0000
1100
0000
,
0101
0000
0110
0000
,
1001
0000
1000
0001
;

//---------------dance-single - ----------------
#NOTES:
     dance-single:
     :
     Beginner:
     2:
     0.124062,0.167580,0.062031,0.038769,0.000000,112.000000,104.000000,8.000000,5.000000,0.000000,0.000000,0.124062,0.167580,0.062031,0.038769,0.000000,112.000000,104.000000,8.000000,5.000000,0.000000,0.000000:
// measure 0
0000
0000
0000
0000
,  // measure 1
0000
0000
0000
0000
,  // measure 2
0000
0000
0000
0000
,  // measure 3
0001
0000
0001
0000
,  // measure 4
0000
0000
1000
0000
,  // measure 5
1000
0000
0000
0000
,  // measure 6
0200
0000
0300
0000
,  // measure 7
1000
0000
1000
0000
,  // measure 8
0000
0000
0001
0000
,  // measure 9
0001
0000
0000
0000
,  // measure 10
0200
0000
0000
0300
,  // measure 11
0010
0000
0010
0000
,  // measure 12
0010
0000
0000
0000
,  // measure 13
1000
0000
0001
0000
,  // measure 14
2000
0000
0000
3001
,  // measure 15
0001
0000
0001
0000
,  // measure 16
0001
0000
0000
0000
,  // measure 17
0010
0000
0100
0000
,  // measure 18
1000
0000
0000
0000
,  // measure 19
0020
0030
0010
0010
,  // measure 20
0010
0000
1000
1000
,  // measure 21
1000
0000
0001
0000
,  // measure 22
1000
0000
0000
0000
,  // measure 23
0100
0000
0100
0000
,  // measure 24
0000
0000
0010
0000
,  // measure 25
0010
0000
0001
0000
,  // measure 26
1000
0000
0000
0000
,  // measure 27
1001
0000
1000
0000
,  // measure 28
0001
0000
0000
0000
,  // measure 29
0110
0000
0100
0000
,  // measure 30
0010
0000
0000
0000
,  // measure 31
1001
0000
0001
0000
,  // measure 32
1000
0000
0000
0000
,  // measure 33
0110
0000
0010
0000
,  // measure 34
0100
0000
0000
0000
,  // measure 35
0001
0001
0000
0001
,  // measure 36
1000
1000
0000
1000
,  // measure 37
0001
0000
0100
0000
,  // measure 38
0001
0000
0000
0000
,  // measure 39
1000
1000
1000
0000
,  // measure 40
0100
0100
0100
0000
,  // measure 41
0010
0000
0100
0000
,  // measure 42
2000
0000
3000
0000
,  // measure 43
0000
0000
0000
0000
,  // measure 44
1001
0000
0001
0000
,  // measure 45
1000
0000
0000
0000
,  // measure 46
0110
0000
0010
0000
,  // measure 47
0100
0000
0000
0000
,  // measure 48
1001
0000
1000
0000
,  // measure 49
0001
0000
0000
0000
,  // measure 50
0110
0000
0010
0000
,  // measure 51
0100
0000
0000
0000
,  // measure 52
1000
0000
1000
0000
,  // measure 53
0100
0100
0100
0000
,  // measure 54
0010
0000
0010
0000
,  // measure 55
0001
0001
0001
0000
,  // measure 56
1000
0000
0001
0000
,  // measure 57
0100
0100
0100
0000
,  // measure 58
0010
0000
1000
0000
,  // measure 59
0100
0000
0010
0000
,  // measure 60
0001
0000
0100
0000
,  // measure 61
0010
0000
1000
1000
;
