#TITLE:限りなく冒険に近いサマー;
#SUBTITLE:;
#ARTIST:虹のコンキスタドール;
#TITLETRANSLIT:Kagirinaku Bouken ni chikai Summer;
#SUBTITLETRANSLIT:;
#ARTISTTRANSLIT:Niji no Conquistador;
#GENRE:;
#CREDIT:;
#BANNER:;
#BACKGROUND:;
#LYRICSPATH:;
#CDTITLE:;
#MUSIC:Kagirinaku Bouken ni chikai Summer.ogg;
#OFFSET:1.209128;
#SAMPLESTART:64.475853;
#SAMPLELENGTH:15.000000;
#LASTBEATHINT:0.585423;
#SELECTABLE:YES;
#BPMS:0.000000=192.998993
;
#STOPS:
;
#BGCHANGES:3.750=Kagirinaku Bouken ni chikai Summer.mp4=1.000=0=0=0=StretchNoLoop====,
99999=-nosongbg-=1.000=0=0=0 // don't automatically add -songbackground-
;
#KEYSOUNDS:;
#ATTACKS:;

//---------------dance-single - ----------------
#NOTES:
     dance-single:
     :
     Hard:
     13:
     0.670317,0.665875,0.314968,0.234207,0.016152,581.000000,542.000000,39.000000,29.000000,0.000000,0.000000,0.670317,0.665875,0.314968,0.234207,0.016152,581.000000,542.000000,39.000000,29.000000,0.000000,0.000000:
0000
0000
0000
0000
,
0000
0000
0000
0000
,
0000
0000
0000
0000
,
0000
0000
0000
0000
,
0000
0000
0000
0000
,
2002
0000
0000
0000
,
0000
0000
0000
0000
,
0000
0000
0000
0000
3003
0000
1000
0001
,
0000
0100
0010
0100
0001
0010
0100
1000
,
0001
0000
0010
1000
0010
0001
0010
0100
,
0000
0010
0100
1000
0100
0001
0100
0000
,
1000
0000
0001
1000
0010
0001
0010
1000
,
0000
0001
0010
0100
1000
0001
0100
0000
,
0010
0000
1000
0100
1000
0000
0001
0010
,
0100
0010
0000
0110
0000
1000
0001
0000
,
1000
0000
0001
0100
0010
0000
1000
0001
,
0000
0011
0100
0100
1000
1000
0010
0100
,
0000
0010
1000
0010
0001
0010
1000
0001
,
0010
0100
0010
0100
1000
0100
0001
0100
,
0000
1000
0010
1000
0001
0100
1000
0100
,
0010
0000
1000
0000
0010
0000
1000
0000
0100
0000
0010
0100
0010
0000
0001
0000
,
0000
0001
0010
1000
0010
0001
1000
0010
,
0001
0010
1000
0001
0010
0100
0010
0001
,
0000
1000
0100
0010
0000
0001
0100
0010
,
0000
1000
0001
0000
0010
0100
1000
0100
,
0000
1000
0001
0100
1000
0100
0001
1000
,
0100
0000
0010
0000
0100
0000
1000
0000
0001
0000
0010
0100
0000
0000
0010
0000
,
0000
0001
1000
0010
0001
0010
1000
0001
,
0010
0100
0010
0100
1000
0100
0001
0100
,
0000
1000
0010
0100
0001
0010
1000
0010
,
0001
0000
0100
0000
0010
0000
1000
0000
0001
0000
1000
0010
1000
0000
0001
0000
,
0000
0001
0010
0001
0000
1000
0100
0010
,
0002
0203
0320
2030
,
3001
0100
0001
0000
0010
0100
0010
0001
,
0000
1000
0010
0001
0010
1000
0000
0001
,
0000
0010
1000
0010
0001
1000
0010
0100
,
0000
0010
1000
0001
0000
0011
0000
0100
,
1000
0000
1010
0000
0100
0000
0001
0010
,
0000
0100
0000
0010
0000
0001
0000
1000
,
0010
0000
0100
0001
0010
0000
0100
1000
,
0000
0000
0010
0000
1000
0000
0100
0010
0001
0000
1000
0000
0010
0000
0000
0000
,
0020
0000
1000
0000
0130
0001
1000
0100
,
0000
0001
0100
1000
0010
0100
0000
0001
,
0000
0010
1000
0010
0001
0100
0010
1000
,
0000
1000
0001
0000
0010
0100
0010
0011
,
0000
0001
1000
0000
1010
0000
0100
0001
,
0000
0010
0100
0000
0110
0000
1000
0001
,
0000
0100
0010
0100
0001
0010
0000
0100
,
0000
1000
0002
0000
0010
0010
0010
0000
,
1003
0000
0100
1000
0001
1000
0010
0100
,
0000
0100
0010
1000
0000
0001
0010
0100
,
1000
0000
0100
0000
0010
0000
0001
0100
,
0000
0000
0010
0000
1000
0001
0000
0011
,
0000
0100
1000
0100
0001
0100
1000
0100
,
0001
0100
1000
0000
0001
0100
0000
1010
,
0000
0010
0001
0010
1000
0010
0001
0010
,
1000
0010
0100
0000
0001
0010
0000
1100
,
0000
0010
0001
0010
1000
0010
0001
0010
,
1000
0010
0001
0000
1000
0010
0000
0101
,
0000
0010
1000
0100
0010
0000
0001
0200
,
0000
0010
0010
0000
0310
1000
0100
0010
,
0001
0000
0011
0000
1000
0001
0100
0010
,
1000
0000
1100
0000
1000
0001
0010
0100
,
0010
0000
0011
0000
1000
0001
0100
0010
,
0100
0000
0001
0010
0001
0010
0100
1000
,
0010
0000
1010
0000
0100
0001
0010
1000
,
0010
0000
0110
0000
0100
1000
0010
0001
,
0020
0000
0100
0000
0100
0000
1030
0100
,
0000
0010
0001
1000
0010
0001
0010
1000
,
0001
0000
0011
0000
0001
1000
0100
0010
,
0000
0011
0000
0110
0000
0100
1000
0010
,
0100
0000
0101
0000
1000
0001
0100
0020
,
0000
1000
1030
0000
0001
1000
0100
1100
,
0000
0010
0110
0000
0011
0000
0000
1001
,
0000
0100
0010
0000
1000
0001
0010
0000
,
0200
0000
0310
0001
2000
0000
3010
0100
,
0000
0001
0010
0100
1000
0001
0100
0000
,
1020
0000
1000
0000
1030
0001
0100
0001
,
0020
0000
0100
0000
0130
0010
0001
1000
,
0020
0000
0130
0010
2000
0000
0001
0000
,
3002
0000
0013
0100
2000
0000
3010
0000
,
2000
0000
0100
0000
3001
1000
0100
1000
,
0020
0000
0100
0000
0031
0010
0100
0001
,
0020
0000
0130
0010
0002
0000
0100
1003
,
0000
0010
0100
0001
0010
0100
0010
0000
,
0002
0000
0100
0000
1003
0001
0010
0100
,
2000
0000
0010
0000
3001
1000
0100
0010
,
0002
0000
0103
0001
2000
0000
0010
3100
,
0000
0010
0001
0100
0010
1000
0001
0010
,
0000
0100
1100
0000
0101
0000
0000
0011
,
0000
0010
0100
0010
0001
0100
0010
1010
,
0000
0001
0101
0000
0011
0000
0000
1100
,
0000
1000
0100
0001
0100
1000
0010
1010
,
0000
0100
0101
0000
0011
0000
0000
0000
,
0011
0001
0100
0000
1010
1000
0100
0000
,
1002
0000
0013
0001
0100
0000
0010
2000
,
0000
0000
0000
0000
,
3001
0000
0000
0000
;

//---------------dance-single - ----------------
#NOTES:
     dance-single:
     :
     Medium:
     10:
     0.511102,0.626706,0.444186,0.363425,0.004038,443.000000,388.000000,55.000000,45.000000,0.000000,0.000000,0.511102,0.626706,0.444186,0.363425,0.004038,443.000000,388.000000,55.000000,45.000000,0.000000,0.000000:
0000
0000
0000
0000
,
0000
0000
0000
0000
,
0000
0000
0000
0000
,
0000
0000
0000
0000
,
0000
0000
0000
0000
,
2002
0000
0000
0000
,
0000
0000
0000
0000
,
0000
0000
0000
0000
3003
0000
0010
0100
,
0000
0100
0010
0000
0100
0010
0100
0000
,
0110
0000
1000
1000
0001
0000
1000
0000
,
0010
0000
0100
0100
0010
0000
1000
0000
,
0001
0000
0010
0010
0100
0000
1000
0001
,
0000
0001
1000
0000
0001
0100
0001
0000
,
2000
0100
3200
0000
,
0310
0001
0000
1000
0000
0000
0000
0000
,
0002
0000
0100
0000
0203
0000
0000
0310
,
0000
1000
0100
0000
0010
0000
0100
0000
,
0000
1000
0001
0100
,
0001
0000
0010
0000
0100
1000
0100
1000
,
0000
0010
1000
0001
,
0100
0000
0001
0000
0010
0001
0010
0000
,
0001
0010
0001
0100
,
0010
0000
1000
0000
0100
1000
0100
1000
,
0000
0001
0010
0001
0000
0010
0100
0010
,
0000
0100
0010
0000
0100
1000
0100
0010
,
0000
0000
0001
0000
0100
0001
0100
0000
,
0010
0000
0000
0000
1000
0000
0000
0000
0001
0000
0000
0010
0000
0000
0100
0000
,
0000
0000
1000
0000
0010
1000
0010
0000
,
0100
0001
2000
3000
,
0001
0010
0100
0000
0010
0000
0001
0000
,
0100
0001
0100
0000
0010
0000
1000
0000
,
0100
0010
0100
0010
0000
0001
0010
0001
,
0020
0230
2300
3002
,
0203
0000
0010
0000
0310
0000
1000
0001
,
0000
0001
0010
0000
0100
0000
0010
0001
,
0000
0001
1000
0000
0001
0000
0100
0010
,
0000
1000
0000
1001
0000
0110
0000
0000
,
0110
0000
1001
0000
0001
0000
0010
0100
,
0000
1000
0000
0010
0000
1000
0000
0001
,
0101
0000
0000
0011
0000
0000
0110
0000
,
0000
1100
0000
0000
1001
0000
1001
0000
,
2000
0000
0010
0000
3010
0000
0100
0001
,
0000
0100
0001
0000
0010
0100
0000
1000
,
0000
0100
1000
0000
0001
0100
0001
0100
,
0000
0001
0100
0000
0010
0100
0010
1000
,
0000
0001
1000
0000
1001
0000
0000
0011
,
0000
0010
0001
0000
0011
0000
0000
0210
,
0000
1300
0000
0010
1000
0010
0000
1010
,
0000
1000
0002
0000
0000
0000
0003
0000
,
0200
0000
0000
0000
0000
0000
0310
2000
,
0000
3001
1000
0200
0000
0310
0100
0000
,
1000
0000
0001
0100
0001
0100
0001
0100
,
0001
0000
0000
0000
0000
1000
0001
0000
,
0101
1010
1100
1010
,
1100
0000
0110
0000
0001
1000
0000
1010
,
0000
0101
0011
0101
,
0011
0000
0101
0000
0010
1000
0000
1001
,
0000
1100
1001
1100
,
1001
0000
1100
0000
0010
0001
0000
0101
,
0000
0010
1000
0000
1001
0000
0010
0200
,
0000
0000
1300
0000
1000
0000
0001
0100
,
0001
0000
0001
0000
0010
0000
0100
1000
,
0001
0000
0010
0000
0001
0000
0100
0001
,
1000
0000
0010
0000
1000
0000
0100
0010
,
0000
0000
0001
0000
0001
0000
1000
0001
,
0000
0000
0100
0000
0001
0010
0100
0010
,
0000
0000
0001
0000
1000
0001
0100
0020
,
0000
0000
0100
0000
0130
0000
0001
2000
,
0000
0010
0010
3010
,
0110
0000
0110
0000
0110
0000
1000
0001
,
0000
0011
0000
0110
0000
1100
0000
0001
,
1000
0000
1010
0000
1010
0000
0100
0002
,
0000
1000
1003
0000
0001
0000
0010
0100
,
0000
0000
0110
0000
0011
0000
0000
1001
,
0000
0001
0100
0000
0010
0000
1000
0000
,
0002
0000
0000
0010
0023
0000
0000
0230
,
0000
1000
1300
0000
,
0002
0100
1000
0103
,
2000
0100
0001
0010
,
3002
0000
0013
0001
0200
0000
0010
0000
,
0320
2030
3001
0000
,
2000
0100
0001
3100
,
0002
0100
1000
0103
,
2000
0000
3100
0010
0002
0000
1003
0020
,
0000
0100
0100
0130
,
0020
0001
0100
1030
,
0200
0010
1000
0301
,
0002
0000
0013
0100
2000
0000
3001
2000
,
0000
0000
0010
0000
0010
0000
3010
0100
,
0000
0000
0101
0000
1001
0000
0000
0001
,
0000
0001
0010
0000
0100
0000
1000
0010
,
0000
0000
1010
0000
0110
0000
0000
1000
,
0000
1000
0001
0000
0010
0000
0100
0010
,
0000
0011
1001
0000
,
0001
0010
0100
0000
1000
0020
0000
0030
,
0200
0000
0000
0301
2000
0000
0000
0002
,
0000
0000
0000
3003
,
1001
0000
0000
0000
;

//---------------dance-single - ----------------
#NOTES:
     dance-single:
     :
     Easy:
     7:
     0.332274,0.352522,0.056533,0.145370,0.000000,288.000000,281.000000,7.000000,18.000000,0.000000,0.000000,0.332274,0.352522,0.056533,0.145370,0.000000,288.000000,281.000000,7.000000,18.000000,0.000000,0.000000:
0000
0000
0000
0000
,
0000
0000
0000
0000
,
0000
0000
0000
0000
,
0000
0000
0000
0000
,
0000
0000
0000
0000
,
2002
0000
0000
0000
,
0000
0000
0000
0000
,
0000
0000
0000
0000
3003
0000
0000
0001
,
0000
0100
0001
0000
,
1000
0100
0000
1000
,
0001
0010
0000
0001
,
1000
0000
0001
0000
0000
0000
1000
0010
,
0000
0100
0010
0000
,
1000
0000
0001
0000
,
0010
0010
0100
0000
,
1000
0000
0000
0000
0001
0000
0000
1000
,
0000
1000
0010
1000
,
0000
0001
0100
0001
,
1000
0100
0010
0100
,
0000
1000
0010
1000
,
0001
0100
0001
1000
,
0000
0001
0010
0010
,
0100
0100
1000
0001
,
0000
1000
0000
0001
,
0000
0100
0001
0100
,
0000
0010
1000
0010
,
0100
0001
1000
0001
,
0000
0010
0001
0010
,
0100
0100
0110
0000
,
1000
0001
0100
0001
,
0010
0100
0010
0100
,
1000
0010
1000
0001
,
0200
0320
2030
3002
,
0023
0000
0100
0000
0130
0000
0000
1000
,
0000
0000
0000
0000
0001
0000
0000
0100
,
0000
0000
0000
0000
0001
0000
0000
0010
,
0000
0100
0000
0010
0000
0100
0000
0000
,
2000
0000
0000
0000
3100
0000
0000
0010
,
0000
0000
0000
0001
0000
0000
0000
0000
,
1000
0000
0000
0001
0000
0000
1000
0000
,
0000
0001
0000
0000
0100
0000
0100
0000
,
0010
0000
0000
0000
1000
0000
0000
0001
,
0000
0000
0010
0000
0100
0000
0000
1000
,
0000
0000
0010
0000
1000
0000
0000
0001
,
0000
0000
0100
0000
0001
0000
0000
0010
,
0000
0000
0010
0000
0100
0000
0000
1000
,
0000
0000
1000
0000
0001
0000
0000
0100
,
0000
0000
0010
0000
0100
0000
0000
0002
,
0000
0000
2003
0000
0000
0000
0000
3000
,
0001
0000
0000
0000
0000
0000
0001
0010
,
0000
0000
0100
1000
0000
0000
0000
0000
,
1000
0010
1000
0001
,
0101
0000
0000
0000
,
1000
0100
1000
0010
,
1000
0000
0100
0000
0010
0001
0000
1000
,
0000
0001
0100
0001
,
0010
0000
0001
0000
0100
0010
0000
1000
,
0000
0100
0010
0100
,
1000
0000
0010
0000
0100
0001
0000
1000
,
0000
0000
0001
0000
0010
0000
0000
0200
,
0000
1000
1300
0000
,
1000
0010
1000
0100
,
0010
0001
0100
0001
,
1000
1000
0010
1000
,
0001
0000
1000
0000
,
0100
0000
0010
0100
,
1000
0000
0001
0100
,
0020
0000
0100
0000
0130
0000
0000
0001
,
0000
1000
1000
0000
,
1000
0000
0010
0000
1000
0000
0000
0001
,
0000
0100
0000
0001
0000
0000
0010
0000
,
0001
0000
0010
0000
0001
0000
0000
1000
,
0000
0000
0100
0000
1000
0000
0000
0010
,
0000
0000
0100
0000
0010
0000
0000
1000
,
0000
0001
1000
0000
0001
0000
0001
0000
,
0020
0000
0000
0000
0130
0000
0000
2000
,
0000
0000
3001
0000
,
0100
0001
0100
0001
,
1000
0010
1000
0010
,
1000
0100
0010
0001
,
0100
0010
1000
0000
,
0001
0100
0001
0100
,
0010
1000
0010
1000
,
0001
0000
0010
0000
0100
0000
1000
0010
,
0000
0100
0001
1000
,
0001
0010
0001
0010
,
0100
1000
0100
1000
,
0010
0000
1000
0000
0010
0000
1000
0010
,
0000
0000
0100
0000
0010
0000
0000
1000
,
0000
0000
0100
0000
0010
0000
0000
0001
,
0000
0000
0100
0000
0001
0000
0000
1000
,
0000
0000
0010
0000
0100
0000
0000
0010
,
0000
0000
1000
0000
0001
0000
0000
0010
,
0000
0100
0010
0000
,
1001
0000
0110
0000
,
2002
0000
0000
0000
3003
0000
0000
0220
,
0000
0000
0000
0000
,
0330
0000
0000
0000
;

//---------------dance-single - ----------------
#NOTES:
     dance-single:
     :
     Beginner:
     5:
     0.212286,0.352522,0.024228,0.169598,0.000000,184.000000,181.000000,3.000000,21.000000,0.000000,0.000000,0.212286,0.352522,0.024228,0.169598,0.000000,184.000000,181.000000,3.000000,21.000000,0.000000,0.000000:
0000
0000
0000
0000
,
0000
0000
0000
0000
,
0000
0000
0000
0000
,
0000
0000
0000
0000
,
0000
0000
0000
0000
,
1000
0000
0000
0000
,
0000
0000
0000
0000
,
0000
0000
0000
0000
,
0001
0000
1000
0000
,
0001
0000
0100
0000
,
0001
0000
0010
0000
,
0100
0000
1000
0000
,
0001
0000
0000
0000
,
0100
0000
0100
0000
,
0010
0000
0010
0000
,
1000
0000
1000
0000
,
0001
0001
0001
0001
,
1000
0000
0100
0000
,
1000
0100
1000
0000
,
0001
0000
0100
0000
,
0001
0100
0001
0000
,
0010
0000
0001
0000
,
0010
0001
0010
0000
,
0100
0100
0000
0010
,
0000
0100
0100
0000
,
1000
0000
0001
0000
,
1000
0001
1000
0000
,
0010
0000
0100
0000
,
0010
0100
0010
0000
,
0100
0000
0100
0000
,
0001
0000
0001
0000
,
1000
0000
0001
0000
,
1000
1000
1000
0000
,
0020
0000
0000
0030
,
0200
0000
0000
0300
,
0002
0000
0000
0003
,
2000
0000
0000
3000
,
0001
0000
0001
0000
,
0010
0000
0010
0000
,
0200
0000
0000
0000
,
0300
0000
0000
0000
,
1000
0000
0001
0000
,
1000
1000
1000
0000
,
0010
0010
0010
0000
,
0100
0100
0100
0000
,
0001
1000
0001
0000
,
1000
0001
1000
0000
,
0001
1000
0001
0000
,
2000
0000
0000
0000
,
3001
0000
0000
0000
,
0010
0000
0100
0000
,
1000
0001
1000
0000
,
0001
0000
0000
0000
,
0100
0000
0001
0000
,
0100
0001
0100
0000
,
0001
0000
1000
0000
,
0001
1000
0001
0000
,
1000
0000
0100
0000
,
1000
0100
1000
0000
,
0010
0010
0010
0000
,
0200
0000
0000
0300
,
0001
0000
0001
0000
,
1000
0000
1000
0000
,
0001
1000
0001
0000
,
2000
0000
0000
3000
,
0100
0000
0000
0000
,
0010
0000
0000
0000
,
0002
0000
0000
0000
,
0003
0000
0000
0000
,
1000
1000
1000
0000
,
0010
0000
0100
0000
,
0001
0001
0001
0000
,
0010
0000
0100
0000
,
1000
0001
1000
0000
,
0001
0000
1000
0000
,
0020
0000
0000
0030
,
0000
0000
0000
0000
,
0200
0000
0000
0300
,
0002
0000
0000
0003
,
2000
0000
0000
3000
,
0100
0100
0100
0010
,
0002
0000
0000
0003
,
2000
0000
0000
3000
,
0020
0000
0000
0030
,
0100
0001
0100
0001
,
2000
0000
0000
3000
,
0200
0000
0000
0300
,
0020
0000
0000
0030
,
0001
1000
0001
0000
,
0100
0100
0100
0000
,
0001
1000
0001
0000
,
1000
1000
1000
0000
,
0001
1000
0001
0000
,
0010
0010
0010
0000
,
0110
0000
1001
0000
,
0220
0000
0000
0000
,
0000
0000
0330
0000
,
0010
0000
0000
0000
;
