#TITLE:かちとばせ!栄光のレインボー;
#SUBTITLE:;
#ARTIST:ベボガ!;
#TITLETRANSLIT:Kachi Tobase! Eikou no Rainbow;
#SUBTITLETRANSLIT:;
#ARTISTTRANSLIT:BeBoGa!;
#GENRE:;
#CREDIT:;
#BANNER:;
#BACKGROUND:;
#LYRICSPATH:;
#CDTITLE:;
#MUSIC:Kachi Tobase! Eikou no Rainbow.ogg;
#OFFSET:0.036419;
#SAMPLESTART:62.200001;
#SAMPLELENGTH:12.000000;
#SELECTABLE:YES;
#BPMS:0.000000=185.000000
;
#STOPS:
;
#BGCHANGES:0.000=Kachi Tobase! Eikou no Rainbow (2).mp4=1.000=0=0=1=====,
99999=-nosongbg-=1.000=0=0=0 // don't automatically add -songbackground-
;
#KEYSOUNDS:;
#ATTACKS:;

//---------------dance-single - ----------------
#NOTES:
     dance-single:
     :
     Hard:
     11:
     0.584573,0.675304,0.516626,0.180409,0.000000,499.000000,436.000000,63.000000,22.000000,0.000000,0.000000,0.584573,0.675304,0.516626,0.180409,0.000000,499.000000,436.000000,63.000000,22.000000,0.000000,0.000000:
// measure 0
0000
0000
0000
0000
,  // measure 1
0000
0000
0000
0000
,  // measure 2
0000
0000
0000
0000
,  // measure 3
0000
0000
0000
0000
,  // measure 4
1000
0000
0010
0000
0100
0001
0100
0000
,  // measure 5
0001
0000
0010
0000
0100
1000
0100
0000
,  // measure 6
0010
0001
0100
0000
0010
1000
0001
0000
,  // measure 7
0020
0000
0130
0010
0100
0000
0100
0000
,  // measure 8
1000
0000
0010
0000
0100
0001
1000
0000
,  // measure 9
0001
0000
0010
0000
0100
1000
0001
0000
,  // measure 10
1000
0010
1010
0000
0001
0010
0011
0000
,  // measure 11
1000
0100
1100
0000
1001
0000
0110
0000
,  // measure 12
0201
0000
0320
1000
1000
0000
0130
0100
,  // measure 13
0000
0100
0001
1000
0100
0000
0110
0000
,  // measure 14
1200
0000
0320
0001
0001
0000
0130
0100
,  // measure 15
0000
0100
1000
0001
0100
0000
0010
0000
,  // measure 16
1001
0000
0000
0001
0010
0000
0100
1000
,  // measure 17
0000
1000
0010
0000
0100
0000
0101
0000
,  // measure 18
1001
0000
0000
1000
0100
0000
0100
0010
,  // measure 19
0000
0010
0001
0000
1000
0000
1010
0000
,  // measure 20
1001
0000
0000
0001
0010
0000
0100
1000
,  // measure 21
0000
1000
0010
0000
0100
0000
0000
0010
,  // measure 22
0000
1000
0100
1000
0100
0000
0010
0001
,  // measure 23
0000
0100
0000
0001
0100
0000
0110
0000
,  // measure 24
0101
0000
0000
0001
1000
0000
0100
0010
,  // measure 25
0000
0010
0001
0000
1000
0000
0110
0000
,  // measure 26
1010
0000
0000
1000
0001
0000
0010
0100
,  // measure 27
0000
0100
1000
0000
0001
0000
0110
0000
,  // measure 28
0011
0000
0000
0001
1000
0000
0010
0100
,  // measure 29
0000
0100
0001
0000
1000
0000
0000
1001
,  // measure 30
0000
0010
0100
0010
0001
0100
0010
2000
,  // measure 31
0000
3100
1000
0001
0011
0000
0110
0000
,  // measure 32
1100
0000
0000
0100
0010
0000
1001
0000
,  // measure 33
0100
0000
0000
0100
0010
0000
1001
0000
,  // measure 34
0010
0000
0000
0010
0100
0000
1001
0000
,  // measure 35
0100
0010
0000
0010
0010
0000
1001
0000
,  // measure 36
0001
0000
0000
0001
0010
0000
0110
0000
,  // measure 37
1000
0000
0000
1000
0010
0000
0110
0000
,  // measure 38
0001
0000
0000
0001
0010
0000
0110
0000
,  // measure 39
1000
0000
0000
1000
0001
0100
0010
0000
,  // measure 40
1000
0100
1000
0000
0001
0100
0001
0000
,  // measure 41
0010
0100
0010
0000
0001
0100
0001
0000
,  // measure 42
1000
0010
1000
0000
0100
0010
0100
0000
,  // measure 43
1000
0010
0100
0000
0001
0010
0100
0000
,  // measure 44
0020
0000
0130
1000
0001
0000
0010
0000
,  // measure 45
0002
0000
0103
0010
1000
0000
0001
0000
,  // measure 46
0011
1100
0110
1001
,  // measure 47
0101
0100
0000
0110
0000
1010
1000
0000
,  // measure 48
0001
0010
0100
0000
0001
0010
0100
0000
,  // measure 49
1000
0010
0100
0000
1000
0010
0100
0000
,  // measure 50
0001
0010
0100
1000
0010
0100
0001
1000
,  // measure 51
0200
0000
0310
0000
0010
0001
0010
0100
,  // measure 52
1000
0001
0100
0000
0010
1000
0100
0000
,  // measure 53
0020
0000
0031
0000
0001
1000
0010
0000
,  // measure 54
0100
0001
0010
0000
0001
1000
0010
0000
,  // measure 55
0110
0000
1000
0100
0000
1001
0000
0000
,  // measure 56
1000
0100
0010
0000
1000
0100
0010
0000
,  // measure 57
0001
0100
0010
0000
0001
0100
0010
0000
,  // measure 58
1000
0010
0100
0001
0010
0100
1000
0001
,  // measure 59
0200
0000
0310
0000
0010
1000
0010
0100
,  // measure 60
0001
1000
0100
0000
0010
0001
0100
0000
,  // measure 61
0020
0000
1030
0000
1000
0001
0100
0000
,  // measure 62
0010
1000
0100
0000
1000
0001
0010
0000
,  // measure 63
0001
0000
0100
0010
0000
1001
0000
0000
,  // measure 64
2000
0000
3001
0010
0001
0010
0100
0010
,  // measure 65
0001
0100
0010
1000
0000
1000
0001
0000
,  // measure 66
2000
0000
3010
0100
0010
0100
0010
1000
,  // measure 67
0000
0100
1000
0001
0000
0001
0010
0000
,  // measure 68
0100
0000
0010
0001
0010
0000
0001
0100
,  // measure 69
0001
0100
0010
1000
,  // measure 70
0002
0000
0010
0000
1000
0000
0103
0010
,  // measure 71
2000
0100
0001
3010
,  // measure 72
0110
0000
1001
0000
0001
0010
0100
1000
,  // measure 73
1100
0000
0101
0000
1000
0010
0100
0001
,  // measure 74
0101
0000
1001
0000
1000
0001
0010
0100
,  // measure 75
1100
0000
0101
0002
0000
1003
0100
0010
,  // measure 76
0110
0000
1100
0000
0001
0100
0010
1000
,  // measure 77
1100
0101
0011
0110
,  // measure 78
2100
0000
0000
0000
,  // measure 79
0002
3003
1100
0101
,  // measure 80
1000
0000
0010
0000
0100
0001
0100
0000
,  // measure 81
0001
0000
0010
0000
0100
1000
0100
0000
,  // measure 82
0010
0001
0100
0000
0010
1000
0001
0000
,  // measure 83
0020
0000
0130
0010
0100
0000
0100
0000
,  // measure 84
1000
0000
0010
0000
0100
0001
1000
0000
,  // measure 85
0001
0000
0010
0000
0100
1000
0001
0000
,  // measure 86
1000
0100
1100
0000
0001
0100
0101
0000
,  // measure 87
1000
0010
1010
0000
0101
0000
0110
0000
,  // measure 88
2002
0000
0000
0000
,  // measure 89
0000
0000
0000
0000
,  // measure 90
0000
0000
0000
0000
,  // measure 91
0000
0000
3003
0000
;

//---------------dance-single - ----------------
#NOTES:
     dance-single:
     :
     Medium:
     9:
     0.474453,0.637788,0.647833,0.410021,0.000000,405.000000,326.000000,79.000000,50.000000,0.000000,0.000000,0.474453,0.637788,0.647833,0.410021,0.000000,405.000000,326.000000,79.000000,50.000000,0.000000,0.000000:
0000
0000
0000
0000
,
0000
0000
0000
0000
,
0000
0000
0000
0000
,
0000
0000
0000
0000
,
2000
0100
0001
3010
,
0002
0100
1000
0013
,
2000
0010
3002
0010
,
2003
0000
0000
0001
3001
0000
0000
0000
,
2000
3020
0100
0130
,
0002
0023
0100
0130
,
1000
1100
0001
0011
,
1000
1010
0001
0101
,
1001
0000
0000
0001
0100
0000
0000
0010
,
0000
1000
0010
1000
0010
0000
1010
0000
,
1001
0000
0000
1000
0100
0000
0000
0010
,
0000
0001
1000
0001
1000
0000
0000
0000
,
1001
0100
0000
0100
,
0000
0100
0000
0100
,
1001
0000
1000
0001
0010
0000
0100
1000
,
0000
1000
0001
0000
1000
0000
0010
0000
,
1010
0000
0010
0100
0010
0000
0100
0001
,
0000
1000
0001
0000
1000
0000
0000
1001
,
0000
0001
0010
0000
0100
0000
0000
1100
,
0000
1000
0000
0001
0100
0000
0010
0000
,
1001
0000
0000
0001
0100
0000
0010
1000
,
0000
1000
0001
0000
0010
0000
0100
0000
,
0110
0000
0000
1000
0001
0000
0010
0100
,
0000
0100
1000
0000
0010
0000
0100
0000
,
0101
0000
0000
1000
0001
0000
0010
0100
,
0000
0100
1000
0000
0010
0000
0000
0110
,
0000
1000
0001
0000
0010
0000
0000
0110
,
0000
1000
0001
0000
0200
0000
0320
0000
,
2030
0000
0100
0000
,
3002
0000
0010
0000
,
0203
0000
0010
0000
,
0301
1000
0000
0001
1000
0000
0000
0000
,
2000
0000
0010
0000
,
3200
0000
0010
0000
,
0320
0000
0001
0000
,
0032
0000
0000
0000
1003
0001
1000
0000
,
0001
0100
0001
0000
1000
0000
0001
0000
,
1000
0100
1000
0000
0100
0000
1000
0000
,
0010
1000
0010
0000
1000
0000
0010
0000
,
0100
0001
0100
0000
0001
0000
0100
0000
,
0002
0000
0000
1000
1003
0000
0000
0000
,
2000
0000
0000
0001
3001
0000
0010
0000
,
2002
0000
0000
3003
,
0001
0100
0000
0110
0000
0010
1000
0000
,
0011
1000
0011
1000
,
1010
0001
1010
0001
,
1100
1100
0011
0101
,
2002
0000
3003
0000
0001
0100
0001
0000
,
0101
0101
1010
1100
,
2002
3003
1000
1000
,
0011
0100
1100
0010
,
0101
0000
0010
1000
0000
1001
0000
0000
,
0101
0010
0101
0010
,
1100
0010
1100
0010
,
1001
0101
1001
1010
,
0220
0000
0330
0000
0001
0100
0001
0000
,
0011
0011
1100
0110
,
2002
3003
0001
0001
,
1000
1100
0001
0011
,
1001
0000
0100
0010
0000
1001
0000
0000
,
2000
0100
0001
0010
,
3001
0000
0100
0001
0000
0100
0001
0000
,
0002
0010
1000
0100
,
1003
0000
0010
1000
0000
0010
1000
0000
,
0200
0010
0001
1300
,
0020
0001
1000
0130
,
0002
0000
0010
0000
0010
0000
0013
0100
,
2000
0010
0010
3010
,
1010
1010
0100
0001
,
0011
0011
0001
1000
,
1010
1010
1000
0001
,
0101
1100
0101
1100
,
0011
0011
0210
1300
,
1010
1010
0110
0101
,
1002
0000
0000
0000
,
2003
0000
3001
1001
,
0002
0100
1000
0013
,
2000
0100
0001
3010
,
0002
0010
2003
0010
,
3002
0000
0000
1000
1003
0000
0000
0000
,
0002
0023
0100
0130
,
2000
3020
0100
0130
,
0001
0101
1000
1010
,
0001
0011
1000
1100
,
2002
0000
0000
0000
,
0000
0000
0000
0000
,
0000
0000
0000
0000
,
0000
0000
3003
0000
;

//---------------dance-single - ----------------
#NOTES:
     dance-single:
     :
     Easy:
     6:
     0.315130,0.583870,0.311616,0.311616,0.000000,269.000000,231.000000,38.000000,38.000000,0.000000,0.000000,0.315130,0.583870,0.311616,0.311616,0.000000,269.000000,231.000000,38.000000,38.000000,0.000000,0.000000:
0000
0000
0000
0000
,
0000
0000
0000
0000
,
0000
0000
0000
0000
,
0000
0000
0000
0000
,
1000
0000
0010
0000
,
0100
0000
0001
0000
,
1000
0001
0010
0100
,
2000
0000
3001
0000
,
0001
0010
0100
0000
,
1000
0100
0010
0000
,
0110
0000
1001
0000
,
0110
0000
1001
0000
,
0120
0000
0100
0000
,
0100
0000
0130
0000
,
2001
0000
0001
0000
,
3001
1000
0001
0000
,
0202
0000
0000
0000
,
0000
0000
0000
0303
,
1000
0000
0100
0000
,
1000
0100
0010
0000
,
0110
0000
0001
0000
,
1000
0001
0100
0000
,
0110
0000
0010
0000
,
1000
0001
0100
0001
,
1000
0000
0100
0000
,
0010
0001
0100
0001
,
0010
0000
0100
0000
,
1000
0001
0100
0001
,
1000
0000
1000
0000
,
0001
1000
0100
0000
,
1000
0010
1000
0010
,
0200
0000
0000
0300
,
0002
0000
1003
0000
,
2000
0000
3001
0000
,
0002
0000
0013
0000
,
0010
0100
0110
0000
,
2000
0000
3010
0000
,
0002
0000
0013
0000
,
2000
0000
3100
0000
,
0002
0000
0103
0101
,
0010
0010
1000
0001
,
1000
1000
1000
0000
,
0100
0100
1000
0010
,
0100
0100
0001
0000
,
0002
0000
1003
0000
,
2000
0000
3001
0000
,
2002
0000
0000
3003
,
0220
0000
0000
0330
,
0002
0013
0020
0130
,
0200
1300
2000
3010
,
0010
0100
0001
1000
,
0002
0003
0010
0010
,
0001
0010
0100
1000
,
0002
0003
1000
0100
,
1000
1000
0010
0010
,
0100
0000
0001
0100
0000
0001
0000
0000
,
2000
3100
0200
0310
,
0020
0031
0002
0103
,
0100
0010
1000
0001
,
2000
3000
0100
0100
,
1000
0100
0010
0001
,
2000
3000
0001
0010
,
0001
0001
0100
0100
,
0010
0000
1000
0010
0000
1000
0000
0000
,
0001
0100
0001
1000
,
0100
1000
0100
0000
,
1000
0010
1000
0001
,
0100
0001
0100
0000
,
0010
1000
0010
0100
,
0001
0100
0001
1000
,
0200
0000
0000
0300
,
0020
0000
0000
0030
,
0011
0011
0011
0000
,
1100
1100
1100
0000
,
0101
0101
0101
0000
,
0110
0110
1001
1001
,
1010
1010
1010
0000
,
0101
0101
0101
0000
,
2002
0000
0000
0000
,
0000
0000
0000
3003
,
0001
0000
0100
0000
,
0010
0000
1000
0000
,
0001
1000
0100
0010
,
0002
0000
1003
0000
,
1000
0100
0010
0000
,
0001
0010
0100
0000
,
0110
0000
1001
0000
,
0110
0000
1001
0000
,
0220
0000
0000
0000
,
0330
0000
0000
0000
;

//---------------dance-single - ----------------
#NOTES:
     dance-single:
     :
     Beginner:
     3:
     0.128864,0.182459,0.016401,0.106605,0.000000,110.000000,108.000000,2.000000,13.000000,0.000000,0.000000,0.128864,0.182459,0.016401,0.106605,0.000000,110.000000,108.000000,2.000000,13.000000,0.000000,0.000000:
0000
0000
0000
0000
,
0000
0000
0000
0000
,
0000
0000
0000
0000
,
0000
0000
0000
0000
,
1000
0000
0000
0000
,
0010
0000
0000
0000
,
0100
0000
0000
0000
,
0001
0000
0000
0000
,
1000
0000
0000
0000
,
0001
0000
0000
0000
,
0010
0000
0010
0000
,
0010
0000
0010
0000
,
0020
0000
0000
0000
,
0030
0000
0000
0000
,
0002
0000
0000
0000
,
0003
0000
0000
0000
,
1000
0000
0000
0000
,
0000
0000
0000
0000
,
0010
0000
0000
0000
,
0010
0000
0100
0000
,
0010
0000
0000
0000
,
1000
0000
0000
0000
,
0001
0000
0001
0000
,
0001
0000
0000
0000
,
1000
0000
0000
0000
,
1000
0000
0001
0000
,
1000
0000
0000
0000
,
0010
0000
0100
0000
,
0010
0000
0000
0000
,
0100
0000
0000
0000
,
0001
0000
1000
0000
,
0001
0000
0000
0000
,
1000
0000
0000
0000
,
0010
0000
0000
0000
,
0001
0000
0000
0000
,
0100
0000
0000
0000
,
1000
0000
0000
0000
,
0100
0000
0000
0000
,
0001
0000
0000
0000
,
0010
0000
0100
0100
,
0100
0000
0000
0000
,
1000
0000
0000
0000
,
0001
0000
0001
0000
,
1000
0000
1000
0000
,
0002
0000
0003
0000
,
2000
0000
3000
0000
,
0002
0000
0003
0000
,
0020
0000
0030
0000
,
0001
0000
0001
0000
,
0100
0000
0100
0000
,
0020
0000
0000
0000
,
0030
0000
0000
0000
,
1000
0000
1000
0000
,
0001
0000
0000
0000
,
1000
0000
0001
0000
,
1001
0000
0000
0000
,
1000
0000
1000
0000
,
0010
0000
0010
0000
,
0200
0000
0000
0000
,
0300
0000
0000
0000
,
0001
0000
0001
0000
,
1000
0000
0000
0000
,
0001
0000
1000
0000
,
1001
0000
0000
0000
,
1000
0000
0001
0000
,
1000
0000
0000
0000
,
0100
0000
0100
0000
,
0010
0000
0000
0000
,
0001
0000
1000
0000
,
0001
0000
1000
0000
,
0002
0000
0003
0000
,
2000
0000
3000
0000
,
0001
0000
0001
0000
,
0001
0000
0000
0000
,
1000
0000
1000
0000
,
1000
0000
0000
0000
,
0100
0000
0100
0000
,
0100
0000
0000
0000
,
0020
0030
0000
0000
,
0002
0003
0000
0000
,
1000
0000
0000
0000
,
0100
0000
0000
0000
,
0010
0000
0000
0000
,
0001
0000
0000
0000
,
1000
0000
0000
0000
,
0001
0000
0000
0000
,
0100
0000
0100
0000
,
0100
0000
0100
0000
,
0200
0000
0000
0000
,
0300
0000
0000
0000
;
