#VERSION:0.81;
#TITLE:Can't Sleep Love;
#SUBTITLE:;
#ARTIST:Pentatonix;
#TITLETRANSLIT:;
#SUBTITLETRANSLIT:;
#ARTISTTRANSLIT:;
#GENRE:;
#ORIGIN:;
#CREDIT:mf32892;
#BANNER:Can't Sleep Love-bn.png;
#BACKGROUND:Can't Sleep Love-jacket.jpg;
#PREVIEWVID:;
#JACKET:Can't Sleep Love-jacket.png;
#CDIMAGE:;
#DISCIMAGE:;
#LYRICSPATH:;
#CDTITLE:;
#MUSIC:Can't Sleep Love.ogg;
#OFFSET:-0.338252;
#SAMPLESTART:50.400002;
#SAMPLELENGTH:12.000000;
#SELECTABLE:YES;
#BPMS:0.000=94.524,
46.000=189.047,
48.000=94.523,
76.000=47.262,
77.500=94.523,
108.500=47.262,
123.500=189.047,
125.500=94.523;
#STOPS:46.000=0.635,
77.000=0.635,
107.500=0.635,
123.500=0.635;
#DELAYS:;
#WARPS:;
#TIMESIGNATURES:0.000=4=4;
#TICKCOUNTS:0.000=4;
#COMBOS:0.000=1;
#SPEEDS:0.000=1.000=0.000=0;
#SCROLLS:0.000=1.000;
#FAKES:;
#LABELS:0.000=Song Start;
#BGCHANGES:0.000=csl.avi=1.000=0=0=0=StretchNoLoop====,
99999=-nosongbg-=1.000=0=0=0 // don't automatically add -songbackground-
;
#KEYSOUNDS:;
#ATTACKS:
;

//---------------dance-single - ----------------
#NOTEDATA:;
#CHARTNAME:;
#STEPSTYPE:dance-single;
#DESCRIPTION:;
#CHARTSTYLE:;
#DIFFICULTY:Hard;
#METER:9;
#RADARVALUES:0.342690,0.363419,0.071341,0.329951,0.057964,224.000000,8.000000,37.000000,0.000000,0.000000,0.000000,0.000000,0.000000,0.342690,0.363419,0.071341,0.329951,0.057964,224.000000,8.000000,37.000000,0.000000,0.000000,0.000000,0.000000,0.000000;
#CREDIT:;
#OFFSET:-0.338252;
#BPMS:0.000000=94.524002
,46.000000=189.046997
,48.000000=94.523003
,76.000000=47.261501
,77.500000=94.523003
,108.500000=47.261799
,123.500000=189.046997
,125.500000=94.523003
;
#STOPS:46.000000=0.634700
,77.000000=0.634700
,107.500000=0.634700
,123.500000=0.634700
;
#DELAYS:;
#WARPS:;
#TIMESIGNATURES:0.000000=4=4
;
#TICKCOUNTS:0.000000=4
;
#COMBOS:0.000000=1
;
#SPEEDS:0.000000=1.000000=0.000000=0
;
#SCROLLS:0.000000=1.000000
,153.000000=0.875000
,153.250000=0.750000
,153.500000=0.625000
,153.750000=0.500000
,154.000000=0.375000
,154.250000=0.250000
,154.500000=0.125000
,154.750000=0.062500
,155.000000=0.031750
,155.250000=0.000000
;
#FAKES:;
#LABELS:0.000000=Song Start
;
#NOTES:
// measure 0
0000
0000
0000
0000
,  // measure 1
0000
0000
0000
0000
,  // measure 2
0000
0000
0000
0000
,  // measure 3
0000
0000
0000
0000
,  // measure 4
1000
0001
0100
0000
0001
1000
0100
0000
,  // measure 5
0010
0001
1000
0010
0020
0000
0230
0000
,  // measure 6
0301
1000
0100
0000
1000
0001
0100
0000
,  // measure 7
0010
0000
1000
0002
0013
0000
0100
0000
,  // measure 8
0010
0001
1000
0000
0010
1000
0001
0000
,  // measure 9
0010
0001
1000
0100
0200
0000
0310
0000
,  // measure 10
0001
0100
0010
0000
1000
0100
0010
0000
,  // measure 11
0002
1000
1003
0000
,  // measure 12
0001
0100
0010
0100
0001
0010
0100
1000
,  // measure 13
0002
0000
0100
0100
0100
0000
0103
0000
,  // measure 14
0010
1000
0100
0010
0001
1000
0010
0100
,  // measure 15
0002
1000
1000
1000
2003
0000
3200
0000
,  // measure 16
0310
0001
0100
0010
1000
0100
0001
0100
,  // measure 17
2000
0010
0010
0001
0001
0100
3100
0010
,  // measure 18
0001
0000
0100
0000
0010
0000
1000
0000
0001
0000
0000
0010
0000
0000
0200
0000
,  // measure 19
0000
0000
1300
0002
0103
0010
1000
0200
,  // measure 20
0310
0100
2000
0000
0100
3100
0010
0011
,  // measure 21
0000
1100
0000
0002
0103
0010
1000
0200
,  // measure 22
0310
0100
2000
0000
0100
3100
0010
0011
,  // measure 23
0000
1100
0000
0001
0100
0010
1000
0100
,  // measure 24
0000
0010
0000
0100
1000
0010
0100
0001
,  // measure 25
0000
1000
0000
0002
0103
0010
1000
0200
,  // measure 26
0310
0100
2000
0000
3001
1000
0001
0100
,  // measure 27
0000
0000
0020
0000
1000
0000
0000
0000
0001
0000
0000
0000
0130
0001
2000
0000
,  // measure 28
3200
0000
0320
0000
0001
0000
0000
0000
1000
0000
0000
0001
0030
0001
2000
0000
,  // measure 29
3020
0000
0230
0000
0001
0000
0000
0000
1000
0000
0000
0301
0001
1000
0100
0100
,  // measure 30
0010
0000
0010
0000
0001
0000
0100
0000
0010
0000
1000
0000
0001
0000
0000
0010
0000
0000
0200
0000
0000
0000
0000
0000
0000
0000
0000
0000
1300
0000
0000
0000
,  // measure 31
0000
0000
0000
0002
0103
0010
1000
0200
,  // measure 32
0310
0100
2000
0000
3010
0100
0001
0101
,  // measure 33
0000
1010
0000
0002
0103
0010
1000
0200
,  // measure 34
0310
0100
2000
0000
3010
0100
0001
0101
,  // measure 35
0000
1100
0000
1000
0100
0010
0001
1000
,  // measure 36
0000
0001
0000
1000
0001
0010
0100
1000
,  // measure 37
0000
0001
0000
0200
0310
1000
0100
0020
,  // measure 38
0130
0000
1000
0000
0002
0000
0000
0000
0000
0000
0000
0000
0000
1003
0000
0000
;

//---------------dance-single - ----------------
#NOTEDATA:;
#CHARTNAME:;
#STEPSTYPE:dance-single;
#DESCRIPTION:;
#CHARTSTYLE:;
#DIFFICULTY:Challenge;
#METER:12;
#RADARVALUES:0.501933,0.657616,0.205104,0.463714,0.481550,319.000000,23.000000,52.000000,0.000000,0.000000,0.000000,0.000000,0.000000,0.501933,0.657616,0.205104,0.463714,0.481550,319.000000,23.000000,52.000000,0.000000,0.000000,0.000000,0.000000,0.000000;
#CREDIT:;
#OFFSET:-0.338252;
#BPMS:0.000000=94.523582
,46.000000=47.261791
,46.500000=189.047165
,48.500000=94.523582
,76.500000=47.261791
,77.500000=23.630899
,78.000000=94.523598
,110.000000=47.261791
,125.000000=23.630899
,125.500000=94.523598
;
#STOPS:;
#DELAYS:;
#WARPS:;
#TIMESIGNATURES:0.000000=4=4
;
#TICKCOUNTS:0.000000=4
;
#COMBOS:0.000000=1
;
#SPEEDS:0.000000=1.000000=0.000000=0
;
#SCROLLS:0.000000=1.000000
,154.500000=0.750000
,154.750000=0.500000
,155.000000=0.250000
,155.250000=0.000000
;
#FAKES:;
#LABELS:0.000000=Song Start
;
#NOTES:
// measure 0
0000
0000
0000
0000
,  // measure 1
0000
0000
0000
0000
,  // measure 2
0000
0000
0000
0000
,  // measure 3
0000
0000
0000
0000
,  // measure 4
1000
0000
0100
0000
0010
0000
0001
0000
1000
0000
0000
0001
0000
0000
0200
0000
,  // measure 5
0000
0000
0000
0310
0000
0000
1000
0000
0000
0001
0000
0000
0002
0000
0000
0013
0000
0010
0200
0000
0000
0000
0000
0000
,  // measure 6
1300
0000
0001
0000
0100
0000
0010
0000
1000
0000
0000
0100
0000
0000
0020
0000
,  // measure 7
0000
0000
0000
0000
0031
0000
0000
0000
1000
0000
0000
0000
0001
0000
0000
0000
0001
0000
0000
1000
0000
0000
0100
0000
0020
0000
0000
0000
0000
0000
0000
0000
,  // measure 8
0031
0000
0100
0000
0010
0000
1000
0000
0001
0000
0000
1000
0000
0000
0200
0000
,  // measure 9
0000
0000
0000
0310
0000
0000
0100
0000
0000
0010
0000
0000
0020
0000
0000
0031
0000
0001
2000
0000
0000
0010
0000
0000
,  // measure 10
3010
0000
0100
0000
0001
0000
1000
0000
0001
0000
0000
0010
0000
0000
0200
0000
,  // measure 11
0001
0000
0000
0000
0000
0000
1300
0000
0000
0002
0000
0000
0103
0000
0000
0010
0000
0000
0000
1000
0000
0010
0000
0000
,  // measure 12
0000
1000
0000
0010
0000
0000
0010
0000
0000
0100
0000
0001
0100
0000
0001
1000
0000
0000
1000
0000
0000
0100
0000
0100
,  // measure 13
0020
0000
0000
0000
0000
0000
0031
0000
0000
1000
0000
0000
0001
0000
1000
0001
0000
0000
0000
0000
0100
0010
0000
0010
,  // measure 14
0100
0000
0000
0010
0000
0000
1000
0000
0000
0001
0000
1000
0001
0000
0000
1000
0000
0000
0100
0000
0100
1000
0000
0000
,  // measure 15
0200
0000
0000
0000
0000
0000
0310
0000
0000
0010
0000
0000
0010
0000
0000
0011
0000
0000
0000
0000
0001
0100
0000
0001
,  // measure 16
0100
0000
0000
0010
0000
0010
1000
0000
0000
0100
0000
0100
1000
0000
0000
0001
0000
0000
1000
0000
0100
1000
0000
0100
,  // measure 17
0020
0000
0000
0000
0000
0000
0031
0000
0100
0001
0000
0000
1000
0000
0100
1000
0000
0000
0010
0000
0100
0010
0000
0000
,  // measure 18
1000
0000
0100
0000
0010
0000
0001
0000
1000
0000
0001
0000
0000
0100
0000
0000
,  // measure 19
2000
0000
0000
0000
0000
0000
0000
0000
0000
0000
0000
0000
0000
0000
0000
0000
0000
0000
0000
0000
0000
0000
0000
0000
0200
0000
0000
0000
0000
0000
0000
0000
0000
0000
0000
0000
0000
0000
0000
0000
0000
0000
0000
0000
0000
0000
0000
0000
3000
0000
0000
0000
0000
0000
0000
0000
0000
0000
0000
0000
0000
0000
0000
0000
0000
0000
0000
0000
0000
0000
0000
0000
0301
0000
0000
0000
0000
0000
0000
0000
0000
0000
0000
0000
1000
0000
0000
0000
0100
0000
0010
0000
0000
0000
0000
0000
0012
0000
0000
0000
0000
0000
0000
0000
0000
0000
0000
0000
0000
0000
0000
0000
0000
0000
0000
0000
0000
0000
0000
0000
1003
0000
0000
0000
0000
0000
0000
0000
0000
0000
0000
0000
0000
0000
0000
0000
0001
0000
0000
0000
0000
0000
0000
0000
0100
0000
0000
0000
0000
0000
0000
0000
0000
0000
0000
0000
0000
0000
0000
0000
0000
0000
0000
0000
0000
0000
0000
0000
0010
0000
0000
0000
0000
0000
0000
0000
0000
0000
0000
0000
0000
0000
0000
0000
0000
0000
0000
0000
0000
0000
0000
0000
,  // measure 20
2010
0000
0000
3001
0000
1000
0100
0000
0000
0210
0000
0000
0000
0000
0000
1300
0000
0000
0001
0000
0000
1000
0000
0000
,  // measure 21
1010
0000
0000
0000
0000
0100
0001
0000
0000
0010
0000
0000
0021
0000
0000
0130
0000
1000
0001
0000
0000
0100
0000
0000
,  // measure 22
0120
0000
0000
1030
0000
0001
0010
0000
0000
0120
0000
0000
0000
0000
0000
0031
0000
0000
1000
0000
0000
0001
0000
0000
,  // measure 23
0101
0000
0000
0000
0000
0000
0000
0000
0000
0000
0010
0000
1000
0000
0000
0000
0010
0000
0000
0000
0000
0001
0000
0000
0000
0000
0000
0010
0000
0000
0000
0000
0000
1000
0000
0000
0000
0000
0000
0010
0000
0000
0000
0000
0000
0100
0000
0000
,  // measure 24
0000
0000
0000
0000
0000
0000
0000
0000
0000
0000
0100
0000
0001
0000
0000
0000
0100
0000
0000
0000
0000
0001
0000
0000
0000
0000
0000
0010
0000
0000
0000
0000
0000
1000
0000
0000
0000
0000
0000
0010
0000
0000
0000
0000
0000
0001
0000
0000
,  // measure 25
0000
0000
0000
0000
0000
0000
1000
0000
0100
0010
0000
0000
0120
0000
0000
0031
0000
1000
0010
0000
0000
0100
0000
0000
,  // measure 26
0120
0000
0000
1030
0000
0001
0010
0000
0000
0120
0000
0000
0031
0000
0000
1000
0000
0000
0001
0000
0000
0010
0000
0000
,  // measure 27
0101
0000
2000
0000
3200
0000
0320
0000
0032
0000
1003
0001
0100
0001
0010
0200
,  // measure 28
0000
2300
0000
3001
0200
0310
0020
2030
3002
0000
0013
0100
0200
0320
0230
2300
,  // measure 29
0000
3001
0100
0010
0020
0000
1030
0100
0020
0000
0130
0010
0001
0010
1000
0020
,  // measure 30
0000
0000
0130
0000
0010
0000
0100
0000
0010
0000
0010
0000
0001
0000
0001
0000
1000
0000
0010
0000
0001
0000
0100
0000
1000
0000
0000
0010
0000
0000
0200
0000
,  // measure 31
1000
0000
0000
0000
0000
0000
0000
0000
0000
0000
0000
0000
0000
0000
0000
0000
0000
0000
0000
0000
0000
0000
0000
0000
0301
0000
0000
0000
0000
0000
0000
0000
0000
0000
0000
0000
0010
0000
0000
0000
0000
0000
0000
0000
0000
0000
0000
0000
0200
0000
0000
0000
0000
0000
0000
0000
0000
0000
0000
0000
1300
0000
0000
0000
0001
0000
1000
0000
0000
0000
0000
0000
1200
0000
0000
0000
0000
0000
0000
0000
0000
0000
0000
0000
0000
0000
0000
0000
0000
0000
0000
0000
0000
0000
0000
0000
0310
0000
0000
0000
0000
0000
0000
0000
0000
0000
0000
0000
0000
0000
0000
0000
0001
0000
0000
0000
0000
0000
0000
0000
0100
0000
0000
0000
0000
0000
0000
0000
0000
0000
0000
0000
0000
0000
0000
0000
0000
0000
0000
0000
0000
0000
0000
0000
0001
0000
0000
0000
0000
0000
0000
0000
0000
0000
0000
0000
0000
0000
0000
0000
0000
0000
0000
0000
0000
0000
0000
0000
0201
0000
0000
0000
0000
0000
0000
0000
0000
0000
0000
0000
0000
0000
0000
0000
0000
0000
0000
0000
0000
0000
0000
0000
,  // measure 32
0310
0000
1000
0100
0000
0000
0210
0000
0000
0000
0000
0000
1300
0000
0000
0001
0000
0000
1000
0000
0000
1100
0000
0000
,  // measure 33
0000
0000
1000
0001
0000
0000
0010
0000
0000
0021
0000
0000
0130
0000
1000
0010
0000
0000
1000
0000
0000
1020
0000
0000
,  // measure 34
0130
0000
0001
0010
0000
0000
0120
0000
0000
0000
0000
0000
0031
0000
0000
1000
0000
0000
0001
0000
0000
0101
0000
0000
,  // measure 35
0000
0000
0000
0000
0010
0000
1000
0000
0000
0000
0010
0000
0000
0000
0000
0001
0000
0000
0000
0000
0000
0010
0000
0000
0000
0000
0000
1000
0000
0000
0000
0000
0000
0010
0000
0000
0000
0000
0000
0100
0000
0000
0000
0000
0000
0000
0000
0000
,  // measure 36
0000
0000
0000
0000
0100
0000
0001
0000
0000
0000
0100
0000
0000
0000
0000
0001
0000
0000
0000
0000
0000
0010
0000
0000
0000
0000
0000
1000
0000
0000
0000
0000
0000
0010
0000
0000
0000
0000
0000
0001
0000
0000
0000
0000
0000
0000
0000
0000
,  // measure 37
0000
0000
0010
0100
0000
1000
0001
0000
0000
0021
0000
0000
0130
0000
1000
0001
0000
0000
0100
0000
0000
1020
0000
0000
,  // measure 38
0130
0000
0000
0000
0001
0000
1000
0000
0000
0000
0000
0000
0100
0000
0000
0000
0010
0000
0001
0000
0000
0000
0010
0000
0100
0000
0000
0000
2000
0000
0000
0000
0000
0000
0000
0000
0000
0000
0000
3001
0000
0000
0000
0000
0000
0000
0000
0000
;

//---------------dance-single - ----------------
#NOTEDATA:;
#CHARTNAME:;
#STEPSTYPE:dance-single;
#DESCRIPTION:;
#CHARTSTYLE:;
#DIFFICULTY:Medium;
#METER:6;
#RADARVALUES:0.259884,0.259585,0.053506,0.258610,0.008918,169.000000,6.000000,29.000000,0.000000,0.000000,0.000000,0.000000,0.000000,0.259884,0.259585,0.053506,0.258610,0.008918,169.000000,6.000000,29.000000,0.000000,0.000000,0.000000,0.000000,0.000000;
#CREDIT:;
#OFFSET:-0.338252;
#BPMS:0.000000=94.523582
,46.000000=189.047195
,48.000000=94.523003
,76.000000=47.261799
,77.500000=94.523598
,108.500000=47.261799
,123.500000=189.047195
,125.500000=94.523598
;
#STOPS:46.000000=0.634700
,77.000000=0.634700
,107.500000=0.634700
,123.500000=0.634700
;
#DELAYS:;
#WARPS:;
#TIMESIGNATURES:0.000000=4=4
;
#TICKCOUNTS:0.000000=4
;
#COMBOS:0.000000=1
;
#SPEEDS:0.000000=1.000000=0.000000=0
;
#SCROLLS:0.000000=1.000000
,153.000000=0.875000
,153.250000=0.750000
,153.500000=0.625000
,153.750000=0.500000
,154.000000=0.375000
,154.250000=0.250000
,154.500000=0.125000
,154.750000=0.062500
,155.000000=0.000000
;
#FAKES:;
#LABELS:0.000000=Song Start
;
#NOTES:
// measure 0
0000
0000
0000
0000
,  // measure 1
0000
0000
0000
0000
,  // measure 2
0000
0000
0000
0000
,  // measure 3
0000
0000
0000
0000
,  // measure 4
1000
0001
1000
0001
,  // measure 5
0020
0000
0100
0100
0130
0000
0010
0000
,  // measure 6
0001
1000
0001
1000
,  // measure 7
0020
0000
0100
0100
0130
0000
0001
0000
,  // measure 8
0010
0100
0010
0100
,  // measure 9
2000
0000
0001
0001
3001
0000
0010
0000
,  // measure 10
0100
0010
0100
0010
,  // measure 11
0002
1000
1003
0000
,  // measure 12
0001
0010
0001
0000
0100
0010
0100
0000
,  // measure 13
0002
0000
0010
0010
0013
0000
0011
0000
,  // measure 14
1000
0010
1000
0000
0100
0010
0100
0000
,  // measure 15
0010
0001
0010
0001
0010
0000
0110
0000
,  // measure 16
0100
1000
0100
0000
1000
0010
1000
0000
,  // measure 17
0020
0001
0100
1030
,  // measure 18
0001
0010
0100
0000
1000
0001
0100
0000
,  // measure 19
0020
0000
0130
0002
0000
0013
0000
2000
,  // measure 20
0000
3010
0200
0000
0310
1000
0010
0100
,  // measure 21
0000
1001
0000
2000
0000
3010
0000
0002
,  // measure 22
0000
0013
0200
0000
0310
0001
0010
0100
,  // measure 23
0000
1001
0000
0001
0100
0010
0000
1000
,  // measure 24
0000
0000
0000
1000
0100
0010
0000
0001
,  // measure 25
0000
0000
0000
2000
0000
3100
0000
0002
,  // measure 26
0000
0103
0020
0000
0130
0001
0100
0010
,  // measure 27
0000
0002
1000
0000
1000
0000
0100
0000
,  // measure 28
0103
0020
1000
0000
1000
0000
0001
0000
,  // measure 29
0001
2030
0001
0000
0001
0000
3100
0010
,  // measure 30
0001
0000
1000
0010
0100
0001
1000
0000
0001
0000
0020
0000
0000
0000
0130
0000
,  // measure 31
0000
0000
0000
2000
0000
3100
0000
0002
,  // measure 32
0000
0103
0020
0000
0130
1000
0100
0010
,  // measure 33
0000
1001
0000
0002
0000
0103
0000
2000
,  // measure 34
0000
3100
0020
0000
0130
0001
0100
0010
,  // measure 35
0000
1001
0000
0001
0010
0100
0000
0010
,  // measure 36
0000
0000
0000
1000
0100
0010
0000
0100
,  // measure 37
0000
0000
0000
2000
0000
3010
0000
0002
,  // measure 38
0000
0000
0013
0000
0200
0000
0000
0000
0000
0000
0000
0000
0000
0300
0000
0000
;

//---------------dance-single - ----------------
#NOTEDATA:;
#CHARTNAME:;
#STEPSTYPE:dance-single;
#DESCRIPTION:;
#CHARTSTYLE:;
#DIFFICULTY:Easy;
#METER:4;
#RADARVALUES:0.180900,0.276891,0.062423,0.169434,0.000000,116.000000,7.000000,19.000000,0.000000,0.000000,0.000000,0.000000,0.000000,0.180900,0.276891,0.062423,0.169434,0.000000,116.000000,7.000000,19.000000,0.000000,0.000000,0.000000,0.000000,0.000000;
#CREDIT:;
#OFFSET:-0.338252;
#BPMS:0.000000=94.523582
,46.000000=189.047195
,48.000000=94.523003
,76.000000=47.261799
,77.500000=94.523598
,108.500000=47.261799
,123.500000=189.047195
,125.500000=94.523598
;
#STOPS:46.000000=0.634700
,77.000000=0.634700
,107.500000=0.634700
,123.500000=0.634700
;
#DELAYS:;
#WARPS:;
#TIMESIGNATURES:0.000000=4=4
;
#TICKCOUNTS:0.000000=4
;
#COMBOS:0.000000=1
;
#SPEEDS:0.000000=1.000000=0.000000=0
;
#SCROLLS:0.000000=1.000000
,153.000000=0.875000
,153.250000=0.750000
,153.500000=0.625000
,153.750000=0.500000
,154.000000=0.375000
,154.250000=0.250000
,154.500000=0.125000
,154.750000=0.062500
,155.000000=0.000000
;
#FAKES:;
#LABELS:0.000000=Song Start
;
#NOTES:
// measure 0
0000
0000
0000
0000
,  // measure 1
0000
0000
0000
0000
,  // measure 2
0000
0000
0000
0000
,  // measure 3
0000
0000
0000
0000
,  // measure 4
1000
0000
0001
0000
,  // measure 5
2000
0000
3100
0010
,  // measure 6
0001
0000
1000
0000
,  // measure 7
0002
0000
0103
0010
,  // measure 8
1000
0000
0100
0000
,  // measure 9
2000
0000
3100
0010
,  // measure 10
0001
0000
0100
0000
,  // measure 11
0002
0000
1003
0000
,  // measure 12
0001
0001
1000
1000
,  // measure 13
0020
0000
0130
0110
,  // measure 14
1000
1000
0001
0001
,  // measure 15
0020
0000
0130
0110
,  // measure 16
1000
1000
0001
0001
,  // measure 17
0200
0000
0010
0310
,  // measure 18
1000
0001
0010
0000
,  // measure 19
0200
0000
0310
0001
0000
0100
0000
0010
,  // measure 20
0000
0100
0000
0001
0000
0000
0000
1000
,  // measure 21
0000
1001
0000
1000
0000
0100
0000
0010
,  // measure 22
0000
0100
0000
1000
0000
0000
0000
0001
,  // measure 23
0000
1001
0000
0001
0000
0100
0000
1000
,  // measure 24
0000
0000
0000
1000
0000
0100
0000
0001
,  // measure 25
0000
0000
0000
1000
0000
0100
0000
0010
,  // measure 26
0000
0100
0000
1000
0000
0000
0000
1001
,  // measure 27
0000
0002
0000
2003
0000
3020
0000
0100
,  // measure 28
0100
2030
0000
3002
0000
0023
0000
0100
,  // measure 29
0100
0032
0000
2003
0000
3020
0000
0130
,  // measure 30
0100
0001
1000
0001
0000
0020
0000
0130
,  // measure 31
0000
0000
0000
1000
0000
0100
0000
0010
,  // measure 32
0000
0100
0000
1000
0000
0000
0000
0001
,  // measure 33
0000
1001
0000
0001
0000
0100
0000
0010
,  // measure 34
0000
0100
0000
0001
0000
0000
0000
1000
,  // measure 35
0000
1001
0000
0001
0000
0010
0000
1000
,  // measure 36
0000
0000
0000
1000
0000
0010
0000
0001
,  // measure 37
0000
0000
0000
1000
0000
0010
0000
0100
,  // measure 38
0000
0000
0001
0000
0000
0000
2000
0000
0000
0000
0000
0000
0000
3000
0000
0000
;

//---------------dance-single - ----------------
#NOTEDATA:;
#CHARTNAME:;
#STEPSTYPE:dance-single;
#DESCRIPTION:;
#CHARTSTYLE:;
#DIFFICULTY:Beginner;
#METER:2;
#RADARVALUES:0.132490,0.173057,0.000000,0.258610,0.000000,75.000000,0.000000,29.000000,0.000000,0.000000,0.000000,0.000000,0.000000,0.132490,0.173057,0.000000,0.258610,0.000000,75.000000,0.000000,29.000000,0.000000,0.000000,0.000000,0.000000,0.000000;
#CREDIT:;
#OFFSET:-0.338252;
#BPMS:0.000000=94.523582
,46.000000=189.047195
,48.000000=94.523003
,76.000000=47.261799
,77.500000=94.523598
,108.500000=47.261799
,123.500000=189.047195
,125.500000=94.523598
;
#STOPS:46.000000=0.634700
,77.000000=0.634700
,107.500000=0.634700
,123.500000=0.634700
;
#DELAYS:;
#WARPS:;
#TIMESIGNATURES:0.000000=4=4
;
#TICKCOUNTS:0.000000=4
;
#COMBOS:0.000000=1
;
#SPEEDS:0.000000=1.000000=0.000000=0
;
#SCROLLS:0.000000=1.000000
,153.000000=0.875000
,153.250000=0.750000
,153.500000=0.625000
,153.750000=0.500000
,154.000000=0.375000
,154.250000=0.250000
,154.500000=0.125000
,154.750000=0.062500
,155.000000=0.000000
;
#FAKES:;
#LABELS:0.000000=Song Start
;
#NOTES:
// measure 0
0000
0000
0000
0000
,  // measure 1
0000
0000
0000
0000
,  // measure 2
0000
0000
0000
0000
,  // measure 3
0000
0000
0000
0000
,  // measure 4
1000
0000
0001
0000
,  // measure 5
1000
0000
0000
0000
,  // measure 6
0100
0000
0010
0000
,  // measure 7
0100
0000
0000
0000
,  // measure 8
1000
0000
0010
0000
,  // measure 9
1000
0000
0000
0000
,  // measure 10
0001
0000
0010
0000
,  // measure 11
0001
0000
0000
0000
,  // measure 12
0100
0000
0100
0000
,  // measure 13
0020
0000
0030
0000
,  // measure 14
1000
0000
1000
0000
,  // measure 15
0002
0000
0003
0000
,  // measure 16
0010
0000
0010
0000
,  // measure 17
0200
0000
0300
0000
,  // measure 18
1000
0000
0001
0000
,  // measure 19
2000
0000
3001
0020
0000
0030
0000
0200
,  // measure 20
0000
0300
0000
2000
0000
3000
0000
0001
,  // measure 21
0000
1000
0000
0002
0000
0003
0000
0200
,  // measure 22
0000
0300
0000
0020
0000
0030
0000
1000
,  // measure 23
0000
0001
0000
1000
0000
1000
0000
1000
,  // measure 24
0000
0000
0000
0001
0000
0001
0000
0001
,  // measure 25
0000
0000
0000
0020
0000
0030
0000
0002
,  // measure 26
0000
0003
0000
2000
0000
3000
0000
0010
,  // measure 27
0000
0200
0000
0000
0300
0002
0000
0000
,  // measure 28
0003
2000
0000
0000
3000
0200
0000
0000
,  // measure 29
0300
2000
0000
0000
3000
0002
0000
0000
,  // measure 30
0003
0100
0100
0100
0000
0002
0000
1003
,  // measure 31
0000
0000
0000
0002
0000
0003
0000
2000
,  // measure 32
0000
3000
0000
0200
0000
0300
0000
1000
,  // measure 33
0000
0001
0000
2000
0000
3000
0000
0002
,  // measure 34
0000
0003
0000
0200
0000
0300
0000
0010
,  // measure 35
0000
0010
0000
1000
0000
1000
0000
1000
,  // measure 36
0000
0000
0000
0001
0000
0001
0000
0001
,  // measure 37
0000
0000
0000
2000
0000
3000
0000
0002
,  // measure 38
0000
0000
0003
0000
0000
0000
0020
0000
0000
0000
0000
0000
0000
0030
0000
0000
;
