#TITLE:↓エイリアンガール・イン・ニューヨーク↑;
#SUBTITLE:(SS 2016 Edition);
#ARTIST:虹のコンキスタドール;
#TITLETRANSLIT:Alien Girl in New York;
#SUBTITLETRANSLIT:;
#ARTISTTRANSLIT:Niji No Conquistador;
#GENRE:;
#CREDIT:;
#BANNER:;
#BACKGROUND:;
#LYRICSPATH:;
#CDTITLE:;
#MUSIC:Alien Girl In New York (SS 2016 edition).ogg;
#OFFSET:0.012556;
#SAMPLESTART:61.639999;
#SAMPLELENGTH:14.741379;
#SELECTABLE:YES;
#BPMS:0.000000=145.000000
;
#STOPS:
;
#BGCHANGES:0.250=Alien Girl in New York.mp4=1.000=0=0=1=====,
99999=-nosongbg-=1.000=0=0=0 // don't automatically add -songbackground-
;
#KEYSOUNDS:;
#ATTACKS:;

//---------------dance-single - ----------------
#NOTES:
     dance-single:
     :
     Hard:
     13:
     0.545911,0.651088,0.271877,0.211460,0.203907,506.000000,470.000000,36.000000,28.000000,0.000000,0.000000,0.545911,0.651088,0.271877,0.211460,0.203907,506.000000,470.000000,36.000000,28.000000,0.000000,0.000000:
// measure 0
0000
0000
0000
0000
,  // measure 1
0000
0000
0000
0000
,  // measure 2
0000
0000
0000
0000
,  // measure 3
0000
0000
0000
0000
,  // measure 4
0000
0000
0000
0000
,  // measure 5
0000
0000
0000
0000
,  // measure 6
0000
0000
0000
0000
,  // measure 7
0002
0000
1003
0001
0100
0001
0010
0100
,  // measure 8
2000
0000
3001
0200
0000
0320
0000
1030
,  // measure 9
0000
0000
0001
0000
0010
0000
0001
0000
0100
0000
0000
0010
0000
0000
1000
0000
,  // measure 10
0000
0000
0100
0000
0010
0000
0100
0000
1000
0000
0000
0010
0000
0000
0100
0001
,  // measure 11
1000
0000
0010
0000
1000
0001
0000
0010
0000
0000
0100
0000
0010
0000
0001
0000
,  // measure 12
0100
0000
1000
0100
0000
0001
1000
0100
,  // measure 13
0000
0000
0010
0000
0001
0010
0000
0001
0000
0000
0100
0000
0010
0000
0100
0000
,  // measure 14
0001
0000
0010
1000
0000
0010
0001
0100
,  // measure 15
0000
0000
0001
0000
1000
0010
0000
0100
0000
0000
0010
0000
1000
0000
0100
0000
,  // measure 16
0010
0000
0001
0100
0000
1000
0100
0020
,  // measure 17
0000
1030
0100
1000
0001
0010
0100
0020
,  // measure 18
0000
0031
0100
0010
1000
1000
0000
0000
,  // measure 19
1001
0000
1000
0000
0001
0100
0000
0020
0000
0000
1030
0000
0100
0000
0010
0000
,  // measure 20
0001
0000
0010
1000
0000
0010
0001
1000
,  // measure 21
0000
0000
0001
0000
0100
0010
0000
1000
0000
0000
0001
0000
0010
0000
0100
0000
,  // measure 22
1000
0000
0010
0001
0000
0010
1000
0001
,  // measure 23
0000
0000
0010
0000
0100
1000
0000
0100
0000
0000
0010
0000
0001
0000
1000
0000
,  // measure 24
0100
0000
0001
0100
0000
1000
0010
0100
,  // measure 25
0000
0001
1000
0010
0000
0100
0001
0010
,  // measure 26
0000
0000
0200
0000
0000
0000
1300
0100
1000
0000
0001
0020
0000
0000
0130
0000
,  // measure 27
0000
0000
0010
0001
0100
0000
0000
0000
0010
0000
1000
0000
0010
0000
1000
0000
,  // measure 28
0002
0000
0000
0000
0010
0000
0000
0000
1000
0000
0000
0000
0103
0000
0010
1000
,  // measure 29
0001
0000
0000
0010
0000
0000
1000
0000
0000
0000
0010
0000
0100
0000
1000
0000
,  // measure 30
0020
0000
0000
0000
0001
0000
0000
0000
1000
0000
0000
0000
0130
0000
0010
1000
,  // measure 31
0001
0000
0010
0000
0100
0000
0010
0001
0100
0000
0000
0000
1001
0000
0000
0000
,  // measure 32
2000
0000
0000
0000
0010
0000
0000
0000
0001
0000
0000
0000
3100
0000
0010
0001
,  // measure 33
1000
0000
0000
0010
0000
0000
0001
0000
0000
0000
0010
0000
1000
0000
0100
0000
,  // measure 34
0010
0000
0100
1000
0100
0000
1000
0000
0100
0000
0010
0000
0001
0000
0100
0000
,  // measure 35
0010
0000
1000
0000
0010
0000
0100
0001
0100
0000
0010
0000
1000
0000
0001
0000
,  // measure 36
0020
0000
0100
0000
1000
0000
0031
0100
,  // measure 37
0000
1010
1010
0000
0101
0101
0000
1001
,  // measure 38
0000
0000
0001
0000
1000
0000
1000
0100
0001
0000
0100
0000
1000
0000
0010
0000
,  // measure 39
0000
0000
1000
0001
0100
0000
1000
0000
0100
0000
0100
0000
0001
0000
0010
0000
,  // measure 40
0000
0100
1000
0001
0010
1000
0010
0001
,  // measure 41
0000
1100
0000
0010
0000
0101
0000
1001
,  // measure 42
0000
0000
1000
0010
1000
0000
0001
0000
0010
0000
1000
0000
0010
0000
0001
0000
,  // measure 43
0000
0000
0001
0100
0001
0000
1000
0000
0010
0000
0001
0000
0010
0000
1000
0000
,  // measure 44
0000
0000
1000
0000
0100
0000
0001
0100
1000
0000
0010
0000
0000
0000
0200
0000
,  // measure 45
0000
0301
1000
0000
1010
0110
0000
2001
,  // measure 46
0000
0000
3001
0010
0001
0000
1000
0000
0010
0000
0001
0000
0010
0000
1000
0000
,  // measure 47
0000
0000
1000
0100
1000
0000
0001
0000
0010
0000
1000
0000
0010
0000
0001
0000
,  // measure 48
0000
0001
0100
1000
0100
0001
1000
0010
,  // measure 49
0000
0101
0000
0010
0000
1100
0000
1001
,  // measure 50
0000
1000
1000
0001
0010
1000
0010
0001
,  // measure 51
0000
0000
0001
0000
1000
0000
1000
0010
0001
0000
0010
0000
1000
0000
0001
0000
,  // measure 52
0000
1000
0100
0001
0100
1000
0000
0020
,  // measure 53
0000
0130
0001
0100
0020
0000
0030
0000
,  // measure 54
1000
0000
0000
0100
0000
0000
0010
0000
0000
0000
1001
0000
1001
0000
0000
0000
,  // measure 55
0001
0000
0000
0100
0000
0000
0010
0000
0000
0000
1001
0000
1001
0000
0000
0000
,  // measure 56
1000
0000
0000
0100
0000
0000
0010
0000
0000
0000
1001
0000
1001
0000
0000
0000
,  // measure 57
0011
0000
0000
1100
0000
0000
0202
0000
0000
0000
0000
0000
0000
0000
0000
0000
,  // measure 58
0000
0000
0000
0303
,  // measure 59
0101
0000
1001
0000
0000
0000
0110
0000
0000
0000
1000
0010
1000
0000
0001
0000
,  // measure 60
0010
1000
0010
0002
0000
0103
0001
1000
,  // measure 61
0010
0000
1000
0000
0100
0000
1000
0000
0001
0000
0010
0000
0100
0000
0010
0001
,  // measure 62
2000
0000
3010
0100
1000
0100
0001
0010
,  // measure 63
1000
0000
0010
0100
1000
0000
0001
0000
0000
0000
0001
0000
1000
0000
0010
0000
,  // measure 64
0001
0010
1000
0002
0000
0013
0100
1000
,  // measure 65
0000
0000
0010
0000
1000
0000
0100
0000
1000
0000
0001
0000
0010
0000
0100
0010
,  // measure 66
0100
0000
0100
0000
0010
0000
0001
0000
1000
0000
0010
0100
0010
1000
0001
0000
,  // measure 67
0010
0000
0110
0000
0000
0000
1100
0000
0000
0000
1000
0100
1000
0000
0001
0000
,  // measure 68
0010
1000
0010
0002
0000
0103
0010
2000
,  // measure 69
0000
0000
3001
0000
0010
0000
0100
0000
0000
0000
1000
0000
0010
0000
1000
0100
,  // measure 70
1000
0010
0100
0001
0010
1000
0010
0001
,  // measure 71
0100
0000
1000
0100
0010
0000
1000
0000
0000
0000
0010
0000
1000
0000
0100
0000
,  // measure 72
0001
0100
1000
0020
0000
0130
0001
0010
,  // measure 73
0000
0000
0001
0000
0100
0000
0010
1000
0020
0000
0000
0000
0130
0000
0001
0000
,  // measure 74
0010
0000
0010
0000
0100
0000
1000
0000
0010
0000
1000
0100
1000
0001
1000
0000
,  // measure 75
0100
0000
0110
0000
0000
0000
0011
0000
0000
0000
0001
1000
0001
0100
0001
0000
,  // measure 76
0100
0000
0110
0000
0000
0000
1010
0000
0000
0000
1000
0001
1000
0100
0010
0000
,  // measure 77
0001
1001
0000
0220
0000
0000
0000
0000
,  // measure 78
0000
0000
0000
0330
0000
0000
0000
0000
;

//---------------dance-single - ----------------
#NOTES:
     dance-single:
     :
     Medium:
     10:
     0.366818,0.443924,0.037761,0.098178,0.015104,340.000000,335.000000,5.000000,13.000000,0.000000,0.000000,0.366818,0.443924,0.037761,0.098178,0.015104,340.000000,335.000000,5.000000,13.000000,0.000000,0.000000:
// measure 0
0000
0000
0000
0000
,  // measure 1
0000
0000
0000
0000
,  // measure 2
0000
0000
0000
0000
,  // measure 3
0000
0000
0000
0000
,  // measure 4
0000
0000
0000
0000
,  // measure 5
0000
0000
0000
0000
,  // measure 6
0000
0000
0000
0000
,  // measure 7
0001
0000
0010
0000
0100
1000
0010
0000
,  // measure 8
1000
0000
0010
0000
0100
0001
0010
0000
,  // measure 9
0001
0010
0100
0000
1000
0100
0010
0000
,  // measure 10
0001
0100
0010
0000
1000
0001
0010
0000
,  // measure 11
0100
0000
1000
0000
0001
0010
0001
0000
,  // measure 12
0010
0100
1000
0000
,  // measure 13
0001
0000
0010
0000
0001
0100
0001
0000
,  // measure 14
1000
0010
0100
0000
,  // measure 15
0001
0000
1000
0000
0001
0100
0001
0000
,  // measure 16
0010
0100
1000
0000
,  // measure 17
0001
0100
0001
0000
1000
0000
0001
0000
,  // measure 18
1000
0100
1000
0000
0001
0000
0000
0000
,  // measure 19
1001
0000
1000
0000
0001
0100
0010
0000
,  // measure 20
1000
0001
0010
0000
,  // measure 21
0100
0000
0010
0000
0001
0100
0010
0000
,  // measure 22
1000
0001
0100
0000
,  // measure 23
0001
0000
0010
0000
0100
1000
0010
0000
,  // measure 24
0100
0000
0001
0000
1000
0000
0000
0001
,  // measure 25
0000
0010
0100
1000
0000
0100
1000
0001
,  // measure 26
0000
0200
0000
0000
0000
0000
0000
0000
,  // measure 27
0000
0010
0310
0000
1000
0000
0001
0000
,  // measure 28
1000
0000
0010
0000
1000
0000
0100
1000
,  // measure 29
0100
0000
0010
0000
0001
0000
0100
0001
,  // measure 30
0100
0000
0001
0000
0100
0000
0010
1000
,  // measure 31
0010
0000
1000
0000
0100
0000
0010
0001
,  // measure 32
1000
0000
0001
0000
1000
0000
0001
0100
,  // measure 33
0010
0000
1000
0000
0010
0000
1000
0100
,  // measure 34
0010
0000
0010
0100
0010
0000
0010
0001
,  // measure 35
1000
0000
0001
0000
0100
0001
0100
0000
,  // measure 36
0010
0000
1000
0002
0000
0000
0000
0003
,  // measure 37
0000
1000
1000
0000
0001
0001
0000
1001
,  // measure 38
0000
0000
1000
0000
0100
1000
0100
1000
,  // measure 39
0000
0000
1000
0000
0001
0100
0001
0100
,  // measure 40
0000
0000
0001
0000
0001
0010
0001
0010
,  // measure 41
0000
0100
0000
1000
0000
0001
0000
1000
,  // measure 42
0000
0000
0001
0000
0100
0001
0100
0001
,  // measure 43
0000
0000
1000
0000
0100
1000
0100
1000
,  // measure 44
0000
0000
0001
0000
1000
0001
0000
0200
,  // measure 45
0000
0000
0310
0000
1000
0001
0000
1000
,  // measure 46
0000
0000
0001
0000
1000
0100
0010
0001
,  // measure 47
0000
0000
1000
0000
0001
0010
0100
1000
,  // measure 48
0000
0000
0001
0000
1000
0010
0100
0001
,  // measure 49
0000
1000
0000
0100
0000
0010
0000
0001
,  // measure 50
0000
0000
1000
0000
0001
0100
0010
1000
,  // measure 51
0000
0000
0001
0000
1000
0100
0010
0001
,  // measure 52
0000
0000
1000
0000
0001
1000
0000
0020
,  // measure 53
0000
0130
0001
0010
0100
0000
0000
0000
,  // measure 54
1000
0000
0000
0100
0000
0000
0020
0000
0000
0000
0000
0000
0031
0000
0000
0000
,  // measure 55
0001
0000
0000
0100
0000
0000
0020
0000
0000
0000
0000
0000
1030
0000
0000
0000
,  // measure 56
1000
0000
0000
0100
0000
0000
0020
0000
0000
0000
0000
0000
0031
0000
0000
0000
,  // measure 57
0002
0000
0000
0023
0000
0000
0200
0000
0000
0000
0000
0000
0000
0000
0000
0000
,  // measure 58
0000
0000
0000
0030
,  // measure 59
1300
0010
0000
1001
0000
0100
0001
0000
,  // measure 60
0010
0100
0010
0100
0000
1000
0100
0000
,  // measure 61
1000
0001
0100
0000
0010
1000
0100
0010
,  // measure 62
0001
0000
1000
0001
0000
0100
0000
0010
,  // measure 63
0000
1000
0001
1000
0000
0001
0010
0000
,  // measure 64
0100
1000
0100
0010
0000
0001
0100
0001
,  // measure 65
0000
1000
0001
0000
0100
0000
0010
1000
,  // measure 66
0010
0100
0010
0000
1000
0100
1000
0001
,  // measure 67
0010
0100
0000
0110
0000
1000
0001
0000
,  // measure 68
0100
0010
1000
0001
0000
0010
0100
0010
,  // measure 69
0000
0001
0100
0000
0010
0000
1000
0000
,  // measure 70
0001
0010
0000
0100
0000
1000
0000
0010
,  // measure 71
0000
1000
0100
0010
0000
0001
0100
0000
,  // measure 72
0010
1000
0001
1000
0000
0001
0100
0001
,  // measure 73
0000
0010
0000
0100
2000
0000
3010
1000
,  // measure 74
0100
1000
0000
0001
0000
0010
0100
0010
,  // measure 75
0001
0100
0000
0010
0000
1000
0100
0010
,  // measure 76
0100
1000
0000
0001
0000
0100
0010
0100
,  // measure 77
0001
0010
0000
0220
0000
0000
0000
0000
,  // measure 78
0000
0000
0000
0330
0000
0000
0000
0000
;

//---------------dance-single - ----------------
#NOTES:
     dance-single:
     :
     Easy:
     6:
     0.251378,0.292173,0.083073,0.098178,0.000000,233.000000,222.000000,11.000000,13.000000,0.000000,0.000000,0.251378,0.292173,0.083073,0.098178,0.000000,233.000000,222.000000,11.000000,13.000000,0.000000,0.000000:
// measure 0
0000
0000
0000
0000
,  // measure 1
0000
0000
0000
0000
,  // measure 2
0000
0000
0000
0000
,  // measure 3
0000
0000
0000
0000
,  // measure 4
0000
0000
0000
0000
,  // measure 5
0000
0000
0000
0000
,  // measure 6
0000
0000
0000
0000
,  // measure 7
0002
0010
1003
0000
,  // measure 8
1000
0010
1000
0000
,  // measure 9
0001
0100
0001
1000
,  // measure 10
0001
0010
0001
0000
,  // measure 11
1000
0000
0100
0000
,  // measure 12
0010
0100
1000
0000
,  // measure 13
0001
0000
0100
0000
,  // measure 14
0010
0100
0001
0000
,  // measure 15
0010
0000
0100
0000
,  // measure 16
1000
0100
0010
0000
,  // measure 17
0001
1000
0001
0000
,  // measure 18
0100
0010
1000
0000
,  // measure 19
0001
0000
1000
0000
,  // measure 20
0100
1000
0010
0000
,  // measure 21
1000
0000
0001
0000
,  // measure 22
0100
0001
0010
0000
,  // measure 23
0001
0000
0010
0000
,  // measure 24
0100
1000
0010
0000
,  // measure 25
0110
0000
1001
0000
,  // measure 26
0220
0000
0000
0330
,  // measure 27
0000
0000
1000
0001
,  // measure 28
2000
0000
0010
0000
,  // measure 29
3100
0000
0100
0010
,  // measure 30
0002
0000
0010
0000
,  // measure 31
0100
0000
0103
0010
,  // measure 32
2000
0000
0001
0000
,  // measure 33
0100
0000
3001
0100
,  // measure 34
0001
0001
1000
1000
,  // measure 35
0100
0100
0010
0010
,  // measure 36
0001
0100
0001
1000
,  // measure 37
0000
0000
0001
0000
1000
0000
0000
0001
,  // measure 38
0000
1000
0100
1000
,  // measure 39
0000
0001
0100
0001
,  // measure 40
0000
0000
1000
0000
0010
0000
1000
0001
,  // measure 41
0000
0001
0000
1000
0000
1000
0000
0001
,  // measure 42
0000
1000
0010
0100
,  // measure 43
0000
0001
0010
0100
,  // measure 44
0000
0000
1000
0000
0001
0001
0000
2000
,  // measure 45
0000
0000
0000
0000
3001
0000
0000
1001
,  // measure 46
0000
1000
0001
0100
,  // measure 47
0000
0001
1000
0100
,  // measure 48
0000
0000
1000
0000
0001
0000
0010
0001
,  // measure 49
0000
0001
0000
1000
0000
0001
0000
1001
,  // measure 50
0000
1000
0001
0100
,  // measure 51
0000
0001
0010
0100
,  // measure 52
0000
0000
1000
0000
0001
0100
0000
0002
,  // measure 53
0000
1003
1001
0000
,  // measure 54
2000
0000
0000
3010
0000
0000
0101
0000
,  // measure 55
0002
0000
0000
0013
0000
0000
1100
0000
,  // measure 56
2000
0000
0000
3010
0000
0000
0101
0000
,  // measure 57
0001
0000
0000
2002
0000
0000
0000
0000
,  // measure 58
3003
0000
0000
0000
,  // measure 59
1000
0001
0000
1000
0000
0000
0001
0000
,  // measure 60
0100
0000
0001
1000
0000
0000
0100
0000
,  // measure 61
1000
0100
0010
0001
,  // measure 62
0100
0001
1000
0010
,  // measure 63
0100
0000
0001
1000
0000
0000
0001
0000
,  // measure 64
0100
0000
0001
1000
0000
0000
0001
0000
,  // measure 65
0010
0100
1000
0010
,  // measure 66
1000
0100
1000
0001
,  // measure 67
0010
0100
0000
0010
0000
0000
0001
0000
,  // measure 68
0100
0001
1000
0010
,  // measure 69
1000
1000
0001
0001
,  // measure 70
0010
0001
0100
0010
,  // measure 71
1000
0000
0001
1000
0000
0000
0001
0000
,  // measure 72
0010
0000
0100
0010
0000
0000
0001
0000
,  // measure 73
0100
0001
1000
0100
,  // measure 74
1000
0100
0010
0001
,  // measure 75
0010
0001
0000
0100
0000
0000
0001
0000
,  // measure 76
0100
0010
0000
1000
0000
0000
0001
0000
,  // measure 77
1000
0100
0000
0110
0000
0000
0000
0000
;

//---------------dance-single - ----------------
#NOTES:
     dance-single:
     :
     Beginner:
     3:
     0.116519,0.175587,0.015104,0.007552,0.000000,108.000000,106.000000,2.000000,1.000000,0.000000,0.000000,0.116519,0.175587,0.015104,0.007552,0.000000,108.000000,106.000000,2.000000,1.000000,0.000000,0.000000:
// measure 0
0000
0000
0000
0000
,  // measure 1
0000
0000
0000
0000
,  // measure 2
0000
0000
0000
0000
,  // measure 3
0000
0000
0000
0000
,  // measure 4
0000
0000
0000
0000
,  // measure 5
0000
0000
0000
0000
,  // measure 6
0000
0000
0000
0000
,  // measure 7
0001
0000
1000
0000
,  // measure 8
0001
0000
0000
0000
,  // measure 9
1000
0000
0001
0000
,  // measure 10
0010
0000
0000
0000
,  // measure 11
0100
0000
0000
0000
,  // measure 12
1000
0000
0000
0000
,  // measure 13
0001
0000
0000
0000
,  // measure 14
0100
0000
0001
0000
,  // measure 15
0100
0000
0000
0000
,  // measure 16
0010
0000
0000
0000
,  // measure 17
1000
0000
0001
0000
,  // measure 18
1000
0000
0001
0000
,  // measure 19
1000
0000
0000
0000
,  // measure 20
0100
0000
0000
0000
,  // measure 21
1000
0000
0000
0000
,  // measure 22
0001
0000
0100
0000
,  // measure 23
0001
0000
0000
0000
,  // measure 24
0010
0000
0000
0000
,  // measure 25
0100
0000
1000
0000
,  // measure 26
0100
0000
0000
0000
,  // measure 27
0000
0000
0000
0000
,  // measure 28
1000
0000
0000
0000
,  // measure 29
0001
0000
0000
0000
,  // measure 30
0100
0000
0001
0000
,  // measure 31
0100
0000
0000
0000
,  // measure 32
0010
0000
0000
0000
,  // measure 33
1000
0000
0000
0000
,  // measure 34
0001
0000
1000
0000
,  // measure 35
0001
0000
1000
0000
,  // measure 36
0002
0000
0000
0000
,  // measure 37
0003
0000
0000
0000
,  // measure 38
0000
1000
0000
0001
,  // measure 39
0000
1000
0000
0001
,  // measure 40
0000
1000
0000
0001
,  // measure 41
0000
0000
0000
0000
,  // measure 42
0000
0001
0000
0010
,  // measure 43
0000
0001
0000
0010
,  // measure 44
0000
0001
0000
0010
,  // measure 45
0000
0000
0100
0000
,  // measure 46
0000
1000
0000
0100
,  // measure 47
0000
1000
0000
0100
,  // measure 48
0000
1000
0000
0100
,  // measure 49
0000
0000
0000
0000
,  // measure 50
0000
1000
0000
0010
,  // measure 51
0000
1000
0000
0010
,  // measure 52
0000
1000
0000
0010
,  // measure 53
0000
0000
0110
0000
,  // measure 54
0000
0000
0000
0001
,  // measure 55
0000
0000
0000
1000
,  // measure 56
0000
0000
0000
0001
,  // measure 57
1000
0000
0000
0000
,  // measure 58
0000
0000
0000
0000
,  // measure 59
0000
0000
0000
1000
,  // measure 60
0000
0001
0000
0100
,  // measure 61
0000
0001
0000
0010
,  // measure 62
0000
0100
0000
1000
,  // measure 63
0000
0010
0000
0100
,  // measure 64
0000
0001
0000
1000
,  // measure 65
0000
0001
0000
0010
,  // measure 66
0000
0100
0000
1000
,  // measure 67
0000
0001
0000
0100
,  // measure 68
0000
0001
0000
1000
,  // measure 69
0000
0001
0000
0010
,  // measure 70
0000
0100
0000
0010
,  // measure 71
0000
0001
0000
1000
,  // measure 72
0000
0001
0000
1000
,  // measure 73
0000
0010
0000
0100
,  // measure 74
0000
0010
0000
1000
,  // measure 75
0001
0000
0000
1000
,  // measure 76
0001
0000
0000
1000
,  // measure 77
0001
0000
1001
0000
;
