#TITLE:Over The "Period";
#SUBTITLE:;
#ARTIST:TAG underground overlay;
#TITLETRANSLIT:;
#SUBTITLETRANSLIT:;
#ARTISTTRANSLIT:;
#GENRE:;
#CREDIT:;
#BANNER:Over The Period.png;
#BACKGROUND:Over The Period-bg.png;
#LYRICSPATH:;
#CDTITLE:./CDTitles/DanceDanceRevolution 2014.png;
#MUSIC:[DDR Edit] - Over The Period.ogg;
#OFFSET:0.000000;
#SAMPLESTART:23.291000;
#SAMPLELENGTH:15.000000;
#SELECTABLE:YES;
#DISPLAYBPM:23.000000:840.000000;
#BPMS:0.000000=32.500000
,7.000000=30.000000
,8.000000=27.273001
,9.000000=25.000000
,10.000000=23.275999
,11.000000=200.000000
,75.000000=160.000000
,107.000000=80.000000
,107.500000=160.000000
,108.000000=320.000000
,110.000000=160.000000
,110.500000=80.000000
,111.500000=160.000000
,112.000000=320.000000
,114.000000=160.000000
,114.500000=80.000000
,115.500000=160.000000
,116.000000=320.000000
,118.000000=160.000000
,118.500000=80.000000
,119.500000=160.000000
,120.000000=320.000000
,122.000000=160.000000
,122.500000=80.000000
,123.500000=160.000000
,124.000000=320.000000
,126.000000=160.000000
,126.500000=80.000000
,127.500000=160.000000
,128.000000=320.000000
,130.000000=160.000000
,130.500000=80.000000
,131.500000=160.000000
,132.000000=320.000000
,134.000000=160.000000
,134.500000=80.000000
,135.500000=160.000000
,136.000000=320.000000
,138.000000=160.000000
,138.500000=80.000000
,139.000000=160.000000
,171.000000=105.000000
,173.000000=210.000000
,175.000000=420.000000
,179.000000=210.000000
,241.000000=420.000000
,321.000000=52.500000
,322.000000=105.000000
,324.000000=210.000000
,328.000000=420.000000
,336.000000=840.000000
,352.000000=420.000000
;
#STOPS:10.937500=1.267000,
239.000000=0.095000,
239.333328=0.095000,
239.666672=0.095000,
240.000000=0.095000,
240.333328=0.095000,
240.666672=0.095000
;
#BGCHANGES:;
#KEYSOUNDS:;
#ATTACKS:;

//---------------dance-single - ----------------
#NOTES:
     dance-single:
     :
     Beginner:
     8:
     0.331660,0.503896,0.073058,0.365289,0.000000,232.000000,9.000000,45.000000,0.000000,0.000000,0.000000,0.331660,0.503896,0.073058,0.365289,0.000000,232.000000,9.000000,45.000000,0.000000,0.000000,0.000000:
// measure 0
0000
0001
0010
0100
,  // measure 1
1000
0001
0100
0020
,  // measure 2
2030
0000
0000
0000
0000
0000
0000
0000
3002
0000
0000
0000
0000
0000
0000
0000
2003
0000
0000
0000
0000
0000
0000
3000
0001
0000
0000
0000
0000
0000
0000
0000
,  // measure 3
0001
0000
0000
0100
,  // measure 4
0100
0000
0000
0001
,  // measure 5
0001
0000
0000
0010
,  // measure 6
0010
0000
0000
0100
,  // measure 7
0010
1000
0100
0010
,  // measure 8
0001
0100
1000
1000
,  // measure 9
0010
0001
0010
2000
,  // measure 10
0000
3000
1001
0100
,  // measure 11
0010
1000
0100
0001
,  // measure 12
0010
0100
1000
0100
,  // measure 13
1000
0010
0010
1000
,  // measure 14
1000
0001
0001
1000
,  // measure 15
0100
1000
0010
0001
,  // measure 16
0100
0001
0010
0100
,  // measure 17
0100
0010
0001
1000
,  // measure 18
0000
0001
0000
1000
,  // measure 19
0100
1000
0010
1000
,  // measure 20
0100
1000
1000
0100
,  // measure 21
0010
0001
0100
0010
,  // measure 22
0000
1000
0001
0001
,  // measure 23
0100
0001
0010
0001
,  // measure 24
0100
0001
0001
0100
,  // measure 25
0010
1000
0001
1001
,  // measure 26
0000
0001
1000
0002
,  // measure 27
0000
0003
0020
0000
0000
0030
0200
0000
,  // measure 28
0000
0300
2000
0000
0000
3000
0002
0000
,  // measure 29
0000
0003
0200
0000
0000
0300
0020
0000
,  // measure 30
0000
0030
2000
0000
0000
3000
0200
0000
,  // measure 31
0000
0300
2000
0000
0000
3000
0002
0000
,  // measure 32
0000
0003
0200
0000
0000
0300
0020
0000
,  // measure 33
0000
0030
2000
0000
0000
3000
0002
0000
,  // measure 34
0000
0003
0020
0000
0000
0030
0100
0000
,  // measure 35
0010
0001
1000
0020
,  // measure 36
0000
0200
0330
1000
,  // measure 37
0001
0010
0001
2000
,  // measure 38
0000
0020
3030
0100
,  // measure 39
0100
0010
0010
1000
,  // measure 40
0100
0010
0001
0100
,  // measure 41
0010
1000
0100
0001
,  // measure 42
0010
1000
0001
2000
,  // measure 43
0000
0000
0000
0000
,  // measure 44
0000
0000
0000
3010
,  // measure 45
0010
0000
0000
0100
,  // measure 46
0000
0100
0000
0000
0000
0000
0001
0000
,  // measure 47
0001
0000
0000
1000
,  // measure 48
0100
2000
0000
3010
,  // measure 49
0010
0000
0000
0100
,  // measure 50
0000
0100
0000
0000
0000
0000
0001
0000
,  // measure 51
0000
1000
0000
0220
,  // measure 52
0000
0000
0330
1000
,  // measure 53
0010
0001
0100
1000
,  // measure 54
0010
0100
0001
0010
,  // measure 55
0001
1000
0010
1000
,  // measure 56
1000
0001
0001
0010
,  // measure 57
0100
0001
0010
1000
,  // measure 58
0100
1000
0010
0100
,  // measure 59
0001
0010
1000
0020
,  // measure 60
0000
0130
0000
0100
,  // measure 61
0000
0010
0000
1000
,  // measure 62
0000
0100
0000
0010
,  // measure 63
0000
0001
0000
0010
,  // measure 64
0000
0001
0000
0100
,  // measure 65
0000
1000
0000
0001
,  // measure 66
0000
1000
0000
1100
,  // measure 67
0000
0001
0000
0101
,  // measure 68
0000
0001
0000
0100
,  // measure 69
0000
0010
0000
1000
,  // measure 70
0000
0001
0000
0010
,  // measure 71
0000
0100
0000
1000
,  // measure 72
0000
0001
0000
0010
,  // measure 73
0000
1000
0000
0010
,  // measure 74
0000
0002
0000
2003
,  // measure 75
0000
3002
0000
2003
,  // measure 76
0000
3020
0000
0000
,  // measure 77
0000
0000
0000
0000
,  // measure 78
0000
0230
0000
0000
,  // measure 79
0000
0000
0000
0000
,  // measure 80
0000
0300
2002
3003
,  // measure 81
0220
0000
0000
0330
,  // measure 82
2002
0000
0000
0000
,  // measure 83
0000
0000
0000
3003
,  // measure 84
0220
0000
0000
0000
,  // measure 85
0000
0000
0000
0000
,  // measure 86
0000
0000
0000
0000
,  // measure 87
0000
0000
0000
0330
,  // measure 88
1000
0000
0000
0001
,  // measure 89
0000
0000
1000
0000
,  // measure 90
0000
0001
0000
0000
,  // measure 91
0010
0000
0100
0000
,  // measure 92
0000
0000
1000
0000
,  // measure 93
0001
0001
0000
0010
,  // measure 94
0000
0000
1000
0000
,  // measure 95
0002
0000
0003
0000
;

//---------------dance-single - ----------------
#NOTES:
     dance-single:
     :
     Easy:
     12:
     0.575186,1.000000,0.357172,0.519523,0.085234,388.000000,44.000000,64.000000,0.000000,0.000000,0.000000,0.575186,1.000000,0.357172,0.519523,0.085234,388.000000,44.000000,64.000000,0.000000,0.000000,0.000000:
0000
0000
0000
0000
1000
0010
0100
0001
2000
0000
3002
0000
1003
0100
0010
0001
,
2000
0000
0000
0000
3002
0000
0000
0000
1003
0000
0100
0000
0001
0000
0010
0000
2000
0000
0000
0000
3002
0000
0013
0100
2000
0000
0000
0000
0000
0000
0000
0000
,
0002
0000
0000
0000
3000
0000
0100
0000
0200
0000
0000
0000
0003
0000
0000
0000
0020
0000
0000
0000
0000
0000
0000
0330
1000
0000
0000
0000
0001
0000
0000
0000
,
1000
0000
0000
0001
0000
0001
0010
0000
,
0010
0100
0000
0100
0000
0100
1000
0001
,
1000
0000
0000
0010
0000
0010
0100
0000
,
0100
0001
0000
0001
0000
0001
0010
0001
,
0100
0000
0001
0100
0010
0000
0100
0010
,
1000
0000
0010
1000
0001
0000
0001
0010
,
0100
0010
0001
0100
0010
1000
0002
0000
,
0000
0003
1001
0010
,
0100
0000
0001
0100
0010
0000
1000
0001
,
0100
0000
0010
1000
0001
0000
0010
0000
,
0001
0000
0100
0010
0100
0000
0101
0000
,
1100
0011
1010
0001
,
0010
0000
0001
0010
0100
0000
1000
0001
,
0010
0000
1000
0001
0100
0000
0010
0000
,
0010
0000
0000
0000
0000
0000
0100
0000
0000
0010
0000
0000
1000
0000
0000
0000
0000
0000
0001
0000
0000
0000
0001
0000
,
0000
0000
0001
0000
0000
0000
1000
0000
0000
0000
1000
0000
0000
0000
1000
0000
0000
0000
0001
0000
0000
0100
0000
0000
,
0010
1000
0001
0010
0100
1000
0001
0100
,
0010
1000
0001
1000
0001
1000
0010
1000
,
0010
0000
0100
0000
0001
0000
1000
0000
0100
0000
0010
0000
0011
0000
0000
1100
,
0000
0101
0001
0000
1000
0000
1000
0100
,
0010
0001
1000
0010
0100
0001
1000
0100
,
0010
0001
1000
0001
1000
0001
0010
0001
,
0010
0000
0100
0000
1000
0000
0001
0000
0100
0000
0010
0000
1010
0000
0000
0101
,
0000
1100
1000
0000
0001
0000
2002
0000
,
0000
3003
2200
0000
0000
3300
0022
0000
,
0000
0033
2200
0000
0000
3300
2020
0000
,
0000
3030
0220
0000
0000
0330
0202
0000
,
0000
0303
0022
0000
0000
0033
0220
0000
,
0000
0330
2002
0000
0000
3003
2020
0000
,
0000
3030
0220
0000
0000
0330
0022
0000
,
0000
0033
2200
0000
0000
3300
2020
0000
,
0000
3030
0220
0000
0000
0330
0001
0000
,
0100
0000
1000
0010
0001
0000
1200
0000
,
0010
0001
0310
0001
,
1000
0000
0001
0100
1000
0000
0201
0000
,
0010
0000
1000
0000
0310
0000
0100
0001
,
0100
0000
0010
1000
0100
0000
0010
0100
,
0010
0000
0001
1000
0100
0000
0010
0001
,
0100
0010
1000
0100
0010
0100
1000
0001
,
0100
0010
0100
0001
1000
0100
2000
0000
,
0000
0000
0000
0000
,
0000
0000
0000
0000
0000
0000
3001
0010
,
0100
0000
0000
0010
0000
0010
0100
0000
,
1000
0100
0000
0001
0100
1000
0010
0100
,
0010
0000
0000
0000
0000
0000
0100
0000
0000
0000
0100
0000
0010
0000
0000
1000
,
0001
0000
0000
0100
0002
0000
0000
0000
0000
0000
0000
0000
0103
0000
0010
0000
,
0100
0000
0000
0010
0000
0010
1000
0000
,
0001
1000
0000
0100
1000
0000
0010
1000
,
0001
0000
0010
0001
1000
0000
0220
0000
,
0000
0330
1001
0010
,
0100
0000
1000
0100
0010
0000
0001
1000
,
0100
0000
0010
0001
1000
0000
0010
0000
,
1000
0000
0100
0010
0100
0000
1100
0000
,
0101
1010
0011
1000
,
0010
0000
1000
0010
0100
0000
0001
1000
,
0010
0000
0001
1000
0100
0000
0010
0000
,
0010
0000
0000
0000
0000
0000
0100
0000
0000
0010
0000
0000
0001
0000
0000
0000
0000
0000
0100
0000
0100
0000
0100
0000
,
0010
0010
0010
1000
0000
0000
0000
0000
0000
0010
0000
0000
,
0000
0100
0001
1000
,
0001
0010
0000
0100
,
0000
0010
0001
0100
,
0010
1000
0000
0010
,
0000
0001
0100
1000
,
0000
0011
0000
0101
,
0000
1100
0000
1010
,
0000
1000
0001
0010
,
0001
0100
0010
1000
,
0010
1000
0100
0010
,
0001
0010
0100
1000
,
0010
1000
0100
0010
,
0001
0100
0001
1000
,
0001
2000
0000
0002
,
3000
2000
0003
0002
,
3000
0200
0000
0000
,
0000
0000
0000
0000
,
0003
0020
0000
0000
,
0000
0000
0000
0000
,
0330
0000
0202
0303
,
2020
0000
0000
3030
,
0022
0000
0000
0000
,
0000
0000
0000
0033
,
2200
0000
0000
0000
,
0000
0000
0000
0000
,
0000
0000
0000
0000
,
0000
0000
0000
3300
,
0001
0010
0000
1000
,
0010
0000
0001
0010
,
0000
1000
0010
0000
,
0001
1000
0100
0010
,
0000
0001
0010
0100
,
1000
0001
0000
0110
,
0000
0001
0100
0010
,
2000
0000
3000
0000
;

//---------------dance-single - ----------------
#NOTES:
     dance-single:
     :
     Medium:
     15:
     0.317744,0.383402,0.162351,0.178586,0.215115,232.000000,20.000000,22.000000,0.000000,0.000000,0.000000,0.317744,0.383402,0.162351,0.178586,0.215115,232.000000,20.000000,22.000000,0.000000,0.000000,0.000000:
0000
0000
0000
0000
0001
0010
0100
1000
0002
0000
2003
0000
3001
0100
0010
1000
,
0002
0000
0000
0000
2003
0000
0000
0000
3001
0000
0100
0000
1000
0000
0010
0000
0002
0000
0000
0000
2003
0000
3010
0100
0002
0000
0000
0000
0000
0000
0000
0000
,
2000
0000
0000
0000
0003
0000
0100
0000
0200
0000
0000
0000
3000
0000
0000
0000
0020
0000
0000
0000
0000
0000
0000
0330
0001
0000
1000
0000
0001
0000
1000
0000
,
0001
0000
0000
1000
0000
1100
0001
0000
,
0101
0000
0001
0000
0000
0000
0011
0000
0000
0000
1010
0000
1000
0001
1000
0001
,
1000
0000
0000
0001
0000
0101
1000
0000
,
1100
1000
0000
1010
0000
0011
1000
0010
,
0100
0001
1000
0100
0010
0001
1000
0001
,
1000
0010
0100
0001
0010
0100
1000
0001
,
0010
0100
0010
0000
0001
0000
0100
0000
0010
0100
0010
0000
2000
0000
0000
0000
,
0000
0000
3000
0000
1001
0000
0010
0001
,
0100
0000
1000
0000
0100
0000
0001
0000
1000
0000
0010
0100
0001
0000
1000
0000
,
0100
0010
0001
0001
1000
1000
0010
0100
,
1000
0000
0100
0000
0001
1000
0001
1000
0001
0000
1100
0000
0000
0000
0101
0000
,
0000
1010
0000
0011
0110
1000
0000
0010
,
1000
0000
0001
0000
1000
0000
0010
0000
0100
0000
1000
0100
0010
0000
0001
0000
,
0010
1000
0001
0001
1000
1000
0001
0010
,
0100
0000
0000
0000
0000
0000
0010
0000
0000
0000
0000
0000
0001
0000
0000
0010
0000
0000
0001
0000
0000
0010
0000
0000
0001
0000
0000
0000
0000
0000
1000
0000
0000
0000
0000
0000
0100
0000
0000
0000
0000
0000
0000
0000
0100
0000
0000
0000
,
0000
0000
0010
0000
0000
0000
0001
0000
0000
0000
0100
0000
0000
0000
0010
0000
0000
0000
1000
0000
0000
0100
0000
0000
,
0010
0000
0001
0000
1000
0010
1000
0010
0100
0001
0100
0001
1000
0000
0100
0000
,
0010
0000
0001
0000
1000
0001
1000
0001
0100
0010
0100
0010
1000
0000
0001
0000
,
0010
0000
0100
0000
1000
0001
1000
0001
0010
0100
0010
0100
2000
0000
3002
0100
,
0000
0103
0010
0000
1000
0000
0000
0000
1001
0000
0000
0000
0001
0000
0100
0000
,
0010
0000
1000
0000
0001
0010
0001
0010
0100
1000
0100
1000
0001
0000
0100
0000
,
0010
0000
1000
0000
0001
1000
0001
1000
0100
0010
0100
0010
0001
0000
1000
0000
,
0010
0000
0100
0000
0001
1000
0001
1000
0010
0100
0010
0100
0002
0000
2003
0100
,
0000
3100
0010
0000
0001
0000
0000
0000
1001
0000
0000
0000
2002
0000
0000
0000
,
0000
3003
0202
0000
0000
0303
1020
0100
,
0000
0030
0202
0000
0000
0303
0000
0000
;

//---------------dance-double - ----------------
#NOTES:
     dance-double:
     :
     Medium:
     15:
     0.032470,0.021309,0.000000,0.056823,0.032470,21.000000,0.000000,7.000000,0.000000,0.000000,0.000000,0.032470,0.021309,0.000000,0.056823,0.032470,21.000000,0.000000,7.000000,0.000000,0.000000,0.000000:
00000000
00000000
00000000
00000000
10000000
00100000
01000000
00010000
00002000
00000000
00023000
00000000
00031000
00000100
00000010
00000001
,
00002000
00000000
00000000
00000000
00003002
00000000
00000000
00000000
00000013
00000000
00001000
00000000
00010000
00000000
00100000
00000000
20000000
00000000
00000000
00000000
30020000
00000000
00130000
01000000
20000000
00000000
00000000
00000000
30000000
00000000
00000000
00000000
;

//---------------dance-single - ----------------
#NOTES:
     dance-single:
     :
     Hard:
     15:
     0.782763,1.000000,0.511405,0.405877,0.409936,562.000000,63.000000,50.000000,0.000000,0.000000,0.000000,0.782763,1.000000,0.511405,0.405877,0.409936,562.000000,63.000000,50.000000,0.000000,0.000000,0.000000:
0000
0000
0000
0000
0001
0010
0100
1000
0002
0000
2003
0000
3001
0100
0010
1000
,
0002
0000
0000
0000
2003
0000
0000
0000
3001
0000
0100
0000
1000
0000
0010
0000
0002
0000
0000
0000
2003
0000
3010
0100
0002
0000
0000
0000
0000
0000
0000
0000
,
2000
0000
0000
0000
0003
0000
0100
0000
0200
0000
0000
0000
3000
0000
0000
0000
0020
0000
0000
0000
0000
0000
0000
0330
0001
0000
1000
0000
0001
0000
1000
0000
,
0001
0000
0000
1000
0000
1100
0001
0000
,
0101
0000
0001
0000
0000
0000
0011
0000
0000
0000
1010
0000
1000
0001
1000
0001
,
1000
0000
0000
0001
0000
0101
1000
0000
,
1100
1000
0000
1010
0000
0011
1000
0010
,
0100
0001
0010
0100
1000
0010
0001
0010
,
1000
0100
0010
0001
0100
1000
0100
0001
,
0010
0000
0100
0000
1000
0000
0001
0000
1000
0001
1000
0001
2000
0000
0000
0000
,
0000
0000
3000
0000
1001
0000
0010
1000
,
0100
0000
0010
0000
0001
0000
0100
0000
0010
0000
1000
0010
1000
0000
0010
0000
,
0100
0000
0001
0000
0010
0000
0100
0000
1000
0000
0001
1000
0001
0000
0100
0000
,
0010
1000
0100
0010
0001
0100
0010
1000
,
0000
0100
0000
0010
0001
0000
1000
0100
,
0010
0000
0001
0000
0100
0000
0010
0000
1000
0000
0100
0010
0100
0000
1000
0000
,
0001
0000
0100
0000
0010
0000
1000
0000
0100
0000
0010
0001
0010
0000
0100
0000
,
1000
0000
0000
0001
0000
0000
0100
0000
0000
0010
0000
0000
1000
0000
0000
0100
0000
0000
0010
0000
0000
0000
0001
0000
,
0000
0000
0000
0000
0011
0000
0000
0000
0000
0000
0000
0000
0100
0000
0000
0000
0000
0000
0000
0000
1000
0000
0000
0000
0000
0000
0000
0000
1100
0000
0000
0000
0000
0000
0000
0000
0001
0000
0000
0100
0000
0000
0001
0000
0000
0000
0000
0000
,
0100
0010
0000
1000
0010
0000
0100
0010
0000
0100
0001
0010
0100
1000
0100
0000
,
0010
0100
0000
0010
0001
0000
0010
0100
0000
1000
0001
0100
0010
1000
0010
0000
,
0100
0010
0000
0100
0001
0000
0010
0100
0000
1000
0100
0010
0001
0000
0000
0110
,
0000
0000
1010
0000
1001
0000
0000
0000
0110
0000
0000
0000
1000
0100
1000
0000
,
0100
0010
0000
0001
0010
0000
0100
0010
0000
0100
1000
0010
0100
0001
0100
0000
,
0010
0100
0000
0010
1000
0000
0010
0100
0000
0001
1000
0100
0010
0001
0010
0000
,
0100
0010
0000
0001
1000
0000
0010
0100
0000
0001
0100
0010
1000
0000
0000
0110
,
0000
0011
1001
0000
0110
0000
2020
0030
,
0001
0000
0000
0000
3000
0000
0000
0000
0202
0000
0000
0000
0000
0000
0000
0000
0000
0000
0000
0000
0303
0000
0000
0000
0021
0000
0000
0230
0000
0000
0000
0000
,
1300
0000
2200
0000
0000
3300
0012
0000
,
0100
0000
0000
0000
0003
0000
0000
0000
0202
0000
0000
0000
0000
0000
0000
0000
0000
0000
0000
0000
0303
0000
0000
0000
1020
0000
0000
0230
0000
0000
0000
0000
,
0301
0000
0102
0000
0000
1003
1200
0000
,
0010
0000
0000
0000
0300
0000
0000
0000
0022
0000
0000
0000
0000
0000
0000
0000
0000
0000
0000
0000
0033
0000
0000
0000
0201
0000
0000
0320
0000
0000
0000
0000
,
1030
0000
2020
0000
0000
3030
1200
0000
,
0010
0000
0000
0000
0300
0000
0000
0000
0022
0000
0000
0000
0000
0000
0000
0000
0000
0000
0000
0000
0033
0000
0000
0000
0201
0000
0000
0320
0000
0000
0000
0000
,
1030
0000
0000
0000
0000
0000
0000
0000
2020
0000
0000
0000
0000
0000
0000
0000
0030
0000
0000
0000
3100
0000
1000
0100
1000
0000
0000
0000
0100
0000
1000
0000
,
0010
0000
0100
0010
0100
0000
0001
0000
1000
0000
0100
0000
0010
0000
0001
0010
,
0100
0000
1000
0100
1000
0000
0010
0000
0100
0000
0001
0000
1000
0000
0100
1000
,
0100
0000
0001
0100
0001
0000
0100
0000
0010
0000
0001
0000
0100
0000
1000
0100
,
1000
0000
0001
1000
0001
0000
0010
0000
1000
0000
0100
0000
0010
0000
0001
0000
,
0010
0001
1000
0010
1000
0010
0100
0001
,
0010
0000
0100
0000
1000
0000
0100
0000
0010
0000
0001
0000
0100
0010
0100
0000
,
0010
1000
0010
0000
1000
0001
1000
0000
0001
0010
0001
0000
0010
0100
0010
0100
,
1000
0001
1000
0001
0100
0001
0100
0010
1000
0000
0001
0000
2000
0000
0000
0000
,
0000
0000
0000
0000
,
0000
0000
0000
0000
0000
0000
0000
0000
0000
0000
0000
0000
3001
1000
0001
1000
,
0001
0000
0000
1000
0000
1100
1000
0000
,
0101
0000
0001
0000
0000
0000
1010
0000
0000
0000
1100
0000
1000
0001
1000
0001
,
1000
0000
0000
1000
0000
1100
0001
0010
,
1000
0000
0010
0000
0002
0000
0000
0000
0103
0000
0000
0000
0001
1000
0001
1000
,
0001
0000
0000
1000
0000
1010
1000
0000
,
1100
0001
0000
0101
0001
0000
1000
0100
,
0010
0000
0001
0000
0100
0000
0010
0000
1000
0001
1000
0001
2000
0000
0000
0000
,
0000
0000
3000
0000
1001
0000
0010
0001
,
0100
0000
0010
0000
1000
0000
0100
0000
0010
0000
0001
0010
0001
0000
0010
0000
,
0100
0000
1000
0000
0010
0000
0100
0000
0001
0000
1000
0001
1000
0000
0010
0000
,
0100
0001
0010
0100
1000
0010
0100
0001
,
0000
0010
0000
0100
1000
0000
0001
0100
,
0010
0000
1000
0000
0100
0000
0010
0000
0001
0000
0100
0010
0100
0000
0001
0000
,
1000
0000
0100
0000
0010
0000
0001
0000
0100
0000
0010
1000
0010
0000
0100
0000
,
0001
0000
0000
0010
0000
0000
0100
0000
0000
1000
0000
0000
0010
0000
0000
0100
0000
0000
0001
0000
0010
0000
1100
0000
,
1000
0010
0101
0010
0000
0000
1000
0000
0000
0100
0000
0000
,
1000
0001
0100
0010
,
0010
0100
0001
1000
,
0100
0010
0100
1000
,
1000
0001
0100
0010
,
1000
0100
0010
0001
,
1000
1010
0000
1100
,
0000
0101
0000
0011
,
0000
0100
1000
0010
,
1000
0001
0100
0010
,
0010
0100
0001
1000
,
0100
0010
0100
1000
,
1000
0001
0100
0010
,
1000
0100
0010
0100
,
0100
0010
0001
1000
,
0001
0100
0010
0100
,
0100
0001
0010
0001
,
0010
0100
1000
0100
,
1000
0001
0100
0010
,
1000
0100
0010
0001
,
1000
0000
0000
0000
2010
0010
0001
3100
,
1200
0010
0001
0310
,
0012
0000
1000
0000
,
0100
0000
1003
0000
,
0201
0000
0000
0000
,
0010
0000
0000
0000
,
0320
0000
0000
0000
,
1000
0000
0000
0030
,
1010
1000
0000
0101
,
0001
0000
1100
1000
,
0000
0011
0001
0000
,
1100
1000
0101
0001
,
0000
1100
0100
0010
,
0001
1000
0000
0201
,
0000
0310
1000
0000
,
2002
0000
3003
0000
;

//---------------dance-double - ----------------
#NOTES:
     dance-double:
     :
     Easy:
     12:
     0.044067,0.040182,0.000000,0.081175,0.036529,28.000000,0.000000,10.000000,0.000000,0.000000,0.000000,0.044067,0.040182,0.000000,0.081175,0.036529,28.000000,0.000000,10.000000,0.000000,0.000000,0.000000:
00000000
00000000
00000000
00000000
00000001
00000010
00000100
00001000
00020000
00000000
00032000
00000000
00013000
01000000
00100000
10000000
,
00020000
00000000
00000000
00000000
20030000
00000000
00000000
00000000
30100000
00000000
00010000
00000000
00001000
00000000
00000010
00000000
00000002
00000000
00000000
00000000
00002003
00000000
00003010
00000100
00000002
00000000
00000000
00000000
00000000
00000000
00000000
00000000
,
00002000
00000000
00000000
00000000
00000003
00000000
00010000
00000000
00020000
00000000
00000000
00000000
00003000
00000000
00000000
00000000
02000000
00000000
00000000
00000000
00000000
00000000
00000000
03030000
00100000
00000000
00000000
00000000
10000000
00000000
00000000
00000000
,
00100000
00000000
00000000
00000000
;

//---------------dance-single - ----------------
#NOTES:
     dance-single:
     :
     Challenge:
     18:
     1.000000,1.000000,0.389642,0.284114,0.978164,784.000000,48.000000,35.000000,0.000000,0.000000,0.000000,1.000000,1.000000,0.389642,0.284114,0.978164,784.000000,48.000000,35.000000,0.000000,0.000000,0.000000:
0000
0000
0000
0000
0000
0000
0000
0000
0000
0000
0000
0000
2000
0000
0000
3020
0000
0000
0230
0000
0000
0302
0000
0000
1003
0100
0010
0001
0000
0000
0001
0100
0010
1000
0000
0000
2000
0000
0000
3200
0000
0000
0320
0000
0000
0032
0000
0000
,
1003
0000
0000
0000
0100
0000
0000
0000
0010
0000
0000
0000
0001
0000
0000
0000
0010
0000
0000
0000
0100
0000
0000
0000
1000
0000
0000
0000
0010
0000
0000
0000
0100
0000
0000
0000
0001
0000
0000
0000
0100
0000
0000
0000
0010
0000
0000
0000
2000
0000
0000
0000
0000
0000
0000
0000
0000
0000
0000
0000
3200
0000
0000
0000
0000
0000
0000
0000
0000
0000
0000
0000
0302
0000
0000
0000
0000
0000
0000
0000
0000
0000
0000
0000
0023
0000
0000
0000
0000
0000
0000
0000
0000
0000
0000
0000
2030
0000
0000
0000
0000
0000
0000
0000
0000
0000
0000
0000
0000
0000
0000
0000
0000
0000
0000
0000
0000
0000
0000
0000
3002
0000
0000
0000
0000
0000
0000
0000
0000
0000
0000
0000
0013
0000
0000
0000
0000
0000
0100
0000
0000
0000
0000
0000
2000
0000
0000
0000
0000
0000
0000
0000
0000
0000
0000
0000
0002
0000
0000
0000
0000
0000
0000
0000
0000
0000
0000
0000
0000
0000
0000
0000
0000
0000
0000
0000
0000
0000
0000
0000
3000
0000
0000
0000
0000
0000
0000
0000
0000
0000
0000
0000
,
0203
0000
0000
0000
0020
0000
0000
0000
0300
0000
0000
0000
0100
0000
0000
0000
0230
0000
0000
0000
0002
0000
0000
0000
0000
0000
0000
0000
0300
0000
0000
0000
0023
0000
0000
0000
0200
0000
0000
0000
0000
0000
0000
0000
0000
0000
0000
0330
1000
0000
0000
0000
0010
0000
0000
0000
0100
0000
0000
0000
0001
0000
0000
0000
,
1000
0000
0000
0101
0000
0101
1100
0000
,
1100
0000
1010
0000
0000
0000
1100
0000
0000
0000
0101
0000
0001
0010
0100
1000
,
0001
0000
0000
1100
0000
1100
0101
0000
,
0101
0000
0011
0000
0000
0000
1010
0000
0000
0000
1100
0000
1000
0000
0010
1000
,
0010
0000
0100
0000
0001
0000
0010
0001
0100
0000
0001
0000
0010
0000
0100
1000
,
0100
0000
0010
0000
0001
0000
0100
0001
0010
0000
0001
0000
0100
0001
0100
0001
,
1000
0010
1000
0010
0100
0010
1000
0100
0010
0001
0100
0010
2000
0000
0000
0000
,
0000
0000
0000
0000
3000
0000
0000
0000
1001
0000
0000
0000
0001
0100
0010
0000
,
0010
0000
1000
0100
0010
0000
0010
0000
0001
1000
0100
0000
0100
0000
1000
0001
,
0100
0000
0100
0000
0010
1000
0100
0000
0100
0000
0010
0000
0001
1000
0100
0000
,
0100
0000
1000
0010
0100
0000
0100
0000
0001
1000
0100
0010
0001
0100
0010
1000
,
0001
0010
0100
0000
0000
0000
0010
0001
1000
0000
0000
0000
1000
0100
0010
0000
,
0010
0000
0001
0100
0010
0000
0010
0000
1000
0001
0100
0000
0100
0000
0001
1000
,
0100
0000
0100
0000
0010
0001
0100
0000
0100
0000
0010
0000
1000
0001
0100
0000
,
0100
0000
0000
0000
0000
0000
0001
0000
0000
0010
0000
0000
0100
0000
0000
0000
0000
0000
0100
0000
0000
0000
0000
0000
1000
0000
0000
0001
0000
0000
0100
0000
0000
0010
0000
0000
1000
0000
0000
0000
0000
0000
0000
0000
1100
0000
0000
0000
,
0000
0000
0000
0000
0101
0000
0000
0000
0000
0000
0000
0000
0011
0000
0000
0000
0000
0000
0000
0000
1010
0000
0000
0000
0000
0000
0000
0000
0110
0000
0000
0000
0000
0000
0000
0000
1000
0000
0000
0100
0000
0000
0010
0000
0000
0001
0000
0000
,
1000
0100
0010
0001
0100
0010
1000
0010
0100
0001
0010
0100
1000
0100
1000
0100
,
0010
0001
0010
0001
0100
0010
1000
0010
0100
0001
1000
0000
0001
0100
0010
1000
,
0001
0100
0010
1000
0100
0010
0001
0010
0100
1000
0010
0100
0001
0010
0000
0100
,
1000
0000
0001
0100
0010
0000
0100
0000
1001
0000
0000
0000
1000
0010
0100
0001
,
1000
0010
0100
0001
0010
0100
1000
0100
0010
0001
0100
0010
1000
0010
1000
0010
,
0100
0001
0100
0001
0010
0100
1000
0100
0010
0001
1000
0000
0001
0010
0100
1000
,
0001
0010
0100
1000
0010
0100
0001
0100
0010
1000
0100
0010
0001
0100
0000
0010
,
1000
0000
0001
0010
0100
0010
0100
0010
0001
0000
1000
0001
0100
0010
0000
0000
,
0010
0000
0000
0000
2000
0000
0000
0000
0010
0000
3000
0010
0100
0001
1000
0000
,
0100
0000
0000
0000
0020
0000
0000
0000
0130
0000
1000
0010
0100
0001
0000
0000
,
0001
0000
0000
0000
2000
0000
0000
0000
0100
0000
3000
0100
0010
0001
1000
0000
,
0001
0000
0000
0000
0200
0000
0000
0000
0310
0000
1000
0010
0100
0001
0000
0000
,
1000
0000
0000
0000
0200
0000
0000
0000
1000
0000
0300
1000
0100
0010
0001
0000
,
0100
0000
0000
0000
0020
0000
0000
0000
0130
0000
0001
1000
0100
0010
0000
0000
,
0010
0000
0000
0000
0002
0000
0000
0000
1000
0000
0003
1000
0010
0100
0001
0000
,
1000
0000
0000
0000
0000
0000
0000
0000
0001
0000
0000
0000
0000
0000
0000
0000
0010
0000
0000
0000
0100
0000
1000
0010
0100
0000
0000
0000
0000
0000
0100
0000
,
0001
0000
0010
0000
0100
0000
1000
0000
0001
0000
0100
0000
0010
1000
0000
0010
,
0100
0000
0001
0100
0000
0100
0010
0000
1000
0000
0100
0000
0010
0000
0000
0100
,
1000
0000
0001
0000
0010
0000
0100
0000
0100
0000
1000
0000
0001
0100
0000
0100
,
0010
0000
0100
0001
0000
0001
1000
0000
0100
0010
0100
0010
0001
0000
0100
0000
,
1000
0100
0001
0010
0100
0001
0100
1000
,
0001
0000
0100
0000
1000
0000
0001
0000
0010
0000
1000
0000
0100
0010
0001
0100
,
0010
1000
0100
0010
0001
0100
0010
1000
0100
0010
0001
0100
0010
1000
0100
0001
,
0100
0010
0001
1000
0010
0100
0001
0010
1000
0010
0100
0010
0002
0000
0000
0000
,
0000
0000
0000
0000
,
0000
0000
0000
0000
0000
0000
0000
0000
0000
0000
0000
0000
0103
0001
1000
0100
,
0010
0000
0000
1100
0000
1100
0001
0000
,
0101
0000
0010
0000
0000
0000
1100
0000
0010
0000
0101
0000
0010
1000
0001
0010
,
0100
0000
0000
0000
0000
0000
1100
0000
0000
0000
1100
0000
0001
0000
0000
0010
,
0100
0000
0000
1000
0001
0100
0001
0100
0001
0100
0001
0100
0010
1000
0100
0010
,
0001
0000
0000
1100
0000
1010
1001
0100
,
0010
0000
1001
0000
0000
0000
0100
0000
1001
0000
0000
0000
0001
0010
0001
0010
,
0001
0010
0001
0010
0100
1000
0010
0100
0001
0010
0100
1000
0002
0000
0000
0000
,
0000
0000
0000
0000
0003
0000
0000
0000
1001
0000
0000
0000
1000
0010
0100
0000
,
0100
0000
0001
0010
0100
0000
0100
0000
1000
0001
0010
0000
0010
0000
0001
1000
,
0010
0000
0010
0000
0100
0001
0010
0000
0010
0000
0100
0000
1000
0001
0010
0000
,
0010
0000
0001
0100
0010
0000
0010
0000
1000
0001
0010
0100
1000
0010
0100
0001
,
1000
0100
0010
0000
0000
0000
0100
1000
0001
0000
0000
0000
0001
0010
0100
0000
,
0100
0000
1000
0010
0100
0000
0100
0000
0001
1000
0010
0000
0010
0000
1000
0001
,
0010
0000
0010
0000
0100
1000
0010
0000
0010
0000
0100
0000
0001
1000
0010
0000
,
0010
0000
0000
0000
0000
0000
1000
0000
0000
0100
0000
0000
0010
0000
0000
0000
0000
0000
0010
0000
0000
0000
0000
0000
0001
0000
0000
1000
0000
0000
0010
0000
0000
0100
0000
0000
0001
0000
0000
0000
0101
0000
0000
0000
1100
0000
0000
0000
,
1010
0000
0011
0000
1001
0000
1000
0000
0000
0100
0000
0000
0010
0000
0000
0000
0000
0000
0001
0000
0000
0000
0000
0000
,
1000
0001
0100
0000
0010
0000
0100
0001
,
0100
0000
0010
1000
0001
0000
0010
0000
,
0001
0100
0010
0000
0100
0000
0001
1000
,
0100
0000
0010
0001
0100
0000
0010
0000
,
0100
0001
1000
0000
0100
0000
0010
0001
,
0100
0110
0010
1010
,
1000
1001
0001
0011
,
0010
0000
0001
0100
0010
0000
1000
0000
,
0001
1000
0100
0000
0010
0000
0100
1000
,
0100
0000
0010
0001
1000
0000
0010
0000
,
1000
0100
0010
0000
0100
0000
1000
0001
,
0100
0000
0010
1000
0100
0000
0010
0000
,
0100
1000
0001
0000
0100
0000
0010
1000
,
0100
0110
0010
0011
,
0001
1001
1000
1010
,
0010
1000
0010
0100
,
0001
0010
0100
1000
,
0001
0000
0010
0001
0100
0010
1000
0100
,
0010
0001
0100
0010
1000
0100
0010
0001
,
0100
0000
0000
0010
0000
0000
0000
0000
0000
0000
0000
0000
1000
0100
1000
0100
1000
0100
1000
0100
0010
0001
0100
0010
,
1000
0010
1000
0010
1000
0010
0100
0001
0010
0100
1000
0001
,
0100
0000
0001
0000
0100
0000
0001
0000
0100
0000
0001
0000
,
0100
0000
0010
0000
1000
0000
0100
0000
0010
0000
0001
0000
,
0100
0010
0100
0010
,
0100
0010
0100
0010
,
0100
0001
0100
0001
,
0100
0001
0100
0001
,
1000
0100
0010
0000
0000
0000
0100
1000
,
0001
0000
0000
0000
0010
0001
1000
0000
,
0000
0000
0001
0100
0010
0000
0000
0000
,
1000
0100
1000
0000
0001
0100
0001
0000
,
0000
0000
1000
0100
1000
0100
1000
0100
,
0010
0001
1000
0000
0000
0000
0002
0000
,
0000
0000
0103
0010
1000
0000
0000
0000
,
2002
0000
3003
0000
;

//---------------dance-single - ----------------
#NOTES:
     dance-single:
     :
     Edit:
     1:
     0.038268,1.000000,0.000000,0.000000,0.064940,33.000000,0.000000,0.000000,0.000000,0.000000,0.000000,0.038268,1.000000,0.000000,0.000000,0.064940,33.000000,0.000000,0.000000,0.000000,0.000000,0.000000:
0000
0000
0000
0000
,
0000
0000
0000
0000
,
0000
0000
0000
0000
,
0000
0000
0000
0000
,
0000
0000
0000
0000
,
0000
0000
0000
0000
,
0000
0000
0000
0000
,
0000
0000
0000
0000
,
0000
0000
0000
0000
,
0000
0000
0000
0000
,
0000
0000
0000
0000
,
0000
0000
0000
0000
,
0000
0000
0000
0000
,
0000
0000
0000
0000
,
0000
0000
0000
0000
,
0000
0000
0000
0000
,
0000
0000
0000
0000
,
0000
0000
0000
0000
,
0000
0000
0000
0000
,
0000
0000
0000
0000
,
0000
0000
0000
0000
,
0000
0000
0000
0000
,
0000
0000
0000
0000
,
0000
0000
0000
0000
,
0000
0000
0000
0000
,
0000
0000
0000
0000
,
0000
0000
0000
0000
,
0000
0000
0000
0000
,
0000
0000
0000
0000
,
0000
0000
0000
0000
,
0000
0000
0000
0000
,
0000
0000
0000
0000
,
0000
0000
0000
0000
,
0000
0000
0000
0000
,
0000
0000
0000
0000
,
0000
0000
0000
0000
,
0000
0000
0000
0000
,
0000
0000
0000
0000
,
0000
0000
0000
0000
,
0000
0000
0000
0000
,
0000
0000
0000
0000
,
0000
0000
0000
0000
,
0000
0000
0000
0000
,
0000
0000
0000
0000
,
0000
0000
0000
0000
,
0000
0000
0000
0000
,
0000
0000
0000
0000
,
0000
0000
0000
0000
,
0000
0000
0000
0000
,
0000
0000
0000
0000
,
0000
0000
0000
0000
,
0000
0000
0000
0000
,
0000
0000
0000
0000
,
0000
0000
0000
0000
,
0000
0000
0000
0000
,
0000
0000
0000
0000
,
0000
0000
0000
0000
,
0000
0000
0000
0000
,
0000
0000
0000
0000
,
0000
0000
0000
0000
,
0000
0000
0000
0000
,
0000
0000
0000
0000
,
0000
0000
0000
0000
,
0000
0000
0000
0000
,
0000
0000
0000
0000
,
0000
0000
0000
0000
,
0000
0000
0000
0000
,
0000
0000
0000
0000
,
0000
0000
0000
0000
,
0000
0000
0000
0000
,
0000
0000
0000
0000
,
0000
0000
0000
0000
,
0000
0000
0000
0000
,
0000
0000
0000
0000
,
0000
0000
0000
0000
,
0000
0000
0000
0000
,
0000
0000
0000
0000
,
0000
0000
0000
0000
,
0000
0000
0000
0000
,
0000
0000
0000
0000
,
0000
0000
0000
0000
0000
0000
0000
0000
1000
0001
1000
0001
1000
0001
1000
0001
,
1000
0001
1000
0001
1000
0001
1000
0001
1000
0001
1000
0001
1000
0001
1000
0001
,
1000
0001
1000
0001
1000
0001
1000
0001
1000
0000
0000
0000
0000
0000
0000
0000
;
