#TITLE:PARANOiA =iNSANiTY= MAX;
#SUBTITLE:(Air Special);
#ARTIST:Hiryuu;
#TITLETRANSLIT:;
#SUBTITLETRANSLIT:;
#ARTISTTRANSLIT:;
#GENRE:;
#CREDIT:;
#BANNER:PIM AIR SPECIAL.png;
#BACKGROUND:PIM-bg.png;
#LYRICSPATH:;
#CDTITLE:!title.png;
#MUSIC:PIM.mp3;
#OFFSET:-0.050000;
#SAMPLESTART:0.040000;
#SAMPLELENGTH:15.959999;
#LASTBEATHINT:639.997498;
#SELECTABLE:YES;
#BPMS:0.000000=350.000000
,185.000000=175.000000
,188.000000=349.998993
,486.000000=174.998993
,490.000000=350.000000
;
#STOPS:309.000000=1.200000,
490.000000=1.029000
;
#BGCHANGES:;
#KEYSOUNDS:;
#ATTACKS:;

//---------------dance-single - ----------------
#NOTES:
     dance-single:
     :
     Challenge:
     17:
     1.159894,1.259007,2.836953,0.034809,0.008702,933.000000,607.000000,326.000000,4.000000,0.000000,0.000000,1.159894,1.259007,2.836953,0.034809,0.008702,933.000000,607.000000,326.000000,4.000000,0.000000,0.000000:
0000
0000
0000
0000
,
0000
0000
0000
0000
,
0000
0000
0000
0000
,
0000
0000
0000
0000
,
0000
0000
0000
0000
,
0000
0000
0000
0000
,
0000
0000
0000
0000
,
0000
0000
0000
0000
,
1100
1100
0000
0010
,
0011
0000
0001
1001
,
0000
0000
0000
1010
,
0000
0000
0011
0000
,
0110
0110
0000
1000
,
0110
0000
0001
0110
,
0000
1000
0100
0000
,
0011
0000
1100
0000
,
0101
0001
1001
0001
,
0011
0100
1001
0000
,
1010
1000
1001
1000
,
1100
0010
1001
0000
,
0011
0001
1001
0001
,
0101
0010
1001
0000
,
1100
1000
1001
1000
,
1010
0100
1001
0000
,
0101
0000
1010
0000
,
1000
0100
0010
0001
1100
0000
0000
0000
,
0110
0000
0011
0000
,
0001
0010
0100
1000
0011
0000
0000
0000
,
0100
0110
0000
1001
,
0000
0000
1001
0000
1000
0100
0010
0001
,
0100
0000
0101
0100
,
1100
0100
0101
1001
,
0000
1001
0011
0110
,
1100
0110
0011
0110
,
1001
0110
1001
0000
,
1001
0110
0000
0110
,
1001
0010
0110
0101
,
1001
1100
0110
0011
,
1001
0000
1001
0110
,
0000
0110
0000
1001
,
0000
1001
1100
0110
,
0011
0110
1100
1010
,
0110
0101
1001
0000
,
0001
1000
0000
1000
0001
0000
0000
0000
,
0000
0110
1001
1010
,
0110
0101
0011
0110
,
1100
0000
0000
0000
0000
0000
0000
0000
0000
0000
0000
0000
1000
0000
0000
0000
0000
0000
0000
0001
0000
0000
0000
0000
0000
0000
1000
0000
0000
0000
0000
0000
,
0000
1100
0010
0101
,
0010
1100
0110
0011
,
0110
1001
0010
0101
,
0010
0101
0110
1010
,
0110
0101
1001
0100
,
0011
0110
1100
0110
,
1001
1010
0100
1001
,
0010
0011
0110
1100
,
0110
0010
1001
0001
,
0110
1000
0110
0011
,
0110
1100
0110
1001
,
0110
0101
1001
1010
,
1001
0100
1001
0010
,
0101
0010
1010
0110
,
0101
1001
0011
0110
,
1100
0110
0011
0001
,
1001
0001
0101
0100
,
1010
0100
1001
0100
,
1000
0010
1001
0010
,
0101
0010
1000
0010
,
0100
0001
0110
1000
,
0110
0001
0010
0100
,
1000
0100
1001
0100
,
0011
0100
1000
0100
,
0001
0100
1010
0100
,
1001
0000
0010
0000
1000
0010
0000
0010
,
1000
0100
1001
0100
,
0011
0100
1010
0110
,
0101
1001
1010
0100
,
0011
0100
1100
0101
,
1100
0000
0000
0000
0000
0000
0000
0000
0202
0303
0000
0000
0000
0000
0000
0000
0001
0000
0000
0000
0000
0000
0000
0000
0100
0000
0000
0000
0010
0000
0000
0000
,
1001
0000
0110
0000
1000
0100
0010
0001
,
0100
1010
0110
1001
,
1100
0110
0011
0110
,
1100
0000
1100
0010
,
0101
0000
0110
0000
1000
0100
0010
0001
,
0100
1010
0100
0101
,
0001
0101
0001
1001
,
0110
0000
1010
1000
,
1001
0000
0001
0010
0100
1000
0100
0010
,
1001
0000
0101
0000
0001
0100
0001
0000
,
0101
0000
0010
1000
0100
0000
0011
0000
,
1001
0000
1010
1000
,
1001
0000
1000
0100
0010
0001
0010
0100
,
1001
0000
1100
0000
1000
0100
1000
0000
,
0011
1001
0101
0010
,
1001
0000
0000
0000
1001
0000
0001
0010
,
1100
0000
0011
0000
1000
0100
0010
0000
,
0011
0000
0010
0000
1001
0000
1000
0100
,
0011
0000
0010
0001
0010
1000
0010
0000
,
1001
0000
0000
0000
0010
1000
0010
0000
,
1010
0000
0100
0001
0100
0001
0100
0000
,
0101
0000
0001
0010
0100
0000
1100
0000
,
0101
0000
0010
0100
0000
0100
0010
0000
,
1001
0000
0100
0110
,
1010
0000
1000
0100
0000
0100
1000
0000
,
0011
0100
1001
0110
,
1001
0000
0010
0100
0010
0100
0010
0000
,
1001
0000
0100
1100
,
1001
0000
0001
0100
0000
0100
0010
0000
,
1001
0000
0110
0000
0010
1000
0010
0000
,
0101
0000
0001
0010
0100
1000
0100
0000
,
0011
0000
0000
0000
1000
0001
1000
0000
,
0110
0000
0001
0010
0100
1000
0001
0000
,
0110
1000
0010
0001
,
0110
0000
1000
0100
0000
0010
0001
0000
,
0110
0000
0011
1001
,
0110
0000
1000
0010
0000
0010
1000
0000
,
0110
0000
0001
0100
0001
0100
0001
0000
,
0110
0000
1000
0100
0010
0001
1000
0000
,
0110
0000
1010
1001
,
0110
0000
1000
0000
0100
0010
0001
0000
,
0110
0001
1000
0110
,
1001
0000
0000
0000
0010
0100
0010
0000
,
1001
0000
0000
0000
1001
0000
1000
0001
,
0000
0001
1000
0000
1100
0000
0000
0000
,
0011
0000
1001
0000
0100
0010
0000
0101
,
0000
1010
0000
1000
0100
0000
1100
0000
,
1010
0000
0001
1000
0001
1000
0000
1100
,
0000
0010
0001
0000
1100
0000
0101
0000
,
0011
0000
1001
0000
0001
0100
0000
0110
,
0000
1010
0000
0010
0100
0000
1001
0000
,
0101
0000
0100
0010
0100
0010
0000
1010
,
0000
1000
0010
0000
0110
0000
1001
0000
,
1010
0000
0110
0000
0100
0001
0000
0101
,
0000
1001
0000
1000
0100
0000
0011
0000
,
0101
0000
0001
0100
0001
0100
0000
1010
,
0000
1000
0001
0000
0011
0000
1010
0000
,
1001
0000
1001
0000
1000
0100
0000
1100
,
0000
0011
0000
0100
0001
0000
0101
0000
,
0010
0100
0010
0100
0010
0100
0010
0100
,
0001
1000
0001
1000
0001
1000
0001
0000
,
1100
0010
0101
0010
,
1001
0110
1001
0000
,
0011
0100
1010
0100
,
1001
0110
1001
0000
,
1010
0100
0011
0100
,
1001
0110
1001
0000
,
0110
0000
1001
0000
,
1010
0000
1100
0110
,
0011
0000
1001
1001
,
0000
0110
0110
0000
,
1001
0000
1010
0000
,
0101
0000
0011
0110
,
1100
0000
0101
0101
,
0000
1010
1010
0000
,
1100
0110
0011
0110
,
1100
1010
0110
0101
,
0110
1010
1100
1001
,
0011
0101
1001
1010
,
0110
1001
0110
1001
,
0011
1010
1100
0011
,
2002
0000
0000
0000
,
0000
0000
0000
3003
;

//---------------dance-double - ----------------
#NOTES:
     dance-double:
     :
     Challenge:
     18:
     1.059196,1.260965,2.419242,0.052214,0.008702,852.000000,574.000000,278.000000,6.000000,0.000000,0.000000,1.059196,1.260965,2.419242,0.052214,0.008702,852.000000,574.000000,278.000000,6.000000,0.000000,0.000000:
00000000
00000000
00000000
00000000
,
00000000
00000000
00000000
00000000
,
00000000
00000000
00000000
00000000
,
00000000
00000000
00000000
00000000
,
00000000
00000000
00000000
00000000
,
00000000
00000000
00000000
00000000
,
00000000
00000000
00000000
00000000
,
00000000
00000000
00000000
00000000
,
00110000
00110000
00000000
00000100
,
00010100
00000000
00001000
00001001
,
00000000
00000000
00000000
00000011
,
00000000
00000000
00001010
00000000
,
00011000
00011000
00000000
00000000
,
00110000
00110000
00000000
00000000
,
11000000
11000000
00000000
00000000
,
10010000
00000000
01100000
00000000
,
10000000
11000000
10000000
10010000
,
00010000
01010000
01001000
00000000
,
00001000
00011000
00010000
00010100
,
00001100
00001001
00000110
00000000
,
00000001
00000101
00000001
00000011
,
00010100
00010000
00011000
00000000
,
00001000
00101000
00100000
00110000
,
00010000
10010000
01010000
00000000
,
10000000
10100000
00100000
01100000
,
01000000
01001000
00011000
00000000
,
00010000
00010010
00000010
00001010
,
00001000
00001001
00000101
00000000
,
00000010
00001010
00001000
00001001
,
00001000
00001100
00010100
00000000
,
00001000
00101000
00100000
00101000
,
00001000
01001000
01010000
00000000
,
11000000
01100000
00101000
01100000
,
11000000
01010000
00011000
01010000
,
00011000
00010010
00011000
00000000
,
00001000
00010000
00000000
00010000
00001000
00000000
00000000
00000000
,
00000000
00000011
00000110
00010100
,
00000110
00000011
00001001
00000101
,
00001010
00000000
00000000
00000010
,
00000000
00001001
00000000
00011000
,
00000000
00001000
00011000
00001000
,
00101000
00100000
00110000
00010000
,
10010000
10000000
11000000
00000000
,
00100000
00010000
00000000
00010000
00100000
00000000
00000000
00000000
,
00000000
11000000
00110000
00101000
,
00011000
00010100
00001100
00001001
,
00000110
00000000
00000000
00000000
00000000
00000000
00000000
00000000
00000000
00000000
00000000
00000000
00010000
00000000
00000000
00000000
00000000
00000000
00000000
00001000
00000000
00000000
00000000
00000000
00000000
00000000
00010000
00000000
00000000
00000000
00000000
00000000
,
00000000
00011000
00001000
00101000
,
00100000
00110000
00100000
00101000
,
00001000
00011000
00010000
00010100
,
00000100
00001100
00001000
00001001
,
00000001
00000101
00001010
00000100
,
00001010
00000100
00001000
00011000
,
00010000
00011000
00001000
01001000
,
01000000
00000000
01010000
00000000
00010000
00000000
00010000
10000000
,
00000000
11000000
10000000
11000000
,
01000000
11000000
10000000
10010000
,
00010000
00110000
00100000
00110000
,
00100000
00000000
00011000
00000000
00001000
00000000
00010000
00001000
,
00000000
00000000
00001100
00000000
,
00000011
00000000
00000011
00001001
,
00001100
00000000
00011000
00011000
,
00000000
01100000
10010000
01100000
,
00000000
00100000
11000000
00100000
,
01010000
00100000
10000000
01100000
,
00010000
01100000
10000000
01010000
,
10000000
01001000
00010000
00011000
,
00010000
00000000
00001010
00000000
,
00000101
00000000
00001001
00000001
,
00001100
00001000
00001100
00000100
,
00010100
00010000
00011000
00001000
,
00011000
00000000
00110000
00000000
,
11000000
00000000
10010000
00010000
,
01010000
01000000
01001000
00001000
,
01001000
00001000
00011000
00010000
,
00011000
00000000
00001100
00000000
,
00000011
00000000
00000001
00000010
,
00000100
00000000
00000000
00000000
00000000
00000000
00000000
00000000
00022000
00033000
00000000
00000000
00000000
00000000
00000000
00000000
00000000
00000000
00000000
00000000
00000000
00000000
00000000
00000000
00010000
00000000
00000000
00000000
00000000
00000000
00000000
00000000
,
00011000
00000000
00001000
00100000
00000000
00100000
00010000
00000000
,
00110000
11000000
10000000
10010000
,
01010000
00000000
01000000
00100000
00000000
00100000
01000000
00000000
,
10010000
00000000
00010000
00100000
,
00110000
00000000
00100000
00001000
00000000
00001000
00010000
00000000
,
00011000
00000000
00000100
00000010
00000100
00000000
00000011
00000000
,
00001001
00000000
00000001
00000100
00000000
00000100
00000010
00000000
,
00001001
00000000
00000100
00001000
,
00001100
00000000
00000100
00010000
00000000
00010000
00001000
00000000
,
00011000
00001000
00100000
00010000
,
00110000
00000000
00100000
01000000
00000000
01000000
10000000
00000000
,
11000000
00000000
10000000
11000000
,
00110000
00000000
00100000
00001000
00000000
00001000
00010000
00000000
,
00011000
00000000
00000110
00000000
00000010
00000100
00000010
00000000
,
00000100
00000010
00000100
00000000
00000010
00000000
00000011
00000000
,
00001001
00000000
00000100
00010000
,
00010100
00000000
00010000
00001000
00000000
00001000
00010000
00000000
,
00011000
00000000
00001000
00000000
00100000
00010000
00100000
00000000
,
00110000
00000000
10000000
00010000
00000000
00010000
10000000
00000000
,
01010000
00000000
00100000
00001000
,
00011000
00000000
00010000
00000100
00000000
00000010
00000001
00000000
,
00000011
00000100
00001000
00000100
,
00001100
00000000
00010000
00001000
00100000
00001000
00010000
00000000
,
00011000
00000000
00001000
00100000
,
00110000
00000000
00010000
00100000
00010000
00000000
10000000
00000000
,
11000000
00000000
01000000
00100000
00000000
00100000
01000000
00000000
,
00101000
00000000
00001000
00010000
00001000
00010000
00001000
00000000
,
00011000
00000000
00000100
00000010
,
00000011
00000000
00000001
00000010
00000000
00000100
00001000
00000000
,
00001100
00000000
00000100
00010000
00001000
00010000
00001000
00000000
,
00011000
00000000
00001000
00100000
00001000
00000000
00100000
00000000
,
00110000
00000000
10000000
01000000
,
00110000
00000000
10000000
00010000
00000000
00010000
01000000
00000000
,
01010000
00000000
00010000
00000000
10000000
01000000
00100000
00000000
,
00110000
00000000
00100000
00001000
00010000
00001000
00100000
00000000
,
00011000
00000000
00000100
00000010
,
00000011
00000000
00000001
00000010
00000000
00000010
00000001
00000000
,
00001100
00000001
00001000
00000001
,
00000101
00000000
00000100
00000010
00001000
00000010
00001000
00000000
,
00011000
00000000
00010000
00001000
,
00110000
00000000
00100000
00010000
00000000
10000000
01000000
00000000
,
00101000
00000000
00010000
00100000
00010000
00000000
10000000
00000000
,
01010000
00000000
10000000
01000000
00100000
00010000
10000000
00000000
,
01010000
00000000
00000000
00000000
10000000
01000000
00000000
01000000
,
00000000
00000000
00000000
00000000
00000000
00000000
00000000
00000000
01000000
00000000
00000000
00000000
00000000
00000000
00000000
00000000
00100000
00000000
00000000
00000000
00000000
00000000
00000000
00000000
00000000
00000000
00000000
00000000
00000000
00000000
00000000
00000000
00022000
00033000
00000000
00000000
00000000
00000000
00000000
00000000
00000000
00000000
00000000
00000000
00000000
00000000
00000000
00000000
00000000
00000000
00000000
00000000
00000000
00000000
00000000
00000000
00000000
00000000
00000000
00000000
00000000
00000000
00000000
00000000
,
00001100
00000000
00000011
00000000
00001000
00000001
00000000
00000101
,
00000000
00000100
00000010
00000100
00000010
00000000
00001010
00000000
,
00011000
00000000
00010000
00001000
00010000
00001000
00000000
00011000
,
00000000
00010000
00001000
00000000
00101000
00000000
00110000
00000000
,
01100000
00000000
11000000
00000000
10000000
01000000
00000000
01100000
,
00000000
00100000
00010000
00100000
00010000
00000000
00101000
00000000
,
00011000
00000000
00010100
00000000
00001000
00000100
00000000
00000011
,
00000000
00000001
00000010
00000000
00001100
00000000
00000011
00000000
,
00000101
00000000
00000110
00000000
00000001
00001000
00000000
00001100
,
00000000
00000100
00010000
00000000
00011000
00000000
00101000
00000000
,
00110000
00000000
11000000
00000000
10000000
01000000
00000000
00110000
,
00000000
10000000
01000000
00000000
00110000
00000000
11000000
00000000
,
10010000
00000000
01010000
00000000
01000000
00001000
00000000
00011000
,
00000000
00010000
00000100
00000000
00000011
00000000
00001001
00000000
,
00000100
00000010
00000100
00000000
00000010
00000000
00000100
00000000
,
00000001
00001000
00000001
00000000
00001000
00000000
00000001
00000000
,
00001100
00001000
00001100
00000100
,
00010100
00010000
00011000
00000000
,
00011000
00001000
00101000
00100000
,
00110000
00010000
10010000
00000000
,
01010000
00010000
01010000
00000000
,
11000000
00000000
00110000
00000000
,
01100000
00000000
11000000
00000000
,
00110000
00000000
00011000
00011000
,
00011000
00000000
00000110
00001001
,
00000000
00001001
00000110
00000000
,
00000011
00000000
00001010
00000000
,
00001100
00000000
00011000
00011000
,
00011000
00000000
00110000
00110000
,
00000000
10010000
10010000
00000000
,
11000000
01100000
00101000
00011000
,
00010100
00011000
00010010
00001010
,
00001001
00001100
00000110
00000011
,
00001001
00001100
00010100
00011000
,
01001000
00011000
00010100
00001100
,
00001001
00000011
00000110
00001100
,
00022000
00000000
00000000
00000000
,
00000000
00000000
00000000
00000000
,
00033000
00000000
00000000
00000000
;

//---------------dance-solo - ----------------
#NOTES:
     dance-solo:
     :
     Challenge:
     17:
     1.062925,1.398897,2.593289,0.069618,0.008702,855.000000,555.000000,298.000000,8.000000,0.000000,1.000000,1.062925,1.398897,2.593289,0.069618,0.008702,855.000000,555.000000,298.000000,8.000000,0.000000,1.000000:
// measure 0
000000
000000
000000
000000
,  // measure 1
000000
000000
000000
000000
,  // measure 2
000000
000000
000000
000000
,  // measure 3
000000
000000
000000
000000
,  // measure 4
000000
000000
000000
000000
,  // measure 5
000000
000000
000000
000000
,  // measure 6
000000
000000
000000
000000
,  // measure 7
000000
000000
000000
000000
,  // measure 8
001001
001001
000000
100010
,  // measure 9
100010
000000
001100
001100
,  // measure 10
000000
100001
000001
000101
,  // measure 11
000000
000000
100100
000000
,  // measure 12
010010
010010
000000
101000
,  // measure 13
101000
000000
000101
000101
,  // measure 14
000000
000000
000010
000000
,  // measure 15
001100
000000
100001
000000
,  // measure 16
101000
100000
101000
001000
,  // measure 17
001100
000100
000101
000000
,  // measure 18
100001
000001
010001
000001
,  // measure 19
000101
000001
000011
000000
,  // measure 20
001100
001000
011000
010000
,  // measure 21
010001
000001
100001
000000
,  // measure 22
100001
100000
100010
000010
,  // measure 23
010010
010000
010100
000000
,  // measure 24
001100
001000
001001
000001
,  // measure 25
100001
100000
100010
000000
,  // measure 26
010100
010000
010010
000010
,  // measure 27
100010
100000
101000
000000
,  // measure 28
000101
000001
000011
000010
,  // measure 29
001010
001000
011000
000000
,  // measure 30
000101
000100
001100
001000
,  // measure 31
101000
100000
100001
000000
,  // measure 32
001000
100001
000101
001100
,  // measure 33
011000
001100
000101
010001
,  // measure 34
010010
000100
010010
000000
,  // measure 35
000100
001000
000000
001000
000100
000000
000000
000000
,  // measure 36
000000
001000
100001
101000
,  // measure 37
011000
010001
000101
000100
,  // measure 38
000110
000000
000010
100010
,  // measure 39
000000
100001
000000
001100
,  // measure 40
000000
010000
001100
000010
,  // measure 41
001100
100000
100001
000001
,  // measure 42
100001
001100
100001
000000
,  // measure 43
000001
100000
000000
100000
000001
000000
000000
000000
,  // measure 44
000101
000101
101000
101000
,  // measure 45
100001
100001
010010
010010
,  // measure 46
000000
000000
000000
000000
000000
000000
000000
000000
000000
000000
000000
000000
100000
000000
000000
000000
000000
000000
000000
000001
000000
000000
000000
000000
000000
000000
100000
000000
000000
000000
000000
000000
,  // measure 47
000000
001100
000001
001001
,  // measure 48
000000
100100
100000
100001
,  // measure 49
000000
101000
001100
000101
,  // measure 50
001100
101000
001100
100001
,  // measure 51
000000
000011
000010
000011
,  // measure 52
000000
110000
010000
110000
,  // measure 53
000000
000101
001100
101000
,  // measure 54
001100
000101
001100
100001
,  // measure 55
000000
001001
001000
001010
,  // measure 56
000000
100100
000100
010100
,  // measure 57
000000
001001
001100
100100
,  // measure 58
001100
001001
001100
100001
,  // measure 59
000000
010100
000100
100100
,  // measure 60
000000
001010
001000
001001
,  // measure 61
000000
100100
001100
001001
,  // measure 62
001100
100100
001100
100001
,  // measure 63
000000
000000
000101
000000
,  // measure 64
101000
000000
100001
000000
,  // measure 65
100001
000000
100100
000000
,  // measure 66
001001
000000
100001
000000
,  // measure 67
100001
000000
101000
000000
,  // measure 68
000101
000000
100001
000000
,  // measure 69
100001
000000
001001
000000
,  // measure 70
100100
000000
100001
000000
,  // measure 71
100001
000000
010010
000000
,  // measure 72
100001
000000
001100
000000
,  // measure 73
001100
000000
010001
000000
,  // measure 74
101000
000000
001100
000000
,  // measure 75
001100
000000
100001
000000
,  // measure 76
010010
000000
000000
000000
001000
000100
001000
000000
,  // measure 77
000100
000000
000000
000000
000000
000000
000000
000000
002200
003300
000000
000000
000000
000000
000000
000000
000001
000000
000000
000000
000000
000000
000000
000000
100000
000000
000000
000000
000000
000000
000000
000000
,  // measure 78
101000
000000
000100
000001
000100
000000
000010
000000
,  // measure 79
000110
000000
010000
000010
010000
000000
010100
000000
,  // measure 80
100100
000000
000100
001000
000000
001000
000100
000000
,  // measure 81
001100
000000
001000
000010
,  // measure 82
001010
000000
100000
000100
100000
000000
100100
000000
,  // measure 83
100001
000000
000100
000001
000100
000000
001000
000000
,  // measure 84
101000
000000
010000
001000
000100
000000
000101
000000
,  // measure 85
000110
000000
100001
001000
,  // measure 86
100001
000000
001000
000100
001000
000000
000100
000000
,  // measure 87
001100
000000
001000
000010
001000
000000
000100
000000
,  // measure 88
001100
000000
100000
000100
001000
000000
000010
000000
,  // measure 89
010010
000000
100000
001000
,  // measure 90
000101
000000
000001
000010
000000
000010
000001
000000
,  // measure 91
101000
000100
000101
000001
,  // measure 92
100001
100000
100001
000001
,  // measure 93
100001
000000
000001
000100
,  // measure 94
101000
000000
001000
010000
000000
010000
000001
000000
,  // measure 95
001001
000000
000100
100000
000000
100000
000100
000000
,  // measure 96
100100
000000
100000
000010
100000
000010
010000
000000
,  // measure 97
010010
000000
000100
000001
,  // measure 98
000101
000000
000001
000000
000100
001000
100000
000000
,  // measure 99
100001
000000
000001
001000
000001
000000
001000
000000
,  // measure 100
001010
000000
000010
010000
000010
010000
000010
000000
,  // measure 101
010010
000000
001000
101000
,  // measure 102
000110
000000
000010
010000
000000
010000
000010
000000
,  // measure 103
010010
000000
010000
000001
000100
000000
000001
000000
,  // measure 104
000011
000000
010000
001000
000000
000100
000010
000000
,  // measure 105
100001
000000
001001
100001
,  // measure 106
000101
000000
000100
001000
000000
001000
000100
000000
,  // measure 107
001100
000000
001000
100000
001000
100000
001000
000000
,  // measure 108
101000
000000
000100
000001
000010
000000
001000
000000
,  // measure 109
101000
000000
100000
001100
,  // measure 110
100001
000000
001000
000000
000001
000100
000001
000000
,  // measure 111
010010
000000
001000
000100
001000
000100
001000
000000
,  // measure 112
100001
000000
000001
010000
000000
010000
000001
000000
,  // measure 113
000101
000000
001000
100000
,  // measure 114
101000
000000
000100
000010
000000
000010
000100
000000
,  // measure 115
010001
000000
010000
000100
001000
000000
000100
000000
,  // measure 116
001100
000000
001000
000010
001000
000010
001000
000000
,  // measure 117
100001
000000
101000
001000
,  // measure 118
101000
000000
100000
001000
000000
000100
000001
000000
,  // measure 119
000011
000000
000001
000100
000001
000000
001100
000000
,  // measure 120
100001
000000
001000
000000
000100
001000
000100
000000
,  // measure 121
001100
000000
000000
000000
100000
000000
000001
100000
,  // measure 122
000000
000000
000000
000000
100000
000000
000000
000000
000001
000000
000000
000000
000000
000000
000000
000000
200002
300003
000000
000000
000000
000000
000000
000000
000000
000000
000000
000000
000000
000000
000000
000000
,  // measure 123
000101
000000
000101
000000
001000
100000
000000
101000
,  // measure 124
000000
001000
000100
000000
001100
000000
011000
000000
,  // measure 125
010001
000000
000001
000010
000001
000010
000000
000011
,  // measure 126
000000
000001
100000
000000
100100
000000
000101
000000
,  // measure 127
100001
000000
100001
000000
100000
000100
000000
001100
,  // measure 128
000000
001000
000001
000000
010001
000000
100010
000000
,  // measure 129
001100
000000
001000
000100
001000
000100
000000
001100
,  // measure 130
000000
001000
000100
000000
010100
000000
010100
000000
,  // measure 131
010010
000000
010010
000000
010000
000010
000000
010010
,  // measure 132
000000
010000
000010
000000
100001
000000
100001
000000
,  // measure 133
101000
000000
000101
000000
000001
000100
000000
001100
,  // measure 134
000000
001000
100000
000000
101000
000000
000101
000000
,  // measure 135
100001
000000
100001
000000
001000
000001
000000
001001
,  // measure 136
000000
001000
000010
000000
010010
000000
010010
000000
,  // measure 137
000100
001000
000100
001000
,  // measure 138
000001
100000
000001
100000
,  // measure 139
101000
001000
001100
000100
,  // measure 140
000101
000001
010001
000000
,  // measure 141
100001
100000
100010
100000
,  // measure 142
100100
100000
110000
000000
,  // measure 143
001100
000100
100100
000100
,  // measure 144
001100
001000
001001
000000
,  // measure 145
100001
000000
100100
000000
,  // measure 146
000101
000000
001100
001100
,  // measure 147
001100
000000
000000
010010
,  // measure 148
000000
000000
100001
100001
,  // measure 149
010001
000000
100010
000000
,  // measure 150
001100
000000
100001
100001
,  // measure 151
101000
000000
000110
000110
,  // measure 152
000000
011000
011000
000000
,  // measure 153
000101
000011
000101
001100
,  // measure 154
011000
101000
011000
010001
,  // measure 155
000101
000110
010010
010100
,  // measure 156
100100
001100
001010
100010
,  // measure 157
100001
010001
011000
001100
,  // measure 158
100001
001100
100100
000101
,  // measure 159
220022
000000
000000
000000
,  // measure 160
000000
000000
000000
330033
;
