#TITLE:Max full circle;
#SUBTITLE:(X-special);
#ARTIST:Kit@ K3ro;
#TITLETRANSLIT:;
#SUBTITLETRANSLIT:;
#ARTISTTRANSLIT:;
#GENRE:;
#CREDIT:;
#BANNER:Max -full circle- x- special-bn.png;
#BACKGROUND:Max -full circle- bg.png;
#LYRICSPATH:;
#CDTITLE:;
#MUSIC:Max -full circle-.mp3;
#OFFSET:0.000000;
#SAMPLESTART:45.340302;
#SAMPLELENGTH:11.939999;
#SELECTABLE:YES;
#BPMS:0.000000=90.000000
,32.000000=135.000000
,56.000000=180.000000
,89.000000=153.179993
,90.000000=91.160004
,91.000000=65.940002
,91.500000=36.000000
,92.000000=359.998993
,477.000000=313.179993
,478.000000=229.179993
,479.000000=153.179993
,480.000000=75.959999
,480.500000=36.000000
,481.000000=359.998993
;
#STOPS:481.000000=0.360000
;
#BGCHANGES:;
#KEYSOUNDS:;
#ATTACKS:;

//---------------dance-single - ----------------
#NOTES:
     dance-single:
     :
     Challenge:
     18:
     0.870428,0.938931,0.655393,0.302489,0.050415,846.000000,755.000000,91.000000,42.000000,0.000000,0.000000,0.870428,0.938931,0.655393,0.302489,0.050415,846.000000,755.000000,91.000000,42.000000,0.000000,0.000000:
0000
0000
0000
0000
,
0000
0000
0000
0000
,
0000
0000
0000
0000
,
0000
0000
0000
0000
,
0010
0000
1000
0100
0010
0000
0100
0010
,
0001
0000
0000
0000
0100
0000
0001
0000
0010
0000
0100
1000
0100
0010
0001
0000
,
0011
0000
0100
1000
0100
0000
0010
0001
,
0010
0000
0100
1000
0100
0010
0100
1000
,
2000
0000
0000
0000
0000
0000
0100
0000
0000
3100
0000
0000
0002
0000
0000
0000
,
0000
0000
0010
0000
0000
0013
0000
0000
2000
0000
0000
0000
0000
0000
0010
0000
,
0000
0000
0010
0000
0000
0000
0000
0000
3010
0000
0000
0000
0000
0000
0100
0000
0000
0010
0000
0000
0001
0000
0000
0010
0000
0000
0100
0000
0000
0000
0000
0000
,
2100
0000
0000
0000
0000
0000
0001
0000
0000
3001
0000
0000
0102
0000
0000
0000
,
0000
0000
1000
0000
0000
1003
0000
0000
2010
0000
0000
0000
0000
0000
0010
0000
,
0000
0010
0000
0000
3100
0000
0000
0010
0000
0000
0100
0000
0000
0010
0000
0000
,
1000
0000
0110
0000
0001
0001
0110
0000
,
1000
0000
1100
0000
0010
0010
0011
0000
,
0001
0000
0110
0000
1000
1000
0101
0000
,
0010
0000
1000
0010
0100
0100
0001
0000
,
0100
0000
1001
0000
0010
0010
1100
0000
,
0010
0000
0101
0000
1000
1000
0011
0000
,
0100
1010
0100
0011
,
0001
0000
0010
1000
0010
0001
0010
0000
,
2002
0000
0000
0000
0000
0000
0000
3003
,
0110
0000
0010
0000
1000
0010
1000
0001
,
0100
0000
1010
0000
0100
0001
0100
0010
,
1000
0000
0110
0000
0001
0010
0100
1000
,
0200
0001
1000
0300
,
0110
0000
0010
0000
0001
0010
1000
0100
,
0010
0000
1001
0000
0100
0001
0100
0010
,
0100
0000
0010
0000
1000
0100
0010
0001
,
0020
1000
0001
0030
,
0110
0000
0001
0000
1000
0100
0010
0100
,
1000
0000
0101
0000
0010
0001
0100
0001
,
0010
0000
1100
0000
0010
0100
0001
0100
,
0020
1000
0001
0030
,
0100
0000
1010
0000
0100
0010
1000
0010
,
0100
0000
1001
0000
0010
0100
0001
0100
,
0010
0000
1001
0000
0010
1000
0100
0001
,
0200
1000
0001
0300
,
0110
0000
1000
0100
0010
0001
0010
0001
,
0010
0000
0001
0100
0010
1000
0010
0100
,
0001
0000
1000
0100
0010
0001
0100
0010
,
0200
0001
1000
0300
,
0110
0000
0001
1000
0010
1000
0001
0010
,
0100
0000
1000
0001
0100
0001
1000
0100
,
0010
0000
0001
0010
0100
1000
0100
0010
,
0200
1000
0001
0300
,
0110
0000
1000
0001
0010
0100
0010
0001
,
1000
0000
0001
1000
0100
0010
0100
1000
,
0001
0000
1000
0010
0100
0001
1000
0001
,
0020
1000
0001
0030
,
0110
0000
0010
1000
0010
0001
0100
0010
,
0100
0000
0001
0010
0001
1000
0100
1000
,
0010
0000
0100
0001
0010
0100
1000
0010
,
0200
0001
1000
0300
,
0010
1000
0010
0100
0020
0000
0130
0000
,
0001
0010
0001
0100
0002
0000
0013
0000
,
1000
0100
1000
0010
2000
0000
3100
0000
,
0020
0001
0031
0000
,
0100
0001
0100
0010
2000
0000
3100
0000
,
0010
0001
1000
0001
0200
0000
0310
0000
,
0001
0100
1000
0100
0002
0000
0013
0000
,
2000
0100
3100
0000
,
0010
0001
0010
1000
0020
0000
0031
0000
,
0100
1000
0100
0001
0200
0000
1300
0000
,
0010
0001
0010
0100
2000
0000
3100
0000
,
0002
0010
0013
0000
,
0100
1000
0100
0010
0002
0000
1003
0000
,
0010
0001
0010
0100
2000
0000
3001
0000
,
0010
1000
0010
0100
0002
0000
0103
0000
,
0020
1000
1030
0000
,
1100
0000
0010
0001
0010
0000
0001
0000
,
0101
1000
0110
0001
,
1010
0000
0100
0010
0100
0000
0001
0000
,
0110
1000
1001
0001
,
0110
0000
0001
0010
0100
0000
1000
0000
,
0110
1000
0011
0100
,
1001
0000
0010
0001
0100
1000
0100
0001
,
0010
1001
0010
0101
,
1001
0000
0100
0010
0100
0000
0010
0000
,
1100
0010
0101
0010
,
1001
0000
0100
0010
0001
0000
0100
0000
,
1010
0100
0011
0001
,
0101
0000
0001
0010
0100
0000
1000
0000
,
1100
0100
0011
0001
,
1001
0100
0110
0010
,
1001
0001
0110
0100
,
0002
0000
0000
0000
0013
0100
1000
0001
,
0010
0100
1000
0010
,
2000
0000
0000
0000
3100
0010
0001
1000
,
0100
0010
0001
0010
,
0002
0000
0000
0000
1003
0100
0010
0001
,
0100
0010
1000
0010
,
0100
0000
0001
1000
0001
0010
0001
1000
,
0001
0100
0001
0010
0100
1000
0100
0010
,
0002
0000
0000
0000
1003
0010
0100
0001
,
0010
1000
0010
1000
,
0200
0000
0000
0000
1300
0010
0100
0001
,
1000
0001
1000
0001
,
0020
0000
0000
0000
1030
0001
0100
0010
,
0001
0100
0001
0100
,
0001
0000
0110
0000
,
1000
0000
0110
0000
,
0001
0000
0100
0000
0010
1000
0010
1000
,
0100
0000
0010
0000
0001
0010
0001
0010
,
0100
0000
1000
0000
0010
0100
0010
0100
,
0001
1000
1000
0000
,
1000
0000
0100
0000
0010
0001
0010
0001
,
0100
0000
0010
0000
1000
0010
1000
0010
,
0100
0000
0001
0000
0010
0100
0010
0100
,
1000
0001
0001
0000
,
1000
0000
0010
0000
0100
0001
0100
0001
,
0010
0000
0100
0000
1000
0010
1000
0010
,
0100
0000
0001
0000
0010
0100
0010
0100
,
1000
1100
0101
0000
,
0001
0000
0100
0000
0001
0010
0001
0010
,
0100
0000
1000
0000
0100
0010
0100
0010
,
0001
0000
0100
0000
0010
1000
0010
1000
,
0100
0010
0110
0000
,
2002
0000
0000
0000
,
0000
0000
3003
0110
0000
0001
0000
1000
,
0100
0010
0001
0100
0000
1010
0000
0100
,
0001
0010
0100
1000
0000
0011
0000
0100
,
0001
0010
0100
1000
0000
0110
0000
0001
,
0000
0000
0000
1000
0000
0100
0000
0010
,
0001
0010
0001
0010
0000
0101
0000
1000
,
0100
1000
0100
1000
0000
0100
0000
0010
,
0100
0010
0100
0010
0000
0001
0000
1001
,
0000
0000
0000
0110
0000
0000
0000
0001
,
0010
0100
1000
0001
0000
0101
0000
0100
,
0010
0100
0010
0100
0000
1010
0000
0100
,
1000
0100
1000
0100
0000
0011
0000
1000
,
0001
1000
0001
1000
0000
0110
0000
1001
,
0000
0000
0000
0001
0000
0100
0000
0010
,
1000
0010
1000
0010
0000
0100
0000
0001
,
0010
0001
0010
0001
0000
0100
0000
1000
,
0000
0001
0000
0110
0000
0000
0000
0100
,
0010
1000
0001
0100
0010
0100
0001
1000
,
0010
0100
0000
1000
0000
0010
0100
0001
,
1000
0010
0100
0010
1000
0001
0100
0010
,
0000
0001
0000
0010
0100
1000
0001
0010
,
0100
0010
0001
1000
0100
0010
0000
1000
,
0000
0100
0010
0001
1000
0100
0010
0100
,
1000
0001
0010
0100
0000
0001
0000
1000
,
0000
0001
0000
0110
0000
1000
0000
0100
,
0001
1000
0000
0110
0000
0001
0000
0010
,
1000
0001
0000
0110
0000
1000
0000
0100
,
0010
0001
0000
0110
0000
1001
0000
1001
,
0000
0000
0000
1010
0000
0000
0000
0000
,
0000
0000
0000
0011
0000
0000
0000
0000
,
0000
0000
0000
0110
0000
0000
0000
1001
,
0000
0000
0000
0011
0000
0110
0000
1100
,
0000
0110
0000
0022
0000
0000
0000
0000
,
0000
0000
0000
0033
0000
0000
0000
0000
;

//---------------dance-double - ----------------
#NOTES:
     dance-double:
     :
     Challenge:
     18:
     0.857052,0.883700,0.705808,0.302489,0.050415,833.000000,735.000000,98.000000,42.000000,0.000000,0.000000,0.857052,0.883700,0.705808,0.302489,0.050415,833.000000,735.000000,98.000000,42.000000,0.000000,0.000000:
00000000
00000000
00000000
00000000
,
00000000
00000000
00000000
00000000
,
00000000
00000000
00000000
00000000
,
00000000
00000000
00000000
00000000
,
10000000
00000000
00001000
00010000
00001000
00000000
00000100
00000001
,
00000100
00000000
00000000
00000000
00000010
00000000
00010000
00000000
00000010
00000000
00010000
00001000
00010000
00001000
00010000
00000000
,
00000001
00000000
00001000
00010000
00001000
00000000
00100000
01000000
,
00100000
00000000
00010000
10000000
00010000
01000000
00001000
00010000
,
00002000
00000000
00000000
00000000
00000000
00000000
00010000
00000000
00000000
00010000
00000000
00000000
00023000
00000000
00000000
00000000
,
00000000
00000000
00000100
00000000
00000000
00000100
00000000
00000000
00030200
00000000
00000000
00000000
00000000
00000000
00000010
00000000
,
00000000
00000000
00000010
00000000
00000000
00000000
00000000
00000000
00000310
00000000
00000000
00000000
00000000
00000000
00010000
00000000
00000000
00001000
00000000
00000000
00010000
00000000
00000000
00001000
00000000
00000000
00010000
00000000
00000000
00000000
00000000
00000000
,
02000000
00000000
00000000
00000000
00000000
00000000
00010000
00000000
00000000
03010000
00000000
00000000
02000000
00000000
00000000
00000000
,
00000000
00000000
10000000
00000000
00000000
13000000
00000000
00000000
00200000
00000000
00000000
00000000
00000000
00000000
10000000
00000000
,
00000000
10000000
00000000
00000000
01300000
00000000
00000000
00100000
00000000
00000000
01000000
00000000
00000000
00100000
00000000
00000000
,
01000000
00000000
00011000
00000000
00000010
00000010
00000010
00000000
,
00000100
00000000
00001001
00000000
00000001
00000001
00000001
00000000
,
00001000
00000000
01010000
00000000
10000000
10000000
10100000
00000000
,
01010000
00000000
10000000
01000000
00010000
01000000
10000000
00000000
,
00100000
00000000
01001000
00000000
00010000
00010000
00010100
00000000
,
00000100
00000000
00001001
00000000
00000100
00000010
00000100
00000000
,
00000010
00000000
00011000
00000000
00100000
01000000
00100000
00000000
,
10000000
01000000
00010000
01000000
10000000
01000000
00100000
00000000
,
00022000
00000000
00000000
00033000
,
00011000
00000000
10000000
00000000
01000000
00010000
01000000
00000000
,
10000000
00000000
00110000
00000000
00001000
00010000
00001000
00000000
,
00000110
00000000
00000001
00000000
00001000
00000100
00001000
00000000
,
00000200
00010000
00010300
00000000
,
01100000
00000000
10000000
00000000
00010000
01000000
00010000
00000000
,
00100000
00000000
00011000
00000000
00000100
00000010
00000100
00000000
,
00000010
00000000
00000011
00000000
00000001
00001000
00000001
00000000
,
00020000
00001000
00031000
00000000
,
00011000
00000000
00000100
00000000
00000010
00000001
00000010
00000000
,
00001100
00000000
00000010
00000000
00010000
00000100
00010000
00000000
,
01000100
00000000
00010000
00000000
10000000
00010000
10000000
00000000
,
00020000
00100000
00130000
00000000
,
00001100
00000000
00000010
00000000
00000001
00001000
00000001
00000000
,
00010010
00000000
00001000
00000000
00100000
00010000
00100000
00000000
,
10010000
00000000
01000000
00000000
00100000
00010000
00100000
00000000
,
00002000
00000100
00003100
00000000
,
00001001
00000000
00000100
00000000
00000010
00001000
00000010
00001000
,
00010000
00000000
00001000
00000000
00100000
00010000
00100000
00010000
,
10000000
00000000
01000000
00000000
00010000
00001000
00010000
00001000
,
00000100
00000010
00000100
00000000
,
00001001
00000000
00000010
00000000
00000100
00010000
00000100
00010000
,
00001000
00000000
00100000
00000000
01000000
10000000
01000000
10000000
,
00010000
00000000
01000000
00000000
00100000
10000000
00100000
10000000
,
00010000
00100000
00101000
00000000
,
00011000
00000000
00010000
00000000
00000100
00000010
00000100
00000010
,
00000001
00000000
00001000
00000000
00000010
00000100
00000010
00000100
,
00001000
00000000
00010000
00000000
00100000
01000000
00100000
01000000
,
00010000
10000000
00010000
00000000
,
10000000
00000000
01000000
00000000
00100000
00001000
00100000
00001000
,
00010000
00000000
00000100
00000000
00001000
00000001
00001000
00000001
,
00000010
00000000
00000100
00000000
00001000
00000001
00001000
00000001
,
00000100
00000010
00010010
00000000
,
00010000
00001000
00010000
00100000
02000000
00000000
03010000
00000000
,
10000000
01000000
00100000
00001000
00020000
00000000
00031000
00000000
,
00000100
00000010
00000001
00001000
00000002
00000000
00000103
00000000
,
00001020
00001000
00001030
00000000
,
00000100
00010000
00001000
00100000
00020000
00000000
00130000
00000000
,
10000000
01000000
00100000
00010000
02000000
00000000
03001000
00000000
,
00010000
00001000
00010000
00000100
00002000
00000000
00003100
00000000
,
00000021
00000001
00000031
00000000
,
00000001
00000010
00000100
00001000
00000200
00000000
00010300
00000000
,
00001000
00100000
01000000
10000000
00020000
00000000
00130000
00000000
,
10000000
01000000
00100000
00010000
00200000
00000000
00301000
00000000
,
12000000
10000000
13000000
00000000
,
00010000
00000100
00010000
00001000
00000200
00000000
00000310
00000000
,
00000001
00001000
00000010
00000100
00000020
00000000
00010030
00000000
,
00001000
00100000
00010000
00100000
02000000
00000000
13000000
00000000
,
00120000
00100000
00130000
00000000
,
00011000
00000000
00000100
00001000
00000100
00001000
00000001
00000000
,
00000110
00001000
00000110
00000001
,
00001100
00000000
00010000
00001000
00010000
00001000
00010000
00000000
,
01100000
10000000
00110000
01000000
,
00011000
00000000
00100000
00000010
00100000
00000010
00100000
00000000
,
00001010
00000100
00001010
00000100
,
00000020
00000000
00000000
00000000
00001030
00000001
00001000
00000100
,
00010000
00001000
00010000
00000000
00002000
00000000
00003000
00000000
,
00110000
00000000
01000000
10000000
00010000
10000000
01000000
00000000
,
00110000
10000000
01100000
00001000
,
00011000
00000000
00010000
00000010
00001000
00000010
00010000
00000000
,
00001100
00000010
00000101
00000010
,
00000101
00000000
00000010
00001000
00000010
00000001
00000010
00000000
,
00011000
00000100
00011000
00001000
,
00200000
00000000
00000000
00000000
00310000
10000000
00100000
10000000
,
00010000
00100000
01000000
10000000
00020000
00000000
00000000
00000000
,
10030000
00000000
01000000
00000000
00100000
00010000
00100000
00010000
,
00100000
00000000
00000010
00000000
00001000
00000001
00001000
00000001
,
00001000
00000000
00000100
00000000
00001000
00010000
00001000
00010000
,
00001000
00000000
00100000
00000000
00010000
10000000
00010000
10000000
,
00010000
00000000
01000000
00000000
00100000
10000000
00100000
10000000
,
00100000
01000000
00010000
10000000
,
10010000
00000000
00010000
00100000
00010000
00000000
00100000
00000000
,
00001000
00010000
00000100
00010000
00001000
00000000
00000000
00000000
,
00001100
00000000
00000011
00000000
00000001
00000000
00000100
00000001
,
00000100
00000010
00010000
00000000
00000010
00000000
00010000
00000000
,
00011000
00000000
00001000
00100000
01000000
00000000
11000000
00000000
,
00110000
00000000
10000000
00000000
00010000
00100000
00010000
00000000
,
00100000
00000000
00101000
00000000
00001000
00010000
00001000
00000000
,
00010010
00000000
00000100
00000000
00000001
00000100
00000010
00000000
,
00000101
00000010
00000101
00000010
,
00001100
00000010
00011000
00000000
,
00010000
00000000
01000000
00000000
00100000
01000000
00100000
01000000
,
10000000
00000000
01000000
00000000
00100000
01000000
00100000
01000000
,
00001000
00000000
00010000
00000000
00001000
00010000
00001000
00010000
,
00000200
00001000
00001300
00000000
,
00000001
00000000
00000100
00000000
00000010
00000100
00000010
00000100
,
00001000
00000000
00010000
00000000
00000100
00000010
00000100
00000010
,
00010000
00000000
00100000
00000000
01000000
10000000
00010000
10000000
,
02000000
00100000
03100000
00000000
,
00010000
00000000
00100000
00000000
01000000
10000000
01000000
00100000
,
00010000
00000000
00100000
00000000
00001000
00010000
00000100
00001000
,
00000001
00000000
00000100
00000000
00000010
00001000
00000010
00001000
,
00000200
00010000
00010300
00000000
,
00001000
00000000
00000100
00000000
00000001
00001000
00000001
00001000
,
00000010
00000000
00000100
00000000
00000001
00001000
00000001
00001000
,
00000100
00000000
00001000
00000000
00010000
00100000
01000000
10000000
,
00010000
00000000
01100000
00000000
,
20020000
00000000
00000000
00000000
,
00000000
00000000
30030000
01100000
00000000
10000000
00000000
01000000
,
00100000
01000000
00100000
01000000
00000000
00010000
00000000
00001000
,
00010000
00001000
00010000
00001000
00000000
00000100
00000000
00000010
,
00001000
00000010
00001000
00000020
00000000
00000100
00000000
00000130
,
00000000
00000000
00000000
00001001
00000000
00000010
00000000
00000100
,
00001000
00000100
00001000
00000100
00000000
00011000
00000000
00100000
,
01000000
00100000
01000000
00100000
00000000
10010000
00000000
00010000
,
00100000
00010000
00100000
00020000
00000000
10000000
00000000
10030000
,
00000000
00000000
00000000
01100000
00000000
10000000
00000000
01000000
,
00100000
01000000
00100000
01000000
00000000
00011000
00000000
00000100
,
00001000
00000100
00001000
00000100
00000000
00000011
00000000
00000001
,
00000010
00000100
00001000
00000001
00000000
00000110
00000000
00001000
,
00000000
00000000
00000000
10010000
00000000
00100000
00000000
01000000
,
00010000
01000000
10000000
01000000
00000000
00011000
00000000
00000010
,
00001000
00000010
00000001
00000010
00000000
00001001
00000000
00000001
,
00001000
00000001
00001000
00000200
00000000
00000010
00000000
00000310
,
00000000
00000000
00000000
00001001
00000000
00000001
00000010
00000100
,
00000000
00011000
00000000
00110000
00000000
01000000
00000000
10010000
,
00000000
00100000
00000000
01100000
00000000
00100000
10000000
00100000
,
00000000
01000000
00000000
10010000
00000000
01000000
00000000
00110000
,
00000000
00100000
00000000
00011000
00000000
00001000
00010000
00001000
,
00000000
00010000
00000000
00011000
00000000
00000000
00000000
00010100
,
00000000
00000000
00000000
00000011
00000000
00000000
00000000
00000001
,
00001000
00000001
00001000
00000001
00000000
00000110
00000000
00001000
,
00000000
00000000
00000000
00011000
00000000
00001000
00000000
00100000
,
00010000
00100000
01000000
10000000
00000000
11000000
00000000
00110000
,
00000000
00010000
10000000
00010000
00000000
10000000
00010000
01000000
,
00001000
01000000
00010000
00100000
01000000
10000000
01000000
00100000
,
00010000
00100000
00000000
00110000
00000000
00000000
00000000
00000000
,
00000000
00000000
00000000
00001010
00000000
00000000
00000000
00000000
,
00000000
00000000
00000000
00000110
00000000
00000000
00000000
00001001
,
00000000
00000000
00000000
00000011
00000000
00000110
00000000
00001100
,
00000000
00000110
00000000
00002002
00000000
00000000
00000000
00000000
,
00000000
00000000
00000000
00003003
00000000
00000000
00000000
00000000
;

//---------------dance-solo - ----------------
#NOTES:
     dance-solo:
     :
     Challenge:
     17:
     0.807666,0.938931,0.590574,0.482542,0.050415,785.000000,703.000000,82.000000,67.000000,0.000000,0.000000,0.807666,0.938931,0.590574,0.482542,0.050415,785.000000,703.000000,82.000000,67.000000,0.000000,0.000000:
// measure 0
000000
000000
000000
000000
,  // measure 1
000000
000000
000000
000000
,  // measure 2
000000
000000
000000
000000
,  // measure 3
000000
000000
000000
000000
,  // measure 4
100000
000000
000010
000100
000010
000000
010000
000100
,  // measure 5
010000
000000
000000
000000
000001
000000
001000
000000
000100
000000
010000
000010
010000
000010
010000
000000
,  // measure 6
001000
000000
000100
000001
000001
000000
000100
100000
,  // measure 7
100000
000000
000100
000001
000100
001000
010000
000001
,  // measure 8
200000
000000
000000
000000
000000
000000
000010
000000
000000
000010
000000
000000
300020
000000
000000
000000
,  // measure 9
000000
000000
000100
000000
000000
000100
000000
000000
000230
000000
000000
000000
000000
000000
000001
000000
,  // measure 10
000000
000000
000001
000000
000000
000000
000000
000000
000301
000000
000000
000000
000000
000000
010000
000000
000000
000010
000000
000000
100000
000000
000000
010000
000000
000000
100000
000000
000000
000000
000000
000000
,  // measure 11
210000
000000
000000
000000
000000
000000
000100
000000
000000
000100
000000
000000
300200
000000
000000
000000
,  // measure 12
000000
000000
010000
000000
000000
010000
000000
000000
020300
000000
000000
000000
000000
000000
000001
000000
,  // measure 13
000000
000001
000000
000000
030001
000000
000000
001100
000000
000000
100000
000000
000000
001100
000000
000000
,  // measure 14
000001
000000
000101
000000
001000
100000
001000
000000
,  // measure 15
101000
000000
010000
000001
010000
000000
000101
000000
,  // measure 16
000001
000010
000010
000000
001100
000000
100000
000000
,  // measure 17
000001
000000
000100
000001
000100
100000
000100
000000
,  // measure 18
100001
000000
011000
000000
000001
000001
000001
000000
,  // measure 19
000011
000000
101000
000000
100000
100000
100000
000000
,  // measure 20
000110
000000
100001
000000
000100
000100
000100
000000
,  // measure 21
100001
001100
100001
001100
,  // measure 22
200002
000000
000000
000000
000000
000000
000000
300003
,  // measure 23
010010
000000
000001
000000
000100
000010
000100
000010
,  // measure 24
010000
000000
000100
000000
100000
000100
100000
000100
,  // measure 25
010000
000000
000001
000000
010000
001000
010000
001000
,  // measure 26
000200
000010
000310
000000
,  // measure 27
100000
000000
001000
000000
000100
000010
000100
000010
,  // measure 28
010000
000000
000100
000000
001000
000100
001000
000100
,  // measure 29
100000
000000
000001
000000
000100
001000
000100
001000
,  // measure 30
020000
000001
030001
000000
,  // measure 31
010010
000000
000000
000000
000001
100000
000001
100000
,  // measure 32
000100
000000
001000
000000
000001
100000
000001
100000
,  // measure 33
001000
000000
000100
000000
000010
010000
000010
010000
,  // measure 34
000002
000010
000013
000000
,  // measure 35
001000
000000
100000
000000
000100
010000
000100
010000
,  // measure 36
000100
000000
010000
000000
000010
000100
000010
000100
,  // measure 37
000010
000000
000100
000000
000001
100000
000001
100000
,  // measure 38
000200
010000
010300
000000
,  // measure 39
100001
000000
002000
000000
003100
000001
100000
000001
,  // measure 40
000100
000000
002000
000000
003100
000001
100000
000001
,  // measure 41
001000
000000
000020
000000
010030
000100
100000
000100
,  // measure 42
020000
001000
031000
000000
,  // measure 43
010010
000000
000002
000000
010003
000010
100000
000010
,  // measure 44
000200
000000
001300
000000
100000
000001
100000
001000
,  // measure 45
020000
000000
030001
000000
000010
001000
000100
001000
,  // measure 46
000020
000001
000031
000000
,  // measure 47
001100
000000
200000
000000
300001
000100
001000
000100
,  // measure 48
001000
000000
020000
000000
031000
000100
001000
000100
,  // measure 49
000001
000000
000020
000000
001030
000100
001000
010000
,  // measure 50
002000
100000
103000
000000
,  // measure 51
010010
000000
000200
000000
001300
010000
001000
010000
,  // measure 52
000001
000000
020000
000000
030010
000100
000010
000100
,  // measure 53
000010
000000
200000
000000
301000
010000
001000
010000
,  // measure 54
000020
000100
000130
000000
,  // measure 55
000001
001000
000100
001000
000200
000000
100300
000000
,  // measure 56
100000
001000
000100
001000
000200
000000
000301
000000
,  // measure 57
000001
000010
000001
000010
000001
000000
000100
000000
,  // measure 58
002000
000100
003100
000000
,  // measure 59
001000
010000
001000
010000
002000
000000
103000
000000
,  // measure 60
000100
001000
000100
001000
000200
000000
000301
000000
,  // measure 61
000100
001000
000100
001000
000100
000000
100000
000000
,  // measure 62
000200
001000
001300
000000
,  // measure 63
010000
000000
000010
000000
000100
000001
000100
000001
,  // measure 64
000100
000000
002000
000000
013000
000010
010000
000010
,  // measure 65
020000
000000
031000
000000
100000
000001
100000
000001
,  // measure 66
100000
001100
100001
000000
,  // measure 67
000001
100000
000100
100000
000020
000000
010030
000000
,  // measure 68
100000
000001
000100
000001
020000
000000
030010
000000
,  // measure 69
001000
000100
001000
000100
001000
000000
100001
000000
,  // measure 70
000200
000010
000310
000000
,  // measure 71
100010
000000
010000
000100
010000
000000
010100
000000
,  // measure 72
002000
003001
000200
100300
,  // measure 73
100100
000000
010000
000100
010000
000000
001001
000000
,  // measure 74
000002
000103
002000
103000
,  // measure 75
100001
000000
000010
010000
000020
000000
010030
000000
,  // measure 76
010010
000000
000001
000100
001000
000000
000000
000000
,  // measure 77
101000
000000
000000
000000
100000
000010
100000
000000
,  // measure 78
000100
010000
000100
000000
001000
000100
001000
000000
,  // measure 79
100001
000000
000010
010000
000010
000000
010010
000000
,  // measure 80
010000
000001
010000
000000
000010
100000
000010
000000
,  // measure 81
001100
000000
001000
000100
001000
000000
001100
000000
,  // measure 82
100000
000100
100000
000000
000001
001000
000001
000000
,  // measure 83
010001
000000
010000
000001
010000
000000
010001
000000
,  // measure 84
000010
100000
000010
000000
010000
000001
010000
000000
,  // measure 85
002000
000000
203000
000000
,  // measure 86
302000
000000
023000
000000
,  // measure 87
032000
000000
000000
000000
003100
000001
000100
000000
,  // measure 88
000002
000000
000000
000000
000023
000000
000000
000030
,  // measure 89
200000
000000
000000
000000
310000
001000
010000
000000
,  // measure 90
002000
000000
003200
000000
,  // measure 91
000302
000000
000000
000000
010003
000010
010000
000000
,  // measure 92
000020
000000
020030
000000
,  // measure 93
030200
000000
000000
000000
001300
000100
001000
000001
,  // measure 94
001000
000100
001000
000000
000200
000000
000300
000000
,  // measure 95
100001
000000
000000
000000
100000
001000
100000
000000
,  // measure 96
000001
000100
000001
000000
010000
000010
010000
000000
,  // measure 97
010010
000000
000000
000000
000001
100000
000001
000000
,  // measure 98
100000
000100
100000
000000
000010
001000
000010
000000
,  // measure 99
001100
000000
000000
000000
100000
000100
100000
000000
,  // measure 100
100001
001000
001001
000000
,  // measure 101
100100
000000
001100
000000
,  // measure 102
100001
000000
001100
000000
,  // measure 103
000001
000000
001000
000000
000100
100000
000100
100000
,  // measure 104
001000
000000
000100
000000
000001
100000
000001
100000
,  // measure 105
000100
000000
001000
000000
000010
010000
000010
010000
,  // measure 106
002000
000100
003100
000000
,  // measure 107
000010
000000
010000
000000
000001
100000
000001
100000
,  // measure 108
000100
000000
001000
000000
000001
100000
000001
100000
,  // measure 109
001000
000000
000100
000000
000010
000100
000010
000100
,  // measure 110
002000
010000
013000
000000
,  // measure 111
100000
000000
001000
000000
000100
000010
000100
000010
,  // measure 112
001000
000000
000100
000000
010000
000100
010000
000100
,  // measure 113
001000
000000
000001
000000
100000
001000
000100
000001
,  // measure 114
002000
000001
003001
000000
,  // measure 115
100000
000000
000010
000000
001000
000100
001000
000100
,  // measure 116
001000
000000
000001
000000
010000
000010
010000
000010
,  // measure 117
010000
000000
010100
000000
,  // measure 118
000101
000000
001100
000000
,  // measure 119
200002
000000
000000
000000
,  // measure 120
000000
000000
000000
000000
000000
000000
000000
000000
000000
300003
000000
000000
001100
000000
000000
000000
000000
000000
000000
000000
000001
000000
000000
000000
000000
000000
000000
000000
000100
000000
000000
000000
,  // measure 121
000010
000100
000010
010000
000000
000100
000000
100000
,  // measure 122
000100
100000
000100
001000
000000
000010
000000
010000
,  // measure 123
000010
010000
000010
000200
000000
000010
000000
000310
,  // measure 124
000000
000000
000000
001000
000000
100000
000000
001000
,  // measure 125
100000
001000
000100
000001
000000
010000
000000
000010
,  // measure 126
000100
000010
000100
000010
000000
010000
000000
000100
,  // measure 127
001000
000100
001000
000100
000000
100001
000000
001100
,  // measure 128
000000
000000
000000
100001
000000
100000
000000
001000
,  // measure 129
010000
001000
010000
001000
000000
000100
000000
000001
,  // measure 130
000010
000001
000010
000001
000000
100000
000000
000100
,  // measure 131
100000
000100
100000
000100
000000
001000
000000
100001
,  // measure 132
000000
000000
000000
001000
000000
000010
000000
001000
,  // measure 133
000100
001000
000100
001000
000000
000100
000000
010000
,  // measure 134
000010
010000
000010
010000
000000
000001
000000
100000
,  // measure 135
001000
100000
001000
100000
000000
001100
000000
100001
,  // measure 136
000000
000000
000000
100010
000000
100000
000000
000100
,  // measure 137
001000
000100
000000
001100
000000
001000
000000
001001
,  // measure 138
000000
000001
000000
100001
000000
100000
000000
000001
,  // measure 139
010000
000001
000000
010001
000000
010000
000000
010010
,  // measure 140
000000
000010
000000
100010
000000
100000
000000
000100
,  // measure 141
100000
000100
000000
100100
000000
100000
000000
100100
,  // measure 142
000000
000000
000000
001100
000000
000000
000000
000001
,  // measure 143
100000
000010
100000
000001
000100
000001
010000
000001
,  // measure 144
000000
000000
000000
100001
000000
000000
000000
001000
,  // measure 145
000100
001000
000000
001100
000000
000001
100000
000001
,  // measure 146
000000
000000
000000
101000
000000
000000
000000
000100
,  // measure 147
000001
000100
000000
000010
000000
000000
000000
001000
,  // measure 148
000000
000000
000000
100100
000000
000000
000000
000000
,  // measure 149
000000
000000
000000
001001
000000
000000
000000
000000
,  // measure 150
000000
000000
000000
101000
000000
000000
000000
001100
,  // measure 151
000000
000000
000000
000101
000000
010001
000000
010010
,  // measure 152
000000
100010
000000
200002
000000
000000
000000
000000
,  // measure 153
000000
000000
000000
300003
000000
000000
000000
000000
;
