#TITLE:LOVE THIS FEELIN';
#SUBTITLE:(Voltage special);
#ARTIST:Chang Ma;
#TITLETRANSLIT:;
#SUBTITLETRANSLIT:;
#ARTISTTRANSLIT:;
#GENRE:;
#CREDIT:;
#BANNER:LOVE THIS FEELIN (Voltage special).png;
#BACKGROUND:LOVE THIS FEELIN' (Voltage special)-bg.png;
#LYRICSPATH:;
#CDTITLE:;
#MUSIC:LOVE THIS FEELIN' (voltage special).ogg;
#OFFSET:0.000000;
#SAMPLESTART:68.133575;
#SAMPLELENGTH:14.959999;
#SELECTABLE:YES;
#BPMS:0.000000=47.500000
,18.000000=95.300003
,40.000000=190.199997
,140.000000=380.399994
;
#STOPS:
;
#BGCHANGES:;
#KEYSOUNDS:;
#ATTACKS:;

//---------------dance-single - ----------------
#NOTES:
     dance-single:
     :
     Challenge:
     12:
     0.536925,1.276515,0.599642,0.128495,0.251636,351.000000,295.000000,56.000000,12.000000,0.000000,0.000000,0.536925,1.276515,0.599642,0.128495,0.251636,351.000000,295.000000,56.000000,12.000000,0.000000,0.000000:
0000
0000
0000
0000
,
0000
0000
0000
0000
0000
0000
0000
0000
0001
0010
0000
0100
1000
0000
0100
0010
,
0000
0000
0001
0000
0010
0000
0000
0000
0001
1000
0001
1000
0100
0010
0100
0010
0001
0000
0100
0000
0000
0000
0010
0000
1000
0000
0000
0000
0010
0000
0100
0000
,
0000
0000
0001
0000
0100
0000
0000
0000
0001
0010
0001
0010
0100
1000
0100
1000
0001
0000
1000
0000
0000
0000
0010
0000
0100
0000
0000
0000
0001
0000
1000
0000
,
0000
0000
0100
0000
0010
0000
0000
0000
0001
1000
0001
1000
0001
1000
0001
1000
0000
0000
0000
0000
0000
0000
0010
0000
0100
0000
0000
0000
0000
0000
0100
0000
,
0001
0000
0000
0001
0000
0000
0001
0000
0100
0000
0000
0000
0000
0000
0000
0000
0010
0000
0000
0000
1001
0000
0000
0000
0110
0000
0000
0000
1000
0000
0000
0000
,
0110
0000
1001
0000
0100
0000
0010
0000
0002
0000
0000
0100
0000
0000
0203
0000
,
0000
0000
0000
0000
0000
0000
0000
0000
0310
0000
0000
0000
0000
0000
0000
0000
0001
0000
0000
0000
1000
0000
0100
0000
0010
0100
0010
0000
0100
1000
0100
0000
,
0010
0000
0001
0000
0110
0000
1000
0000
0200
0000
0000
0310
0000
0000
0002
0000
,
0000
0000
0103
0000
0000
0000
0000
0000
0110
0000
0000
0110
0000
0000
0110
0000
,
0000
0000
0000
0000
,
1000
0000
0101
0000
0001
1000
0001
0000
,
1000
0110
1001
0110
,
0000
0000
0001
1000
0001
0000
0000
0000
,
1000
0000
1000
0010
0000
0000
0100
0000
0010
0000
0000
0000
,
1001
0110
1001
0000
,
0001
0010
0100
0000
1000
0000
0000
0000
,
0110
0000
1001
0000
0001
0100
0010
0000
,
0110
1001
0110
1001
,
1000
0000
0100
0010
0001
0000
1000
0000
,
0110
1001
0110
1001
,
0000
0000
0010
0100
0010
0000
0100
0000
,
0001
0100
0010
0000
1000
0000
0100
0010
,
0001
0000
1000
0001
1000
0001
0000
0000
,
1000
0001
0110
1001
,
0110
0000
1001
0000
0010
1000
0010
0000
,
0100
0001
0100
0000
1001
0000
0110
0000
,
0001
0001
0000
0000
1000
1000
0000
0000
,
0001
0001
0000
0000
1000
1000
0000
0000
,
0100
1000
0100
0010
0100
0001
0100
0010
,
0100
1000
0001
0010
0100
0010
1000
0010
,
0100
0010
0000
0000
0100
0010
0000
0000
,
0100
0010
0000
0000
2002
0000
3003
0000
,
1000
0100
0001
0100
1000
0100
0001
0100
,
1000
0001
1000
0110
,
0001
0000
0100
0001
0100
0000
0001
0000
,
1000
0100
1000
0001
,
0100
0000
0000
0000
0100
0000
0000
0000
0100
0000
0000
0000
,
0220
0330
0000
0000
,
0001
1000
0010
1000
,
0010
0000
0100
0010
0100
0000
0000
0000
,
0001
1000
0100
0000
,
0011
0000
1100
0000
,
2002
3003
0000
0000
,
0010
0000
0100
0010
0100
0000
0010
0000
,
0100
0000
0001
0000
1000
0100
1000
0000
,
0100
0010
0001
0000
1000
0000
0000
0000
,
0000
0001
0000
0000
,
0110
0000
0000
1000
,
0000
0000
0110
0000
,
0000
0001
1000
0000
,
0101
0000
0010
0000
,
1100
0000
0000
0000
1000
0001
1000
0000
,
0001
0100
0010
1000
,
0001
0000
0000
0000
,
1000
0100
1000
0001
,
0100
0000
0010
0100
0010
0000
0000
0000
,
0100
0000
0000
0000
0000
0001
0000
0000
0000
0000
0100
0000
0000
0000
0000
0000
,
0110
0000
0000
0000
,
1001
0000
0010
0000
,
1100
0000
0000
0000
0001
1000
0001
0000
,
0100
0010
1000
0001
,
1000
0000
0000
0000
,
0100
1001
0000
0000
,
0101
0000
0000
0011
,
0000
0000
1100
0000
,
0000
0110
0000
0000
,
1001
0000
0000
0101
,
0000
0000
1010
0000
,
0000
1100
0000
0000
,
0011
0000
0000
0110
,
0000
0000
2002
0000
,
0000
3003
0000
0000
;

//---------------dance-double - ----------------
#NOTES:
     dance-double:
     :
     Challenge:
     12:
     0.587405,1.276515,0.524687,0.042832,0.289113,384.000000,335.000000,49.000000,4.000000,0.000000,0.000000,0.587405,1.276515,0.524687,0.042832,0.289113,384.000000,335.000000,49.000000,4.000000,0.000000,0.000000:
00000000
00000000
00000000
00000000
,
00000000
00000000
00000000
00000000
00000000
00000000
00000000
00000000
10000000
00010000
00000000
01000000
00100000
00000000
00010000
00001000
,
00000000
00000000
00000100
00000000
00000010
00000000
00000000
00000000
00001000
00000001
00001000
00000001
00000010
00000100
00000010
00000100
00000001
00000000
00000100
00000000
00000000
00000000
00000010
00000000
00001000
00000000
00000000
00000000
00010000
00000000
00001000
00000000
,
00000000
00000000
00100000
00000000
00010000
00000000
00000000
00000000
10000000
00010000
10000000
00010000
01000000
00100000
01000000
00100000
10000000
00000000
00100000
00000000
00000000
00000000
01000000
00000000
00010000
00000000
00000000
00000000
10000000
00000000
01000000
00000000
,
00000000
00000000
00100000
00000000
00010000
00000000
00000000
00000000
00001000
00010000
00001000
00010000
00001000
00000100
00001000
00000100
00000010
00000000
00000000
00000000
00000000
00000000
00000010
00000000
00000100
00000000
00000000
00000000
00001000
00000000
00000001
00000000
,
00000100
00000000
00000000
00000010
00000000
00000000
00000100
00000000
00000001
00000000
00000000
00000000
00000000
00000000
00000000
00000000
00001000
00000000
00000001
00000000
00001000
00000000
00000000
00000000
00000100
00000000
00000000
00000000
00011000
00000000
00000000
00000000
,
00100000
00000000
00011000
00000000
00000000
00000000
00000000
00000000
00110000
00000000
00000000
00100000
00000000
00000000
11000000
00000000
,
00000000
00000000
01000000
00000000
00000000
00000000
00000000
00000000
10000000
00000000
00010000
00000000
10000000
00000000
00010000
00000000
01000000
00000000
00000000
00000000
00100000
00000000
01000000
00000000
00001000
00010000
00001000
00000000
00010000
00001000
00010000
00000000
,
00000100
00001000
00000100
00000010
00000001
00001000
00000000
00000000
00000110
00000000
00000000
00000110
00000000
00000000
00000110
00000000
,
00000001
00000000
00001000
00000000
00000001
00000000
00000000
00000000
00001100
00000000
00000000
00001100
00000000
00000000
00001100
00000000
,
00000000
00000000
00000000
00000000
,
00010000
00001000
00010000
00000000
00001000
00100000
00010000
00000000
,
10000000
00010000
10000000
00000000
01100000
00000000
10010000
00000000
,
10000000
00000000
00000000
00000000
10000000
00000000
01000000
00000000
00000000
00100000
00000000
00000000
00001000
00000000
00000000
00010000
00000000
00000000
00000000
00000000
00000000
00000000
00000000
00000000
,
00010000
00000000
00010000
00000100
00000000
00000000
00000010
00000000
00000100
00000000
00000000
00000000
,
00001001
00000000
00000010
00000100
00000010
00000100
00000001
00000000
,
00000110
00000000
00001000
00000000
00000100
00010000
00000100
00000000
,
00010000
01000000
10000000
00000000
00010000
10000000
00010000
00000000
,
01000000
00011000
00000100
00001001
,
00000010
00000000
00000000
00000000
00000100
00000000
00000000
00000000
00000010
00000000
00000000
00000000
00000100
00000000
00000000
00000000
00000001
00000000
00000000
00000000
00000000
00001000
00000000
00000000
00000000
00000000
00000000
00000000
00000000
00000000
00000000
00000000
,
00000100
00011000
00100000
00011000
,
00100000
00000000
00010000
10000000
00010000
10000000
00000000
00000000
,
01000000
11000000
10000000
10010000
,
00010000
01000000
00010000
00000000
01000000
00001000
01000000
00000000
,
00001000
00011000
00010000
00010100
,
00001000
00000000
00001000
00000001
00001000
00000001
00000100
00000000
,
00000110
00001001
00000110
00001001
,
00000100
00000100
00000000
00000000
00010000
00010000
00000000
00000000
,
00001000
00001000
00000000
00000000
00010000
00010000
00000000
00000000
,
00001000
00010000
00001000
00100000
00001000
00010000
00001000
00000000
,
00010000
00001000
00010000
00000100
00010000
00001000
00010000
00000000
,
00011000
00011000
00000000
00000000
00011000
00011000
00000000
00000000
,
00011000
00011000
00000000
00000000
00022000
00000000
00033000
00000000
,
00100000
00010000
00100000
10000000
00100000
00010000
01000000
10000000
,
01000000
00010000
01000000
10000000
01000000
00000000
01100000
00000000
,
00010000
00000000
00001000
00010000
00001000
00000000
00010000
00000000
,
00000100
00000000
00001000
00000001
00001000
00000000
00000001
00000000
,
00000100
00000000
00000000
00000000
00000000
00000010
00000000
00000000
00000000
00000000
00000100
00000000
00000000
00000000
00000000
00000000
,
00000110
00000000
00000001
00001000
,
00000001
00001000
00000100
00000000
,
00011000
00000000
00100000
00000000
,
01000000
00000000
01000000
00100000
,
01000000
10000000
00010000
00000000
,
10000000
00000000
00100000
10000000
00100000
00000000
01000000
00000000
,
00010000
01000000
00010000
00000000
01000000
00000000
00001000
00000000
,
00010000
00001000
00010000
00000000
00000100
00000000
00001000
00000000
,
00000100
00000010
00000001
00000000
,
00000000
00000100
00000000
00000000
,
00001001
00000000
00000000
00000010
,
00000000
00000000
00010100
00000000
,
00000000
00001000
00010000
00000000
,
00001000
00000000
00010000
00001000
00010000
00000000
00100000
00000000
,
01000000
00000000
10000000
00000000
01000000
00100000
01000000
00000000
,
00010000
10000000
01000000
00100000
,
01000000
10000000
00010000
00100000
,
00001000
00000000
00010000
00000000
00001000
00010000
00001000
00000000
,
00010000
00000000
00000100
00000000
00001000
00000001
00001000
00000000
,
00000010
00000000
00000101
00000000
,
00000010
00000000
00001100
00000000
,
00000100
00001000
00000100
00000000
00010000
00000000
00001000
00000000
,
00010000
00001000
00010000
00000000
00001000
00000000
00100000
00000000
,
00010000
10000000
00010000
01000000
,
00100000
10000000
00010000
10000000
,
01000000
00100000
00000000
00000000
,
00011000
00000000
00000000
00000100
,
00000000
00000000
00011000
00000000
,
00000000
00010000
00000000
00000000
,
00001100
00000000
00000000
00000011
,
00000000
00000000
00000110
00000000
,
00000000
00001100
00000000
00000000
,
00011000
00000000
00000000
00110000
,
00000000
00000000
00022000
00000000
,
00000000
00033000
00000000
00000000
;

//---------------dance-solo - ----------------
#NOTES:
     dance-solo:
     :
     Challenge:
     12:
     0.576697,1.276515,0.492563,0.053539,0.289113,377.000000,331.000000,46.000000,5.000000,0.000000,0.000000,0.576697,1.276515,0.492563,0.053539,0.289113,377.000000,331.000000,46.000000,5.000000,0.000000,0.000000:
// measure 0
000000
000000
000000
000000
,  // measure 1
000000
000000
000000
000000
000000
000000
000000
000000
010000
100000
000000
000010
000001
000000
010000
100000
,  // measure 2
000000
000000
000010
000000
000001
000000
000000
000000
100000
001000
100000
001000
000100
001000
000100
001000
000100
000000
000001
000000
000000
000000
100000
000000
010000
000000
000000
000000
001000
000000
000010
000000
,  // measure 3
000000
000000
010000
000000
000100
000000
000000
000000
100000
000010
100000
000010
010000
000001
010000
000001
000100
000000
001000
000000
000000
000000
001000
000000
000100
000000
000000
000000
000001
000000
100000
000000
,  // measure 4
000000
000000
100000
000000
000001
000000
000000
000000
100000
000100
100000
000100
001000
000001
001000
000001
100000
000000
000000
000000
000000
000000
100000
000000
000001
000000
000000
000000
000001
000000
001000
000000
,  // measure 5
000010
000000
000000
000010
000000
000000
000010
000000
001000
000000
000000
000000
000000
000000
000000
000000
000100
000000
100000
000000
000100
000000
000000
000000
001000
000000
000000
000000
100001
000000
000000
000000
,  // measure 6
001100
000000
100001
000000
010000
000010
010000
000000
000020
000000
000000
000031
000000
000000
020000
000000
,  // measure 7
000000
000000
000000
000000
130000
000000
000000
000000
000100
000000
000000
000000
001000
000000
000100
000000
001000
000000
000000
000000
000010
000000
001000
000000
000010
100000
000010
000000
010000
000001
010000
000000
,  // measure 8
001000
000000
000100
000000
000001
000000
100000
000000
000010
010000
000010
000000
001000
000000
000100
000000
001000
000000
000000
000000
000000
000000
010010
000000
000000
000000
000000
000000
010010
000000
000000
000000
,  // measure 9
000000
000000
001100
000000
001100
000000
000000
000000
001100
000000
000000
001100
000000
000000
001100
000000
,  // measure 10
000000
000000
000000
000000
,  // measure 11
100000
001000
100000
000000
000001
000010
000001
000000
,  // measure 12
010000
000001
001100
100001
,  // measure 13
000010
010000
000010
100000
000010
001000
000000
000000
,  // measure 14
001000
000000
001000
000100
000000
000000
001000
000000
000100
000000
000000
000000
,  // measure 15
100000
000001
010000
000000
001000
000000
001100
000000
,  // measure 16
000001
100000
000100
000000
001100
000000
100001
000000
,  // measure 17
010000
000000
010000
000010
010000
000100
001000
000000
,  // measure 18
001100
100001
001100
100001
,  // measure 19
000001
000000
000001
000010
000001
010000
000000
000000
,  // measure 20
000100
001100
100001
001100
,  // measure 21
100000
000000
100000
000100
001000
000100
000000
000000
,  // measure 22
001010
001100
011000
001100
,  // measure 23
000001
100000
000001
000000
100000
000001
100000
000000
,  // measure 24
000010
001100
010000
001100
,  // measure 25
100001
000000
000010
000100
000010
010000
000000
000000
,  // measure 26
000010
010000
000010
000000
001100
000000
100001
000000
,  // measure 27
000001
000001
000000
000000
100000
100000
000000
000000
,  // measure 28
000001
000001
000000
000000
100000
100000
000000
000000
,  // measure 29
000001
010000
001000
010000
000001
010000
000010
010000
,  // measure 30
000100
010000
000100
100000
000100
001000
000100
100000
,  // measure 31
000001
000001
000000
000000
010000
010000
000000
000000
,  // measure 32
000010
000010
000000
000000
100000
100000
000000
000000
,  // measure 33
000001
000100
001000
000100
100000
000100
001000
000100
,  // measure 34
000001
001000
000100
001000
100000
001000
000100
001000
,  // measure 35
000001
100000
001000
000000
,  // measure 36
010000
001000
010000
000000
000001
000000
100000
000000
,  // measure 37
000010
000000
000000
000000
000010
000000
000000
000000
000010
000000
000000
000000
,  // measure 38
002000
000000
003000
000000
,  // measure 39
000001
100000
000010
010000
,  // measure 40
000010
010000
000010
000000
010000
000000
000000
000000
,  // measure 41
001000
000000
100000
000000
,  // measure 42
000001
000000
001000
000000
,  // measure 43
000100
100000
000100
000000
001000
000000
000010
000000
,  // measure 44
100000
000000
000010
000100
000010
000000
010000
000000
,  // measure 45
000001
000100
001000
100000
,  // measure 46
000001
000000
100000
000001
100000
000000
000000
000000
,  // measure 47
000000
000100
000000
000000
,  // measure 48
001010
000000
000000
000100
,  // measure 49
000000
000000
011000
000000
,  // measure 50
000000
000001
100000
000000
,  // measure 51
000001
001000
000001
100000
,  // measure 52
001000
100000
000010
010000
,  // measure 53
000100
001000
000100
000000
001000
000000
000001
000000
,  // measure 54
100000
000000
000000
000100
,  // measure 55
001000
000010
001000
000100
,  // measure 56
001000
000000
001000
001000
,  // measure 57
000100
000000
000000
100000
000000
000000
000001
000000
,  // measure 58
100000
000000
000000
000000
,  // measure 59
100000
000000
000001
000000
010000
000001
010000
000000
,  // measure 60
000010
100000
000100
100000
,  // measure 61
000010
100000
000010
000000
010000
000000
000001
000000
,  // measure 62
010000
000010
010000
010010
,  // measure 63
000000
100001
000000
000000
,  // measure 64
010001
000000
000000
001100
,  // measure 65
000000
000000
101000
000000
,  // measure 66
000000
001001
000000
000000
,  // measure 67
010001
000000
000000
100010
,  // measure 68
000000
000000
001100
000000
,  // measure 69
000000
100001
000000
000000
,  // measure 70
010100
000000
000000
001001
,  // measure 71
000000
000000
200002
000000
,  // measure 72
000000
300003
000000
000000
;
