#TITLE:0/1 ANGEL;
#SUBTITLE:(Chaos special);
#ARTIST:V.C.O ft. Alt;
#TITLETRANSLIT:;
#SUBTITLETRANSLIT:;
#ARTISTTRANSLIT:;
#GENRE:;
#CREDIT:;
#BANNER:0 1 Angel (Chaos special).png;
#BACKGROUND:background.png;
#LYRICSPATH:;
#CDTITLE:;
#MUSIC:0_1 Angel.ogg;
#OFFSET:0.355000;
#SAMPLESTART:54.502144;
#SAMPLELENGTH:13.000000;
#SELECTABLE:YES;
#DISPLAYBPM:140.000000;
#BPMS:0.000000=140.000000
;
#STOPS:
;
#BGCHANGES:;
#KEYSOUNDS:;
#ATTACKS:;

//---------------dance-single - ----------------
#NOTES:
     dance-single:
     :
     Challenge:
     9:
     0.680028,0.772189,0.081896,0.061422,0.716589,465.000000,457.000000,8.000000,6.000000,0.000000,0.000000,0.680028,0.772189,0.081896,0.061422,0.716589,465.000000,457.000000,8.000000,6.000000,0.000000,0.000000:
// measure 0
0000
0000
0000
0000
,  // measure 1
0000
0000
0000
0000
,  // measure 2
0000
0000
0000
0000
,  // measure 3
0000
0000
0000
0000
,  // measure 4
0000
0000
0000
0000
,  // measure 5
0000
0000
0000
0000
,  // measure 6
0001
0000
0000
0001
1000
0000
0100
0000
1000
0100
1000
0000
0001
0000
0100
0000
,  // measure 7
0010
0000
0000
0010
1000
0000
0001
0000
0010
0001
0010
0000
0001
0000
1000
0000
,  // measure 8
0100
0000
0000
0100
0010
0000
0001
0000
0100
0010
0100
0000
0010
0000
1000
0000
,  // measure 9
0001
1000
0001
1000
0001
0000
1000
0001
1000
0001
1000
0000
0010
0000
0010
0000
,  // measure 10
1000
0000
0000
1000
0001
0000
0010
0000
0001
0010
0001
0000
1000
0000
0100
0000
,  // measure 11
0010
0000
0000
0010
0001
0000
0010
0000
0100
1000
0100
0000
1000
0000
0001
0000
,  // measure 12
0100
0000
0000
0100
0010
0000
1000
0000
0001
1000
0001
0000
0100
0000
0010
0000
,  // measure 13
1000
0000
0000
1000
0001
0000
0000
0001
0100
0000
0000
0100
0010
0100
0010
0000
,  // measure 14
1000
0000
0000
1000
0100
0000
0000
0010
0001
0000
0001
0000
0100
0001
0100
0000
,  // measure 15
0001
0000
0000
0001
0010
0000
0000
0100
1000
0000
1000
0000
0100
1000
0100
0000
,  // measure 16
0010
0000
0000
0010
0001
0000
0000
0001
0100
0000
0100
0000
0010
1000
0010
0000
,  // measure 17
0100
0001
0100
0001
0100
0000
0001
1000
0001
1000
0001
0000
1000
0100
1000
0000
,  // measure 18
0010
0000
0000
0010
1000
0000
1000
0000
0001
0100
0001
0000
1000
0000
0000
1000
,  // measure 19
0100
0000
0000
0100
0010
0000
0010
0000
0001
0010
0001
0010
0001
0000
0000
0000
,  // measure 20
1000
0100
1000
0100
1000
0000
0001
1000
0001
0000
1000
0001
1000
0000
0001
0010
,  // measure 21
0001
0010
0001
0000
1000
0100
1000
0100
1000
0000
0001
1000
0001
1000
0001
0000
,  // measure 22
0010
0000
0000
0010
0001
0000
0000
0001
0100
0000
0000
0100
0010
0000
0000
0010
,  // measure 23
1000
0000
0000
1000
0100
0000
0010
0000
0001
0000
1000
0000
0001
0000
0010
0000
,  // measure 24
0100
0000
0000
0100
1000
0000
0000
1000
0001
0000
0000
0001
0010
0000
0000
0010
,  // measure 25
0100
0000
0000
0100
1000
0000
0000
1000
0100
0000
0000
0100
1000
0000
0000
1000
,  // measure 26
0010
0000
0000
0010
1000
0000
0000
1000
0010
0000
0000
0010
0100
0000
0000
0100
,  // measure 27
0010
0000
0000
0010
0001
0000
0000
0001
0010
0000
1000
0000
0010
0000
1000
0000
,  // measure 28
0010
0000
0000
0010
0100
0000
0000
0100
0001
0000
0000
0001
0010
0000
0000
0010
,  // measure 29
0100
0000
0000
0100
1000
0000
0000
1000
0001
0000
0000
0001
0200
0000
0000
0000
,  // measure 30
0010
0010
0010
0310
,  // measure 31
0100
0000
0000
0100
0010
0000
0010
0100
0000
0100
0010
0000
0010
0000
1000
0000
,  // measure 32
0020
0000
0000
0000
1030
0001
1000
0000
0010
0000
0000
0010
1000
0000
0001
1000
,  // measure 33
0001
0000
1000
0000
0010
0000
0000
0010
0100
0000
0000
0100
0001
0100
0001
0000
,  // measure 34
1000
0001
1000
0000
0010
0000
0000
0000
0101
0000
0000
0000
1000
0000
0100
0000
,  // measure 35
0010
0001
0010
0000
0001
0000
1000
0000
0001
0000
0000
0001
1000
0000
0000
0000
,  // measure 36
0020
0000
0000
0000
1030
0100
1000
0000
0001
0000
0000
0001
0010
0000
0100
0010
,  // measure 37
0100
0000
0010
0000
0001
0000
0000
0001
1000
0000
0000
1000
0100
1000
0100
0000
,  // measure 38
0010
0001
0010
0000
0100
0000
0000
0000
0011
0000
0000
0000
0001
0000
1000
0000
,  // measure 39
0001
0100
0001
0000
1000
0010
1000
0000
0000
0000
0010
0100
0010
0100
0010
0000
,  // measure 40
2000
0000
0000
0000
3001
0000
0010
0001
0010
0000
0001
0000
0100
0010
0100
0000
,  // measure 41
0010
0000
1000
0000
0001
1000
0001
0000
1000
0001
1000
0000
0010
1000
0001
0000
,  // measure 42
0100
0100
0020
0000
0130
0000
0001
0010
,  // measure 43
0200
0000
1000
1300
0000
1000
0100
0000
,  // measure 44
0011
0000
0000
0110
0000
0000
1100
0000
,  // measure 45
0001
1000
0001
0000
0100
0000
0010
0000
1000
0001
1000
0000
0010
0000
0100
0000
,  // measure 46
1010
0000
0000
0110
0000
0000
0101
0000
,  // measure 47
0001
1000
0001
0000
0100
0000
0010
0000
1000
0001
1000
0000
0010
0000
0100
0000
,  // measure 48
0001
0010
0001
0010
0001
0000
0100
0000
0010
1000
0010
1000
0010
0000
1000
0000
,  // measure 49
0100
1000
0100
1000
0100
0000
0010
0000
0001
1000
0001
1000
0001
0000
1000
0000
,  // measure 50
1000
0100
1000
0100
1000
0000
0001
0000
0001
0010
0001
0010
0001
0000
0100
0000
,  // measure 51
0100
0010
0100
0010
0100
0000
0010
0000
0010
0100
0010
0100
0010
0000
1000
0000
,  // measure 52
0001
0010
0100
1000
0001
0000
1000
0000
1000
0100
0010
0001
1000
0000
0001
0000
,  // measure 53
1000
0010
0100
0001
1000
0000
1000
0000
0001
0100
0010
1000
0001
0000
0001
0000
,  // measure 54
1000
0001
1000
0001
0010
0000
0010
0000
0001
1000
0001
1000
0010
0000
0010
0000
,  // measure 55
0100
0010
0100
0000
0010
0100
0010
0000
0100
0010
0100
0000
0010
0100
0010
0000
;

//---------------dance-double - ----------------
#NOTES:
     dance-double:
     :
     Challenge:
     12:
     0.693190,0.741926,0.000000,0.030711,0.783129,474.000000,474.000000,0.000000,3.000000,0.000000,0.000000,0.693190,0.741926,0.000000,0.030711,0.783129,474.000000,474.000000,0.000000,3.000000,0.000000,0.000000:
00000000
00000000
00000000
00000000
,
00000000
00000000
00000000
00000000
,
00000000
00000000
00000000
00000000
,
00000000
00000000
00000000
00000000
,
00000000
00000000
00000000
00000000
,
00000000
00000000
00000000
00000000
,
10000000
00000000
00000000
10000000
01000000
00000000
00100000
00000000
00001000
00010000
00001000
00000000
00010000
00000000
00000100
00000010
,
00000001
00000000
00000000
00000001
00000010
00000000
00000100
00000000
00010000
00001000
00010000
00000000
00001000
00000000
00100000
01000000
,
10000000
00000000
00000000
10000000
00010000
00000000
01000000
00000000
00100000
01000000
00100000
00000000
01000000
00000000
00001000
00000000
,
00010000
00001000
00010000
00001000
00010000
00000000
00001000
00010000
00001000
00010000
00001000
00000000
00010000
00000000
00001000
00000000
,
00010000
00000000
00000000
00010000
00000100
00000000
00000010
00000000
00000001
00001000
00000001
00000000
00000100
00000000
00001000
00010000
,
00001000
00000000
00000000
00001000
00100000
00000000
01000000
00000000
00100000
00010000
00100000
00000000
01000000
00000000
10000000
01000000
,
10000000
00000000
00000000
10000000
00010000
00000000
00100000
00000000
00001000
00010000
00001000
00000000
00010000
00000000
00000100
00000010
,
00000001
00000000
00000000
00000001
00000010
00000000
00000000
00000010
00000100
00000000
00000000
00000100
00001000
00000000
00000000
00001000
,
00000100
00000000
00000000
00000100
00010000
00000000
00001000
00000000
00100000
00010000
00100000
00000000
00010000
00000000
10000000
00010000
,
10000000
00000000
00000000
10000000
00100000
00000000
01000000
00000000
00010000
00100000
00010000
00000000
00100000
00000000
00001000
00010000
,
00001000
00000000
00000000
00001000
00010000
00000000
00000100
00000000
00001000
00000001
00001000
00000000
00000010
00000000
00000100
00000010
,
00000100
00000000
00000010
00000100
00000010
00000000
00000100
00000010
00000100
00000000
00000010
00000100
00000010
00000000
00000100
00000000
,
00000001
00000000
00000000
00000001
00000100
00000000
00000010
00000000
00010000
00001000
00010000
00000000
00001000
00000000
00100000
00010000
,
00100000
00000000
01000000
00000000
10000000
00000000
01000000
00100000
01000000
00000000
00100000
00000000
00010000
00000000
00100000
00000000
,
00010000
00000000
00000000
00010000
00100000
00000000
00001000
00010000
00001000
00000000
00010000
00000000
00001000
00010000
00001000
00000000
,
00010000
00000000
00000100
00000000
00001000
00000000
00000100
00000000
00000010
00000100
00000010
00000000
00000000
00000000
00000000
00000000
,
00000001
00000000
00000000
00000001
00000010
00000000
00000000
00000010
00000100
00000000
00000000
00000100
00010000
00000000
00000000
00010000
,
00001000
00000000
00000000
00001000
00100000
00000000
00000000
00100000
00010000
00000000
10000000
00000000
00010000
00000000
10000000
00000000
,
00010000
00000000
00000000
00010000
10000000
00000000
00000000
10000000
01000000
00000000
00000000
01000000
00100000
00000000
00000000
00100000
,
00010000
00000000
00000000
10000000
00010000
00000000
00000000
10000000
00010000
00000000
00000000
00000000
20000000
00000000
00000000
00000000
,
31000000
00000000
00000000
01000000
00100000
00000000
00000000
00100000
00001000
00000000
00000000
00001000
00010000
00000000
00000000
00010000
,
00001000
00000000
00010000
00000000
00001000
00000000
00010000
00000000
00000000
00010000
00000100
00000000
00000010
00000000
00000002
00000000
,
00000000
00000000
00000000
00000000
00000010
00000000
00000000
00000000
00000013
00000000
00000000
00000000
00000100
00001000
00000000
00000000
,
00001000
00000100
00000000
00000000
00000100
00010000
00000000
00000000
00010000
00000000
00001000
00000000
00000000
00000000
00200000
00000000
,
00000000
00000000
00000000
00000000
01000000
00000000
01000000
00000000
01300000
00000000
00000000
00000000
10000000
00000000
00000000
10000000
,
01000000
00000000
00000000
00000000
10000000
00000000
10000000
00010000
00000000
00010000
01000000
00000000
01000000
00010000
10000000
00000000
,
00010000
00000000
00000000
00010000
00100000
00010000
00100000
00000000
00001000
00000000
00010000
00001000
00010000
00000000
00000100
00000000
,
00000000
00000100
00001000
00000100
00001000
00000000
00000000
00001000
00000100
00000000
00000000
00000000
00000010
00000001
00000010
00000000
,
00000001
00001000
00000001
00000000
00001000
00000000
00000000
00001000
00000100
00000000
00000000
00000000
01000000
00010000
01000000
00000000
,
00010000
10000000
00010000
00000000
10000000
00000000
01000000
00000000
00100000
00000000
00000000
00100000
00010000
00000000
00000000
00000000
,
10000000
00000000
00000000
10000000
00010000
10000000
00010000
00000000
00100000
00000000
00000000
00100000
00001000
00000000
00010000
00001000
,
00010000
00001000
00010000
00000000
00000010
00000000
00000000
00000010
00000100
00000000
00000000
00000000
00000001
00001000
00000001
00000000
,
00001000
00000100
00000010
00000000
00000001
00000000
00000000
00000001
00001000
00000000
00000000
00000000
00000100
00001000
00000100
00000000
,
00010000
00000000
00001000
00000000
00010000
00000000
00001000
00000000
00100000
00000000
00000000
00100000
00010000
00100000
00010000
00000000
,
10000000
00000000
00000000
10000000
01000000
00000000
00100000
00000000
00010000
00000000
00000000
00010000
00100000
00000000
01000000
00000000
,
10000000
00010000
10000000
00000000
00010000
00000000
00100000
00000000
00001000
00010000
00001000
00000000
00010000
00001000
00010000
00000000
,
00000100
00000010
00000100
00000000
00000010
00000000
00000000
00000010
00000001
00000000
00000000
00000001
00001000
00000001
00001000
00000000
,
00000010
00000000
00000000
00000010
00000100
00000010
00000100
00000000
00000010
00000100
00000010
00000100
00000010
00000000
00000000
00000000
,
00010000
00001000
00010000
00001000
00010000
00000000
00001000
00010000
00001000
00010000
00001000
00000000
00010000
00000000
00000000
00010000
,
00001000
00000000
00000000
00001000
00100000
00000000
00000000
00100000
01000000
00000000
00000000
01000000
10000000
01000000
10000000
00000000
,
00010000
00100000
00010000
00100000
00010000
00000000
10000000
01000000
10000000
01000000
10000000
00000000
00010000
00000000
00000000
00010000
,
00100000
00000000
00000000
00100000
00001000
00000000
00000000
00001000
00010000
00001000
00010000
00000000
00001000
00010000
00001000
00000000
,
00010000
00001000
00010000
00000000
00001000
00000000
00010000
00000100
00010000
00000100
00010000
00000000
00000100
00000000
00001000
00000001
,
00001000
00000000
00000001
00000000
00000100
00000000
00000010
00000100
00000010
00000100
00000010
00000100
00000010
00000000
00001000
00000010
,
00001000
00000000
00000100
00000000
00010000
00000000
00001000
00010000
00001000
00010000
00001000
00000000
00100000
00000000
00010000
00100000
,
00010000
00000000
00100000
00010000
00100000
00000000
01000000
10000000
01000000
00010000
01000000
10000000
01000000
00000000
00100000
00000000
,
00010000
10000000
00010000
00000000
10000000
00000000
01000000
00100000
01000000
00000000
00100000
00000000
00010000
00000000
00100000
00010000
,
00100000
00010000
00100000
00000000
00001000
00000000
00010000
00001000
00010000
00000000
00001000
00010000
00001000
00000000
00010000
00000100
,
00001000
00000100
00001000
00000000
00000100
00000000
00000010
00000001
00000010
00000001
00000010
00000001
00000010
00000000
00000100
00001000
,
00000100
00000000
00001000
00000000
00000001
00000000
00000100
00000010
00000100
00000010
00000100
00000000
00000010
00000000
00000000
00000000
;

//---------------dance-solo - ----------------
#NOTES:
     dance-solo:
     :
     Challenge:
     12:
     0.729751,0.741926,0.000000,0.010237,0.803603,499.000000,499.000000,0.000000,1.000000,0.000000,0.000000,0.729751,0.741926,0.000000,0.010237,0.803603,499.000000,499.000000,0.000000,1.000000,0.000000,0.000000:
000000
000000
000000
000000
,
000000
000000
000000
000000
,
000000
000000
000000
000000
,
000000
000000
000000
000000
,
000000
000000
000000
000000
,
000000
000000
000000
000000
,
100000
000000
000000
100000
000100
000000
010000
000000
000010
000100
000010
000000
010000
000000
000001
100000
,
000001
000000
000000
000001
000100
000000
001000
000000
010000
001000
010000
000000
000100
000000
000001
100000
,
000001
000000
000000
000001
100000
000000
000010
000000
000100
001000
000100
000000
001000
000000
010000
000000
,
001000
000100
001000
000100
001000
000000
000100
001000
000100
001000
000100
000000
001000
000100
001000
000100
,
001000
000000
000000
001000
010000
000000
000010
000000
100000
000001
100000
000000
000100
000000
001000
000000
,
000010
000000
000000
000010
000100
000000
001000
000000
100000
000001
100000
000000
000010
000000
100000
000000
,
010000
000000
000000
010000
100000
000000
000100
000000
001000
000100
001000
000000
000010
000000
001000
000000
,
000100
000000
000000
000100
100000
000000
000000
100000
000010
000000
000000
000010
010000
000000
000000
010000
,
000001
000000
000000
000001
000100
000000
001000
000000
010000
001000
010000
000000
000001
000000
100000
000000
,
001000
000000
000000
001000
010000
000000
000010
000000
000100
001000
000100
000000
001000
000000
100000
000000
,
000001
000000
000000
000001
100000
000000
000100
000000
010000
000010
010000
000000
000010
000000
000100
000000
,
000001
100000
000001
100000
000001
000000
100000
000001
100000
000001
100000
000000
000001
100000
000001
100000
,
000001
000000
000000
000001
100000
000000
001000
000000
010000
000001
010000
000000
000001
000000
000010
000000
,
001000
000000
000000
001000
000100
000000
001000
000100
001000
000000
000100
000000
000001
000000
000010
000000
,
000001
000000
000000
000001
010000
000000
000010
000000
100000
000100
100000
000000
000010
000000
010000
000001
,
010000
000000
000010
000000
001000
000000
000100
001000
000100
001000
000100
001000
000100
000000
000000
000000
,
000010
000000
000000
000010
010000
000000
000000
010000
000001
000000
000000
000001
100000
000000
000000
100000
,
001000
000000
000000
001000
000100
000000
000000
000100
000010
000000
010000
000000
000010
000000
100000
000001
,
100000
000001
100000
001000
000100
001000
010000
000001
,
010000
000000
000000
010000
000001
000000
000000
000001
001000
000000
000000
000000
002000
000000
000000
000000
,
003100
000000
000000
000100
010000
000000
000000
010000
001000
000000
000000
001000
000010
000000
000000
000010
,
000001
100000
000001
000000
000000
000001
100000
000000
000000
001000
100000
000000
000001
000000
100000
000010
,
100000
000000
000010
100000
000010
000000
001000
000100
001000
000000
000100
001000
000100
000000
100000
001000
,
000100
000000
000001
000000
000010
000000
000000
000000
001000
000000
000000
001000
010000
000000
000000
010000
,
001000
000000
000000
000000
100000
000001
100000
000000
000001
100000
000001
000000
100000
000001
100000
000000
,
000001
000000
000000
000000
000100
000000
000100
000010
000000
000010
100000
000000
100000
001000
000100
001000
,
000100
000000
000000
000100
000001
000100
000001
000000
000010
000000
000000
000010
001000
000000
010000
001000
,
010000
000000
001000
000000
100000
000001
100000
000000
000001
100000
000001
000000
100000
001000
100000
000000
,
001000
000100
001000
000000
000100
000000
000000
000100
000010
000000
000000
010000
000010
000000
010000
000000
,
000100
100000
000100
000000
001000
000001
001000
000000
000100
000000
000000
000100
001000
000000
000000
000000
,
000010
000000
000000
000010
010000
000010
010000
000000
000001
000000
000000
000001
100000
000001
100000
000000
,
001000
100000
001000
000000
000100
000010
000100
000000
000001
100000
000000
000000
000100
001000
000100
000000
,
010000
000000
000001
010000
000001
000000
000000
000001
000100
000000
001000
000000
100000
000000
000001
100000
,
000001
000000
100000
001000
000100
000000
001000
000000
010000
000000
001000
000000
000100
001000
000100
001000
,
000100
000000
000000
000100
000010
000000
010000
000000
000001
000000
000000
000001
100000
000001
100000
000000
,
000000
100000
000010
100000
000010
000000
000000
000010
010000
000000
000000
010000
000100
000000
001000
000000
,
000010
100000
000010
000000
010000
000000
000000
010000
001000
000000
000000
000000
000100
000000
000001
000000
,
100000
000001
100000
000000
000010
010000
000010
000000
001000
000100
001000
000000
000001
100000
000001
000000
,
100000
001000
100000
001000
100000
000000
000001
000100
000001
000100
000001
000000
010000
000010
010000
000000
,
000010
000000
010000
000010
010000
000000
000010
000000
010000
000010
010000
000000
000010
000000
100000
000000
,
001000
000100
001000
000100
001000
000000
000001
100000
000001
100000
000001
000000
010000
000010
010000
000010
,
010000
000000
000001
000000
100000
000000
001000
000100
001000
000100
001000
000100
001000
000000
000000
001000
,
010000
000000
001000
000000
000100
000000
000001
000010
000001
000000
000100
000000
001000
000000
010000
000001
,
010000
000001
010000
000000
001000
000000
100000
000001
100000
000000
000100
000000
100000
000000
000010
010000
,
000010
000000
000100
000000
001000
000000
000100
000010
000100
000000
000001
000000
100000
000000
000100
001000
,
000100
000000
100000
000000
000100
000000
100000
000001
100000
000001
100000
000001
100000
000000
000001
001000
,
000010
000000
001000
000000
000100
000000
100000
000010
100000
000000
010000
000000
100000
000000
000100
001000
,
000100
001000
000100
000000
010000
000000
000010
010000
000010
000000
000100
000000
001000
000000
000100
000001
,
000100
000001
000100
000000
000010
000000
010000
000010
010000
000010
010000
000010
010000
000000
000001
100000
,
000001
000000
100000
000000
000100
000000
001000
000100
001000
000100
001000
000100
001000
000000
000000
000000
;
