#VERSION:0.83;
#TITLE:money machine;
#SUBTITLE:;
#ARTIST:100 gecs;
#TITLETRANSLIT:;
#SUBTITLETRANSLIT:;
#ARTISTTRANSLIT:;
#GENRE:;
#ORIGIN:;
#CREDIT:;
#BANNER:truck.png;
#BACKGROUND:heylilpissbaby.png;
#PREVIEWVID:;
#JACKET:;
#CDIMAGE:;
#DISCIMAGE:;
#LYRICSPATH:;
#CDTITLE:;
#MUSIC:money machine.mp3;
#OFFSET:-0.079990;
#SAMPLESTART:30.222973;
#SAMPLELENGTH:12.000000;
#SELECTABLE:YES;
#BPMS:0.000=198.000;
#STOPS:;
#DELAYS:;
#WARPS:;
#TIMESIGNATURES:0.000=4=4;
#TICKCOUNTS:0.000=4;
#COMBOS:0.000=1;
#SPEEDS:0.000=1.000=0.000=0;
#SCROLLS:0.000=1.000;
#FAKES:0.000=0.000;
#LABELS:0.000=Song Start;
#BGCHANGES:;
#KEYSOUNDS:;
#ATTACKS:
;

//---------------dance-single - ----------------
#NOTEDATA:;
#CHARTNAME:;
#STEPSTYPE:dance-single;
#DESCRIPTION:;
#CHARTSTYLE:;
#DIFFICULTY:Beginner;
#METER:4;
#RADARVALUES:0.246985,0.352533,0.000000,0.000000,0.000000,176.000000,176.000000,0.000000,0.000000,0.000000,0.000000,0.000000,0.000000,0.000000,0.246985,0.352533,0.000000,0.000000,0.000000,176.000000,176.000000,0.000000,0.000000,0.000000,0.000000,0.000000,0.000000,0.000000;
#CREDIT:;
#NOTES:
0000
0000
0000
0000
,
0000
0000
0000
0000
,
0000
0000
0000
0000
,
0000
0000
0000
0000
,
0000
0000
0000
0000
,
0000
0000
0000
0000
,
0000
0000
0000
0000
,
0000
0000
0000
0000
,
0000
0000
0000
0000
,
0000
0000
1000
0001
,
0001
1000
0100
0100
,
1000
0000
0001
1000
,
0001
0000
0000
0100
,
1000
0000
0001
0010
,
0000
1000
0001
1000
,
0001
1000
0001
1000
,
0001
1000
0000
0100
,
0001
0000
1000
0010
,
0000
1000
0001
0010
,
1000
0100
0100
0001
,
0010
1000
0000
0001
,
1000
0010
0100
0100
,
0001
1000
0001
0010
,
0000
1000
0100
1000
,
0000
0001
0000
0010
,
0100
1000
0000
0001
,
1000
0001
1000
0001
,
0000
0010
0100
0100
,
0100
1000
0000
0001
,
1000
0001
1000
0001
,
0010
0100
1000
0100
,
0001
0000
0010
0010
,
0000
1000
0000
0000
,
0001
0000
0000
0000
,
0000
0010
0000
0000
,
0100
0000
1000
0000
,
0000
0001
0000
0000
,
1000
0000
0000
0000
,
0000
0001
0000
0000
,
0010
0000
0000
1000
,
0000
0001
0000
1000
,
0010
0000
0000
0100
,
0000
1000
0001
0010
,
0010
0010
0001
0100
,
0000
1000
0000
0100
,
0100
0001
0000
0001
,
0000
1000
0001
1000
,
0001
1000
1000
1000
,
1000
0001
0000
0010
,
0100
0000
0000
1000
,
0000
0001
0010
0001
,
0100
1000
0100
1000
,
0000
0001
0000
1000
,
1000
0000
0000
0001
,
0000
0010
0001
0100
,
1000
0100
0000
0100
,
0100
1000
0000
0001
,
1000
0000
0001
0010
,
0000
0100
0000
0000
,
1000
0000
0001
0001
,
0000
1000
0000
0100
,
1000
0000
0000
0100
,
0010
0001
0010
0001
,
0000
0100
1000
0100
,
0000
1000
0000
1000
,
0001
0000
0000
0001
,
0000
1000
0000
1000
,
0000
0001
0000
0001
,
0000
0010
0000
0100
,
1000
0100
0000
0001
,
0000
1000
0000
0001
,
0000
1000
0000
0001
,
0000
0001
0000
0000
,
1000
0000
0000
0000
,
0000
0100
0000
0000
,
0001
0000
0000
0000
,
0000
0010
0000
0000
,
0100
0000
0000
0000
,
0000
0010
0000
0000
,
1000
0000
0000
0001
;

//---------------dance-single - ----------------
#NOTEDATA:;
#CHARTNAME:;
#STEPSTYPE:dance-single;
#DESCRIPTION:;
#CHARTSTYLE:;
#DIFFICULTY:Easy;
#METER:5;
#RADARVALUES:0.359251,0.512407,0.196466,0.147349,0.000000,256.000000,236.000000,20.000000,15.000000,0.000000,0.000000,0.000000,0.000000,0.000000,0.359251,0.512407,0.196466,0.147349,0.000000,256.000000,236.000000,20.000000,15.000000,0.000000,0.000000,0.000000,0.000000,0.000000;
#CREDIT:;
#NOTES:
2000
0000
3000
0001
,
0000
0000
0000
0000
,
0010
0000
0000
0000
,
1000
0000
0001
0000
,
0000
0000
0000
0000
,
2000
0000
3000
0000
,
0000
0000
0000
0000
,
0100
0000
0000
0000
,
0000
1000
0001
1000
,
0001
0000
0010
0100
,
1000
0100
0001
1000
,
0001
1000
0001
0001
,
0001
1000
0000
0100
,
2000
3000
0001
0001
,
1000
0001
1000
0100
,
0000
1001
1001
1001
,
1001
1000
0100
1000
,
0010
0001
0010
1000
,
0000
0001
0010
0001
,
0100
1000
0100
0002
,
1003
1000
0001
1000
,
0001
0010
0100
1000
,
0100
0001
1000
0100
,
1000
0002
1003
1000
,
0100
0001
0000
1001
,
0010
0100
1000
0100
,
0001
1000
0001
0010
,
0100
1000
0100
2000
,
3100
0100
0000
0001
,
0010
0001
1000
0001
,
0010
0001
0100
2000
,
3000
0001
1000
0002
,
0003
1000
0000
0000
,
0002
0003
0000
0000
,
0000
0010
0000
0000
,
0200
0300
0000
0000
,
0000
1000
0000
0000
,
0001
0000
0000
0000
,
0000
1000
0000
0000
,
1000
0000
0000
0010
,
0000
1000
0001
0010
,
1000
0100
1000
0100
,
0000
0001
0010
0001
,
1000
0100
1000
0002
,
0003
1000
0001
1000
,
0001
0010
0001
0100
,
1000
0001
0010
1000
,
0100
1001
1001
1001
,
1001
1000
0100
1000
,
0010
0001
0100
1001
,
0000
1000
0010
0101
,
0010
1000
0100
1100
,
0000
1000
0010
1001
,
0010
0001
0100
1001
,
0000
1001
0000
1010
,
1100
0000
0001
0010
,
0100
1000
0000
0001
,
1000
0100
0001
0010
,
0000
1000
0100
0001
,
0010
1000
0001
1000
,
0001
0001
0000
1000
,
0100
1000
0100
1000
,
0100
0001
1000
0010
,
1000
0100
1000
0200
,
0301
0001
0000
1000
,
0001
1000
0010
0100
,
1000
0100
0001
1001
,
0000
1000
0010
0101
,
0011
0010
0000
1000
,
0100
1000
0100
0001
,
0010
0001
0010
0010
,
2000
3000
0100
0100
,
0001
1000
0000
0000
,
0001
0010
0100
1000
,
0000
2000
3000
0000
,
0001
0000
0010
0100
,
0001
1000
0000
0000
,
0001
0000
0000
0010
,
0000
1000
0000
0100
,
0001
0000
1000
0002
,
0003
1000
0000
0000
;

//---------------dance-single - ----------------
#NOTEDATA:;
#CHARTNAME:;
#STEPSTYPE:dance-single;
#DESCRIPTION:;
#CHARTSTYLE:;
#DIFFICULTY:Medium;
#METER:7;
#RADARVALUES:0.509407,0.597685,0.157172,0.088410,0.000000,363.000000,347.000000,16.000000,9.000000,0.000000,0.000000,0.000000,0.000000,0.000000,0.509407,0.597685,0.157172,0.088410,0.000000,363.000000,347.000000,16.000000,9.000000,0.000000,0.000000,0.000000,0.000000,0.000000;
#CREDIT:;
#NOTES:
1000
0000
0100
1000
0100
0000
0001
0000
,
0000
0000
0000
0000
,
0001
0000
0000
0010
0001
0000
0000
1000
,
0000
0000
0000
0001
1000
0000
0001
1000
,
0000
0000
0000
0001
0000
0000
0000
0010
,
0100
1000
0000
0000
0000
0001
0000
1000
,
0000
0000
0000
0001
0000
0000
1000
0100
,
0000
1000
0000
0100
1000
0001
1000
0000
,
0001
1000
0100
1000
,
0010
0000
0000
0000
0001
1000
0001
0000
,
1000
1000
0001
0010
,
0001
0000
0100
0000
1000
0000
0100
1000
,
0100
1000
0001
0000
1000
0000
0001
0000
,
1000
0001
0010
0100
,
1000
0100
1000
0001
,
1000
0000
0100
1000
0100
1000
0001
1000
,
0001
1000
1000
1000
,
0001
0001
1000
0001
,
0000
0010
0000
0000
0100
0000
1000
0000
,
0100
1000
0100
1000
0001
0000
1000
0000
,
0001
0001
0000
0001
,
0010
0000
1000
0010
1000
0000
0001
0000
,
0100
1000
0100
0001
,
0110
1000
0100
1000
0100
0000
0001
0000
,
0010
1000
0000
0001
,
0010
0000
0001
0010
0001
0010
0001
0000
,
1000
0100
1000
0100
,
0001
0000
0010
0001
0010
0000
1000
0000
,
0100
1000
0000
0001
,
1000
0000
0001
0010
0001
0010
0001
0000
,
1000
0100
1000
0100
,
0001
0010
1000
0100
,
0001
0000
2000
0000
0000
3000
0000
0000
,
0100
0001
0010
0001
,
0000
0000
2000
0000
0000
0000
0000
3000
,
0001
0010
0001
0000
0100
0000
0100
0000
,
1000
1000
0001
0010
,
0001
0010
0002
0000
0000
0000
0003
0000
,
0000
1000
0000
0000
0100
0000
1000
0000
,
0100
1000
0001
1000
,
0001
1000
1000
0000
0001
0000
1000
0000
,
0001
1000
0001
1000
0001
0000
0010
0000
,
0000
0100
1000
0100
,
1000
0100
1000
0100
1000
0000
0001
0000
,
0001
0000
1000
0000
0001
0010
0001
0000
,
0100
0000
1000
0000
0100
1000
0100
0000
,
0001
1000
0001
0001
,
1000
0000
1000
0000
0100
1000
0000
0100
,
0000
0001
0000
0000
1001
1000
0000
0000
,
0001
1000
0001
1000
0001
1000
0010
0000
,
0000
0000
0010
0000
1000
0100
1000
0000
,
0100
1000
0100
1000
0001
1000
0001
0000
,
0000
0000
0010
0000
0100
1000
0100
0000
,
0001
1000
0001
1000
0001
1000
0001
0000
,
0000
0010
0001
0100
,
0010
2000
0000
0000
0000
3000
0000
0000
,
0001
1000
0001
0010
,
0100
1000
0100
1000
0001
0000
1000
0000
,
0000
0001
0010
0100
,
1000
0100
0001
0010
1000
0000
1001
0000
,
0110
0110
0000
0001
,
0100
0000
1000
0100
1000
0000
1001
0000
,
0010
0000
0100
0010
,
0001
0010
0001
0010
0100
0000
0100
0000
,
1000
1001
0000
0001
,
0010
0000
0001
0011
0001
0000
0001
0000
,
0100
1000
0100
1010
,
0100
1000
0100
0001
0010
0000
1001
0000
,
1010
1010
0000
0100
,
1000
0000
0100
1000
0100
1000
1001
0000
,
0010
1000
0100
0110
,
0001
0010
0001
0010
0001
0000
0100
0000
,
1000
0002
0013
1000
,
0100
1000
0100
1000
0001
0000
2000
0000
,
3000
0001
0000
1000
0000
0000
0100
0000
,
1100
0000
1000
0010
1000
0000
0002
0000
,
0000
0003
1000
0000
0100
0000
1000
0000
,
0100
1000
0001
1000
0001
0000
0010
0000
,
0000
0100
1000
0100
,
1000
0001
1000
0010
1000
0000
0100
0000
,
0001
2002
0000
0000
,
0000
3003
0000
0000
0000
0000
0000
0000
;

//---------------dance-single - ----------------
#NOTEDATA:;
#CHARTNAME:;
#STEPSTYPE:dance-single;
#DESCRIPTION:;
#CHARTSTYLE:;
#DIFFICULTY:Hard;
#METER:9;
#RADARVALUES:0.644126,0.845784,0.392931,0.117879,0.039293,459.000000,419.000000,40.000000,12.000000,0.000000,0.000000,0.000000,0.000000,0.000000,0.644126,0.845784,0.392931,0.117879,0.039293,459.000000,419.000000,40.000000,12.000000,0.000000,0.000000,0.000000,0.000000,0.000000;
#CREDIT:;
#NOTES:
// measure 0
1000
0000
0100
1000
0100
0001
1000
0000
,  // measure 1
0000
0000
0001
0000
0010
0000
1000
0100
,  // measure 2
1000
0100
0001
0000
1000
0001
1000
0001
,  // measure 3
1000
0000
0010
0100
0000
0000
0000
1000
,  // measure 4
0000
0000
0000
0100
1000
0100
0001
1000
,  // measure 5
0001
1000
0000
0000
1000
0001
1000
0010
,  // measure 6
1000
0000
0000
0100
0000
0000
1000
0100
,  // measure 7
1000
0001
1000
0001
1000
0001
0010
0000
,  // measure 8
1000
0000
1001
0000
0010
0000
0002
0023
,  // measure 9
0130
0000
0000
0001
0010
1000
0100
1000
,  // measure 10
0100
0001
1000
0001
1000
0110
1000
0100
,  // measure 11
1000
0100
1100
0001
1000
0000
0001
1000
,  // measure 12
0001
1000
1001
0000
1001
0000
0010
1000
,  // measure 13
0100
1000
0000
0110
1000
0000
1000
0100
,  // measure 14
1000
0100
1000
0001
1000
0010
1000
0001
,  // measure 15
1000
0000
0010
0000
1000
0000
0001
0000
1000
0000
0001
0000
1000
0001
1000
0001
,  // measure 16
1000
0001
1000
0001
1000
0000
0000
0000
0100
0000
0000
0000
0000
0000
0000
0000
,  // measure 17
0100
0000
1000
0100
0010
0100
1000
0001
,  // measure 18
1000
1000
0000
0000
0001
0000
1000
0000
,  // measure 19
0001
1000
0010
1010
1000
0000
0001
0000
,  // measure 20
0100
1000
1000
0000
0001
0000
1000
0000
,  // measure 21
0001
0000
1000
1000
0010
1000
0002
0000
,  // measure 22
1003
1000
1000
0100
,  // measure 23
1000
0100
1000
0100
1000
0001
1000
0001
,  // measure 24
1000
0001
1000
0000
1000
0000
1001
0000
,  // measure 25
1001
1100
1100
0000
,  // measure 26
0000
1000
0001
0010
,  // measure 27
1000
0100
1100
1000
0001
2000
0000
0000
,  // measure 28
3001
0001
0000
0001
,  // measure 29
1000
0000
0001
1000
0001
1000
0010
0000
,  // measure 30
0100
0001
0010
0001
,  // measure 31
0100
1000
0100
1000
0001
0000
2000
0000
,  // measure 32
0000
3000
0001
0000
0000
0000
1000
0000
,  // measure 33
0100
1000
0100
1000
0001
0000
1000
0000
,  // measure 34
0000
0001
0010
0001
,  // measure 35
0100
1000
0100
1000
0100
0000
0001
0000
,  // measure 36
0010
1000
0001
0000
1000
0000
0001
0000
,  // measure 37
1000
0010
1000
0010
1000
0000
1001
0000
,  // measure 38
0000
0010
0001
0100
,  // measure 39
1000
0100
1100
0000
0001
0000
0010
0000
,  // measure 40
1000
0000
1001
0000
0010
1000
1100
0000
,  // measure 41
0001
0000
0010
1000
0100
1000
0011
0000
,  // measure 42
0000
0000
1000
0000
0100
1000
0010
0000
,  // measure 43
0110
0000
0001
0010
0010
0011
0000
0000
,  // measure 44
1000
1100
1000
0100
,  // measure 45
1000
0001
1000
0010
1000
0100
1000
0000
,  // measure 46
0001
1001
0110
1100
,  // measure 47
1000
0000
0000
1000
0000
1000
0000
0001
0000
0001
0000
1000
,  // measure 48
0000
0001
0000
1000
0000
0000
0001
0000
0000
1000
0000
0000
,  // measure 49
0100
1000
0010
1001
,  // measure 50
0010
0000
0001
0010
0001
0010
0001
0000
,  // measure 51
1000
0100
1000
0100
1000
0001
1001
0000
,  // measure 52
0001
0010
1000
0000
1100
0000
1100
0000
,  // measure 53
0001
0010
1000
0001
0010
1000
0001
0000
,  // measure 54
1000
0001
1000
0001
,  // measure 55
0010
1000
0000
0100
0000
1000
0100
0001
,  // measure 56
1000
0001
1000
0000
0001
0000
0001
0000
,  // measure 57
0001
1000
0001
1000
0001
0000
0001
0000
,  // measure 58
0010
0100
1000
1100
,  // measure 59
0010
1000
0010
1000
0010
0000
1001
0000
,  // measure 60
0010
1100
0000
1010
,  // measure 61
1001
0000
0010
1000
0010
1000
0001
0000
,  // measure 62
0100
1100
1100
0001
,  // measure 63
0010
1000
0010
1000
0001
0000
0100
0000
,  // measure 64
0001
0100
0100
0000
0000
0000
2000
0000
,  // measure 65
3001
0000
1000
1000
1000
1000
0001
0000
,  // measure 66
1000
0001
0010
0100
,  // measure 67
1000
0100
1000
0100
1000
0000
0002
0000
,  // measure 68
0013
1000
1000
0000
0000
0000
0001
0000
,  // measure 69
1000
0000
0010
0000
0100
1000
0100
0000
,  // measure 70
0001
1000
0001
1000
,  // measure 71
0001
1000
0001
1000
0010
0000
0100
0000
,  // measure 72
1000
1001
0000
0110
,  // measure 73
0100
1000
0100
1000
0100
0000
0001
0000
,  // measure 74
0000
1001
0010
1100
,  // measure 75
0010
1000
0010
1000
0001
0000
0202
0000
,  // measure 76
0000
0303
1000
0000
0100
0000
1000
0000
,  // measure 77
0100
1000
0000
0010
0100
0010
0000
0000
,  // measure 78
0000
0001
1000
0001
,  // measure 79
1000
0010
1000
0100
1000
0000
0001
0010
,  // measure 80
1000
2002
0000
0000
,  // measure 81
0000
0000
3003
2000
0000
0000
0000
0000
,  // measure 82
3000
0000
0000
0000
;
