#TITLE:coughing up pearls;
#SUBTITLE:;
#ARTIST:felicita;
#TITLETRANSLIT:;
#SUBTITLETRANSLIT:;
#ARTISTTRANSLIT:;
#GENRE:;
#CREDIT:;
#BANNER:coughing.png;
#BACKGROUND:amber.png;
#LYRICSPATH:;
#CDTITLE:;
#MUSIC:coughing ddr.mp3;
#OFFSET:-0.000000;
#SAMPLESTART:46.359673;
#SAMPLELENGTH:18.312637;
#SELECTABLE:YES;
#BPMS:0.000000=110.000000
,67.000000=110.050003
,85.000000=108.000000
,134.000000=432.000000
,138.000000=434.000000
,142.000000=435.200012
,146.000000=436.399994
,150.000000=437.600006
,154.000000=439.200012
,158.000000=441.200012
,166.000000=220.800003
,168.000000=222.600006
,170.000000=223.399994
,174.000000=112.000000
;
#STOPS:16.000000=1.090909
;
#BGCHANGES:;
#KEYSOUNDS:;
#ATTACKS:;

//---------------dance-single - ----------------
#NOTES:
     dance-single:
     :
     Beginner:
     3:
     0.222808,0.335046,0.158767,0.149428,0.000000,167.000000,150.000000,17.000000,16.000000,0.000000,0.000000,0.222808,0.335046,0.158767,0.149428,0.000000,167.000000,150.000000,17.000000,16.000000,0.000000,0.000000:
1000
0000
0000
0001
,
0010
0000
0000
0100
,
1000
0000
0001
0001
,
0010
0000
1000
0100
,
0001
2001
0000
3002
,
0000
0203
0000
0310
,
0100
2000
0000
3001
,
0010
0200
0000
1300
,
0001
2000
3000
0100
,
0010
0002
0003
0010
,
0100
2000
3000
0010
,
0001
0200
0300
1000
,
0010
0000
0000
1000
,
0001
0010
0100
1000
,
0100
1000
0100
0001
,
0010
0100
0010
0001
,
0100
1000
0100
0001
,
0010
1000
0100
0001
,
0010
0100
1000
0100
,
1000
0100
0001
0010
,
0100
1000
0100
0000
,
0000
2000
0000
3001
,
0000
0020
0000
0130
,
0001
2000
0000
3001
,
0000
0002
0000
0103
,
0010
1000
0001
0001
,
0010
0100
1000
1000
,
0100
2000
3000
0001
,
0010
0200
0300
0001
,
0001
1000
0010
0100
,
0010
1000
0002
1003
,
1000
0100
0001
0010
,
0100
0001
0100
0001
,
0100
0000
0001
0000
,
0000
0000
1000
0000
,
0000
0000
0001
0000
,
0000
0000
1000
0000
,
0000
0000
0010
0000
,
0000
0000
0100
0000
,
0000
0000
0001
0000
,
0000
0000
0100
0000
,
0000
0000
1000
0000
,
0001
0000
1000
0000
,
0100
0000
1001
0110
,
1000
0001
0011
0101
,
1000
0100
0110
1001
,
0001
0010
0011
1100
,
1000
0010
1010
0101
,
0001
0010
0110
1001
,
0001
0010
1100
0110
,
0001
0010
0011
0110
,
1000
0100
0000
0000
;

//---------------dance-single - ----------------
#NOTES:
     dance-single:
     :
     Easy:
     4:
     0.262833,0.430773,0.280177,0.410927,0.000000,197.000000,167.000000,30.000000,44.000000,0.000000,0.000000,0.262833,0.430773,0.280177,0.410927,0.000000,197.000000,167.000000,30.000000,44.000000,0.000000,0.000000:
1000
0000
0000
0001
,
0010
0000
0000
0100
,
0001
1000
0000
0100
,
0001
0010
0100
0001
,
0000
0002
0003
0010
,
0100
2000
0000
3100
,
0010
2000
0000
3001
,
0010
0200
0000
0301
,
0010
2002
0003
0100
,
3010
0002
0000
0013
,
0100
2000
0000
3010
,
0100
2000
0000
3001
,
0001
1000
0100
1000
,
0001
0010
0100
1000
,
0100
0010
0001
2000
,
3100
0002
0013
0100
,
0010
0100
1000
0002
,
1003
0020
0130
2000
,
3100
0001
1000
0002
,
0013
0020
0130
0002
,
0103
2000
3010
0001
,
1000
2000
0000
3010
,
0001
0200
0000
0302
,
0013
2000
0000
3100
,
0001
0020
0000
0130
,
1000
0002
2003
3100
,
0010
0002
0023
0130
,
1000
0200
1300
0010
,
0100
0002
0013
0100
,
1000
0002
0023
0230
,
0302
2003
3200
0320
,
2030
3001
0020
0230
,
2300
3200
0302
2003
,
3020
0030
0000
1001
,
0001
0000
0001
0000
,
0010
0000
0100
0000
,
1000
0000
0100
0000
,
1000
0000
0010
0000
,
0001
0000
0001
0000
,
1000
0000
1000
0000
,
0100
0000
1000
0000
,
0001
0000
1000
0000
,
0001
0000
0010
0000
,
0100
0000
1100
1000
,
0001
0011
1001
1010
,
0101
0010
0101
1010
,
1100
0110
0011
0101
,
0110
1010
1010
0011
,
0101
0110
0101
1100
,
1010
0001
1001
0110
,
0011
1100
0011
0101
,
1010
1100
0000
0000
;

//---------------dance-single - ----------------
#NOTES:
     dance-single:
     :
     Medium:
     7:
     0.326874,0.431823,0.121410,0.429605,0.000000,245.000000,232.000000,13.000000,46.000000,0.000000,0.000000,0.326874,0.431823,0.121410,0.429605,0.000000,245.000000,232.000000,13.000000,46.000000,0.000000,0.000000:
1000
0000
0010
0000
0001
0100
0001
0000
,
1000
0000
0100
0000
1000
0010
1000
0000
,
0001
0000
0010
0000
0001
0000
0100
1000
,
1000
0001
0001
0010
,
0000
0000
2000
0000
0000
3002
0000
0000
,
0003
0000
0020
0000
0000
0230
0000
0000
,
0300
0000
2000
0000
0000
3200
0000
0000
,
0300
0000
0002
0000
0000
0023
0000
0000
,
0030
0000
2000
0000
0000
3200
0000
0000
,
0301
0000
2000
0000
3000
0020
0000
0000
,
0031
0000
0200
0000
0000
0302
0000
0000
,
1003
0000
0200
0000
0000
2300
0000
0000
,
3001
0000
0001
0001
1000
1000
0010
0000
,
0001
0010
0100
1000
0100
0000
0001
0000
,
0010
0001
0100
0100
1000
0000
0001
0000
,
0010
1000
0100
1000
0001
0000
0010
0000
,
0100
1000
0001
0000
0010
0000
0100
0000
,
0001
0020
1000
0000
1030
0000
0001
0000
,
0100
2000
0010
0000
3001
0000
0100
0000
,
1000
0002
0010
0000
0103
0000
2000
0000
,
3100
0010
0002
0003
1000
0000
0001
0001
,
1000
1000
0200
0000
0310
0002
1000
0000
,
0100
0003
2000
0000
0001
3200
0010
0000
,
0001
0302
1000
0100
,
0010
0003
0020
0000
0100
0000
1000
0000
,
0001
0030
0001
0000
0001
1000
0100
0000
,
1000
0000
0001
0000
0001
0010
0100
1000
,
0100
0000
0002
0000
0100
2003
0100
3000
,
0010
0000
0200
0000
0300
0002
0000
0000
,
2003
3200
0302
0023
,
2030
0000
3200
0000
0302
0000
0013
0100
,
1000
0100
0002
0000
0023
0000
2030
0000
,
3200
0000
0302
0000
2003
0000
3002
0003
,
2000
3000
0000
0001
1000
0000
0000
0000
,
1000
0100
0001
0000
,
1000
0100
1000
0000
,
1000
0001
1000
0000
,
1000
0001
0010
0000
,
0001
0010
0001
0000
,
1000
0100
1000
0000
,
1000
0001
1000
0000
,
1000
0001
1000
1100
,
0100
0110
0001
1001
,
1000
0000
1001
0000
1001
0000
0010
0100
,
0110
0000
0001
1000
1001
0000
0001
0010
,
0100
1000
0100
0010
1010
0000
0100
0001
,
0001
0100
1000
0100
0010
0000
0110
0000
,
0010
0001
0100
1000
1100
0000
0001
0010
,
0001
0100
1000
0100
1001
0000
0010
0100
,
1000
0100
1000
0001
1001
0000
0001
0010
,
0100
1000
0100
0001
0011
0000
0100
1000
,
0100
1000
0001
1000
0000
0000
0000
0000
;

//---------------dance-single - ----------------
#NOTES:
     dance-single:
     :
     Hard:
     9:
     0.584370,0.672543,0.084053,0.635069,0.443614,438.000000,429.000000,9.000000,68.000000,0.000000,0.000000,0.584370,0.672543,0.084053,0.635069,0.443614,438.000000,429.000000,9.000000,68.000000,0.000000,0.000000:
// measure 0
1001
0000
0000
0000
,  // measure 1
0000
0000
0000
0000
,  // measure 2
1000
0000
0000
0000
0000
0000
0000
0000
0001
0000
0000
0000
1000
0100
1000
0100
0000
0000
0000
0000
0000
0000
0000
0000
0001
0000
0000
0000
0000
0000
0000
0000
,  // measure 3
0010
0000
0000
0000
0000
0000
0000
0000
0000
0000
0000
0000
0100
0001
0100
0001
0000
0000
0000
0000
0100
0000
0000
0000
1000
0000
0100
0000
0010
0000
0000
0000
,  // measure 4
0002
0000
0003
0000
1000
0000
0001
0010
0100
0000
0001
0010
0100
0000
1000
0100
,  // measure 5
1000
0010
1000
0000
0010
0000
0100
0001
1000
0000
0100
0001
1000
0000
0010
1000
,  // measure 6
0010
0001
0010
0000
0100
0000
0001
1000
0001
0000
1000
0010
1000
0000
0010
1000
,  // measure 7
0010
1000
0100
0000
0010
0000
1000
0001
0100
0000
1000
0001
0100
0000
0010
0100
,  // measure 8
0010
0001
0010
0001
1000
0000
0100
0100
0010
0000
0001
0001
1000
0000
0001
0100
,  // measure 9
0001
0010
1000
0000
0001
0000
0100
1000
0010
0000
0100
1000
0010
0000
0001
0010
,  // measure 10
0001
0100
0001
1000
0010
0000
0001
0100
1000
0000
0001
0100
1000
0000
0010
1000
,  // measure 11
0010
0100
0010
0001
0000
0000
0100
0010
0100
0000
1000
0100
1000
0000
0001
0010
,  // measure 12
0001
0010
0001
0010
1000
0000
1000
0000
0001
0000
0001
0000
0200
0000
0310
0001
,  // measure 13
2000
0000
3010
0100
0002
0000
1003
0100
1000
0100
1000
0000
0010
0000
0010
0000
,  // measure 14
0002
0000
1003
0010
0200
0000
1300
0001
0010
0001
0100
0000
0100
0000
0100
0001
,  // measure 15
0100
0000
1000
0100
2000
0000
3001
0100
0020
0001
1030
0000
0200
0000
0310
1000
,  // measure 16
0010
0000
0010
1000
0100
0000
0001
0010
1000
0100
1000
0100
1000
0000
1000
0100
,  // measure 17
1000
0000
0001
0010
0100
0000
1000
0010
1000
0001
1000
0000
0001
0000
0001
0010
,  // measure 18
0001
0000
0100
0010
0100
0000
1000
0001
1000
0100
0001
0000
0010
0000
0010
0100
,  // measure 19
0010
0000
1000
0001
0100
0000
0010
0001
0010
1000
0010
0000
1000
0000
1000
0001
,  // measure 20
1000
0000
0100
0001
0100
0000
0010
1000
0010
0100
1000
0000
0011
0000
0011
0000
,  // measure 21
1100
1100
0002
0010
0100
2003
0100
0010
,  // measure 22
0001
3010
0200
0010
1000
0302
0010
1000
,  // measure 23
0100
0103
0020
0001
1000
2030
0001
0010
,  // measure 24
0001
3100
0001
1000
0100
0020
0001
0100
,  // measure 25
0001
0000
0031
0000
1000
0000
1000
0100
0001
0000
0001
0010
1000
0000
1000
0100
,  // measure 26
0001
0000
1000
0000
0100
0000
1000
0001
1000
0000
0010
0100
0010
0000
1000
0000
,  // measure 27
1000
0100
0010
0100
0001
0000
0100
0001
0100
0000
2000
0000
3010
0000
0002
0000
,  // measure 28
0013
0000
0100
0000
1000
0000
0100
1000
0100
0000
0010
0000
0100
0000
1000
0000
,  // measure 29
0001
1000
2000
0000
3200
0000
0302
0010
,  // measure 30
0023
0000
2030
0000
3200
0000
0302
0023
,  // measure 31
0230
0320
2030
0000
3002
0000
0023
0000
,  // measure 32
0032
0203
0320
0230
,  // measure 33
0302
0000
0003
1000
0001
0000
1000
0000
,  // measure 34
0001
1000
0001
1000
,  // measure 35
0001
1000
0010
1000
,  // measure 36
0010
0001
1000
0100
,  // measure 37
0000
0001
0010
0100
,  // measure 38
1000
0100
1000
0010
,  // measure 39
0001
0010
0001
0010
,  // measure 40
0001
1000
0100
0010
,  // measure 41
1000
0000
0010
0000
1000
0000
0001
0010
,  // measure 42
1000
0000
1000
0100
1001
0000
1001
0000
,  // measure 43
1001
0000
1001
0000
1000
0200
0310
0002
,  // measure 44
0013
2000
3200
0320
0031
0200
0310
2000
,  // measure 45
3100
0002
0013
0001
1000
0200
1300
0002
,  // measure 46
0013
0200
1300
0002
0013
0001
0010
2000
,  // measure 47
3100
0000
0002
0000
0023
0000
2030
0000
3200
0000
0320
0000
0032
0000
1003
0100
,  // measure 48
0002
0000
2003
0000
3010
0001
0010
0000
0200
0000
0301
0010
2000
0000
3100
0010
,  // measure 49
0200
0000
0301
0001
2000
0001
3000
0000
0002
0000
0023
0100
1030
0000
0002
0000
,  // measure 50
1003
0000
0200
0000
0310
0001
0010
0000
2000
0000
3010
0000
0002
0000
0013
0100
,  // measure 51
2000
0000
3001
0000
0001
1000
0001
1000
0000
0000
0000
0000
0000
0000
0000
0000
;
