#VERSION:0.83;
#TITLE:Yeah Yeah (D Ramirez Radio Edit);
#SUBTITLE:;
#ARTIST:Bodyrox & Luciana;
#TITLETRANSLIT:;
#SUBTITLETRANSLIT:;
#ARTISTTRANSLIT:;
#GENRE:;
#ORIGIN:;
#CREDIT:;
#BANNER:Yeah Yeah-bn.png;
#BACKGROUND:Yeah Yeah-bg.png;
#PREVIEWVID:;
#JACKET:;
#CDIMAGE:;
#DISCIMAGE:;
#LYRICSPATH:;
#CDTITLE:;
#MUSIC:Yeah Yeah.ogg;
#OFFSET:0.000000;
#SAMPLESTART:32.380955;
#SAMPLELENGTH:15.238094;
#SELECTABLE:YES;
#BPMS:0.000=126.000;
#STOPS:;
#DELAYS:;
#WARPS:;
#TIMESIGNATURES:0.000=4=4;
#TICKCOUNTS:0.000=4;
#COMBOS:0.000=1;
#SPEEDS:0.000=1.000=0.000=0;
#SCROLLS:0.000=1.000;
#FAKES:;
#LABELS:0.000=Song Start;
#BGCHANGES:;
#KEYSOUNDS:;
#ATTACKS:
;

//---------------dance-single - ----------------
#NOTEDATA:;
#CHARTNAME:;
#STEPSTYPE:dance-single;
#DESCRIPTION:;
#CHARTSTYLE:;
#DIFFICULTY:Easy;
#METER:3;
#RADARVALUES:0.212617,0.272859,0.020249,0.222742,0.000000,147.000000,145.000000,2.000000,22.000000,0.000000,0.000000,0.000000,0.000000,0.000000,0.212617,0.272859,0.020249,0.222742,0.000000,147.000000,145.000000,2.000000,22.000000,0.000000,0.000000,0.000000,0.000000,0.000000;
#CREDIT:;
#NOTES:
0000
0000
0000
0000
,
0000
0000
0000
0000
,
0000
0000
0000
0000
,
0000
0000
0000
0000
,
0000
0000
0000
0000
,
1000
0001
0000
0001
,
0010
0100
0010
0100
,
0100
0000
0000
0000
,
0000
1000
0000
0001
,
1000
0010
0100
0010
,
0001
0001
0001
0000
,
1000
0100
1000
0100
,
0020
0030
0002
0003
,
0000
1000
0010
1000
,
0100
0100
2000
3000
,
0000
0001
0010
0001
,
0200
0300
2000
3000
,
0010
1000
0100
1000
,
0002
0003
2000
3000
,
0010
0100
0010
0100
,
0020
0030
0200
0300
,
0001
1000
0001
1000
,
0002
0003
2000
3000
,
0100
1000
0100
0010
,
0002
0003
0200
0300
,
1000
0010
0000
0010
,
0100
0001
0000
0001
,
0010
1000
0000
1000
,
0100
0000
1000
0010
,
0100
0001
0000
0001
,
0010
0100
0000
0100
,
1000
0001
0000
0001
,
2000
0000
0000
3001
,
0001
1000
0010
0100
,
0100
0010
0100
0001
,
1000
0010
1000
0100
,
0001
0010
0001
1001
,
1000
0100
1000
0010
,
0100
0010
0001
1001
,
1000
0010
1000
0100
,
0001
0010
2000
0000
,
3001
0010
0100
0010
,
0002
1003
2000
3010
,
0100
0001
0100
0001
,
0020
0130
0200
0310
,
1000
0100
0010
0001
,
2000
3001
0002
1003
,
1000
0010
0100
1000
,
0020
0130
0100
0010
,
1000
0000
0000
0000
;

//---------------dance-single - ----------------
#NOTEDATA:;
#CHARTNAME:;
#STEPSTYPE:dance-single;
#DESCRIPTION:;
#CHARTSTYLE:;
#DIFFICULTY:Beginner;
#METER:2;
#RADARVALUES:0.151870,0.173637,0.000000,0.070872,0.000000,105.000000,105.000000,0.000000,7.000000,0.000000,0.000000,0.000000,0.000000,0.000000,0.151870,0.173637,0.000000,0.070872,0.000000,105.000000,105.000000,0.000000,7.000000,0.000000,0.000000,0.000000,0.000000,0.000000;
#CREDIT:;
#NOTES:
0000
0000
0000
0000
,
0000
0000
0000
0000
,
0000
0000
0000
0000
,
0000
0000
0000
0000
,
0000
0000
0000
0000
,
1000
0001
0000
0001
,
0010
0000
0100
0000
,
1000
0000
0000
0000
,
0000
0000
0010
0000
,
1000
0000
0001
0000
,
1000
1000
1000
0000
,
0010
0000
0100
0000
,
0010
0000
0100
0000
,
1000
0000
0001
0000
,
1000
1000
1000
0000
,
0010
0000
0100
0000
,
0010
0010
0000
0010
,
1000
0000
0100
0000
,
0002
0003
1000
1000
,
0010
0000
0100
0000
,
2000
3000
0001
0001
,
0100
0000
0001
0000
,
0200
0300
0001
0001
,
1000
0000
0010
0000
,
0000
0100
1000
0000
,
0001
0000
1000
0000
,
0010
0000
0100
0000
,
1000
0000
0100
0000
,
0001
0000
0010
0100
,
0010
0000
1000
0000
,
0100
0000
1000
0000
,
0001
0000
0010
0000
,
2000
0000
0000
0000
,
3001
0000
0010
0100
,
0100
0000
0010
0100
,
0010
0000
0001
1000
,
0001
0000
1000
1000
,
1000
0000
0010
0100
,
1000
0000
0001
0010
,
0100
0000
0001
1000
,
0001
0000
0000
0100
,
1000
0000
0010
0000
,
0200
0300
1000
0100
,
0001
0000
0010
0000
,
0002
0003
0100
1000
,
0010
0000
1000
0000
,
0001
1000
0001
0000
,
0100
0000
0010
0000
,
0200
0300
1000
0001
,
1000
0000
0000
0000
;

//---------------dance-single - ----------------
#NOTEDATA:;
#CHARTNAME:;
#STEPSTYPE:dance-single;
#DESCRIPTION:;
#CHARTSTYLE:;
#DIFFICULTY:Medium;
#METER:5;
#RADARVALUES:0.339898,0.372080,0.030374,0.192368,0.045561,235.000000,232.000000,3.000000,19.000000,0.000000,0.000000,0.000000,0.000000,0.000000,0.339898,0.372080,0.030374,0.192368,0.045561,235.000000,232.000000,3.000000,19.000000,0.000000,0.000000,0.000000,0.000000,0.000000;
#CREDIT:;
#NOTES:
0000
0000
0000
0000
,
0000
0000
0000
0000
,
0000
0000
0000
0000
,
0000
0000
0000
0000
,
0000
0000
0000
0000
,
1000
0000
0100
0000
0010
0001
0010
0000
,
0100
0000
0100
0000
0010
0100
0010
0000
,
1001
0000
0000
0001
0000
0000
0000
0010
0000
0000
0100
0000
0000
1000
0000
0000
,
0000
0000
0000
0000
0000
0000
1000
0000
0010
0000
1000
0000
0010
0000
0000
0000
0100
0000
0000
0000
0000
0001
0000
0000
,
1000
0000
0002
0000
0013
0001
0010
0100
,
0010
1000
0010
1000
,
0100
1000
0010
0000
0100
0000
0001
0000
,
1000
0100
1000
0100
0000
0010
0001
0000
,
1000
0000
0001
0000
0010
0001
0100
0001
,
0010
0100
2000
3010
,
1000
0100
1000
0000
0010
0000
0100
0000
,
0001
0100
0001
0100
0000
0010
1000
0000
,
1001
0100
1000
0010
1000
0001
0010
0000
,
0200
0000
1300
0020
0000
0000
1030
0000
,
1000
0000
0100
0001
0010
0001
1000
0000
,
0020
0000
1030
0200
0000
0000
1300
0000
,
0001
0000
0001
0000
0010
1000
0100
0000
,
2000
0000
3001
0020
0000
0030
0100
0000
,
0001
0000
0010
0000
0001
0010
0001
0000
,
1000
0010
0100
0000
1000
0010
1000
0000
,
0001
0000
0010
0000
1000
0100
1000
0000
,
0010
0000
0100
0000
0010
0001
0010
1000
,
0100
0000
0001
0000
1000
0010
1000
0000
,
0100
0000
0001
0000
0100
0010
0100
1000
,
0010
0000
1000
0000
0010
1000
0100
0000
,
0001
0000
0010
0000
1000
0100
1000
0010
,
1000
0000
0001
0000
0010
0000
1000
0100
,
0000
0000
0000
0000
0000
0000
0001
0000
0100
0000
0010
0000
1000
0000
0000
0000
0100
0000
0000
0000
0000
0010
0000
0000
,
0001
0000
0001
1000
0010
0000
0100
0000
,
0100
0010
0100
0000
0001
0010
0001
0000
,
1000
0000
0001
0000
1000
0010
1000
0000
,
0100
0000
0010
0000
0100
1000
0100
0000
,
0001
0010
0001
1000
0020
0000
1030
0000
,
1000
0100
1000
0100
2000
0000
3001
0000
,
0010
0001
1000
0010
0200
0000
1300
0000
,
0010
1000
0100
0000
0002
0000
1003
0000
,
0110
0000
0010
0000
1000
0100
1000
0000
,
0020
0000
0130
0002
0000
0000
1003
0000
,
0010
0000
1000
0100
1000
0100
0010
0000
,
0002
0000
0013
0200
0000
0000
1300
0000
,
0010
0000
1000
0100
1000
0001
0010
0000
,
0200
0000
1300
0020
0000
0030
0100
0000
,
1000
0000
0001
0000
0010
0001
0100
0000
,
2000
0000
3001
0000
0010
0100
0000
1000
,
0001
0000
0000
0000
;

//---------------dance-single - ----------------
#NOTEDATA:;
#CHARTNAME:;
#STEPSTYPE:dance-single;
#DESCRIPTION:;
#CHARTSTYLE:;
#DIFFICULTY:Hard;
#METER:8;
#RADARVALUES:0.516356,0.570523,0.212617,0.222742,0.506232,357.000000,336.000000,21.000000,22.000000,0.000000,0.000000,0.000000,0.000000,0.000000,0.516356,0.570523,0.212617,0.222742,0.506232,357.000000,336.000000,21.000000,22.000000,0.000000,0.000000,0.000000,0.000000,0.000000;
#CREDIT:;
#NOTES:
// measure 0
0000
0000
0000
0000
,  // measure 1
0000
0000
0000
0000
,  // measure 2
0000
0000
0000
0000
,  // measure 3
0000
0000
0000
0000
,  // measure 4
0000
0000
0000
0000
,  // measure 5
1000
0000
0000
0001
1000
0000
0000
0010
0000
0000
0100
0000
0001
1000
0000
0000
,  // measure 6
0010
0000
0000
1000
0100
0000
0000
0100
0000
0000
0001
0000
0000
0010
0000
0000
,  // measure 7
0100
0000
0000
1000
0000
0000
0000
0010
0000
0000
1000
0000
0000
0200
0000
0000
,  // measure 8
0000
0000
0000
0000
0000
0000
1300
0000
0010
0000
0100
0000
0001
0000
0000
1000
0001
0000
0000
0000
0000
1000
0000
0000
,  // measure 9
2000
0000
0000
0000
3010
0000
0000
0000
1000
0000
0100
0000
1000
0000
0001
0010
,  // measure 10
0100
0000
0000
2000
3001
0000
0000
0000
0110
0000
0001
0000
1000
0100
0000
0000
,  // measure 11
1000
0000
0100
0000
1000
0000
0000
0010
0100
0000
0001
0000
0010
0001
0000
0000
,  // measure 12
2000
0000
3100
0000
0200
0000
0301
0000
1000
0000
0002
0000
0013
0001
0000
0000
,  // measure 13
0010
0000
0000
0100
1000
0000
0000
0010
0100
0000
0001
0000
1000
0000
0001
0000
,  // measure 14
2000
0000
0000
0000
3200
0000
0000
0000
0310
0000
0001
0000
0001
0100
0000
0000
,  // measure 15
1000
0000
0010
0001
0010
0000
1000
0000
0200
0000
0310
0000
0020
0000
0130
0000
,  // measure 16
0001
1000
0001
0100
0001
1000
0100
0000
,  // measure 17
0001
0000
0000
0010
0000
0000
0000
0000
0000
0100
0000
0000
0000
0000
0000
1000
0000
0000
0000
0000
0000
0010
0000
0000
0100
0000
0000
0000
0001
0000
0000
0000
0000
1000
0000
0000
0100
0000
0000
0000
0000
0000
0000
0000
0000
0000
0000
0000
,  // measure 18
0020
0130
0010
0002
1003
0001
0110
0000
,  // measure 19
1000
0000
0000
0100
0000
0000
0000
0000
0000
0010
0000
0000
0000
0000
0000
0001
0000
0000
0000
0000
0000
0100
0000
0000
0010
0000
0000
0000
1000
0000
0000
0000
0000
0001
0000
0000
0010
0000
0000
0000
0000
0000
0000
0000
0000
0000
0000
0000
,  // measure 20
2000
3001
1000
0200
0310
0100
1001
0000
,  // measure 21
1000
0000
0000
0010
0000
0000
0000
0000
0000
1000
0000
0000
0001
0000
0000
0000
0000
0000
0100
0000
0000
0000
0000
0000
1000
0000
0000
0000
0100
0000
0000
0000
0000
0010
0000
0000
1000
0000
0000
0001
0000
0000
0010
0000
0000
0000
0000
0000
,  // measure 22
0200
0301
0010
0200
1300
0010
0001
0000
,  // measure 23
0001
0000
0000
0100
0000
0000
0000
0000
0000
0001
0000
0000
1000
0000
0000
0000
0000
0000
0010
0000
0000
0000
0000
0000
0001
0000
0000
0000
0010
0000
0000
0000
0000
0100
0000
0000
0001
0000
0000
1000
0000
0000
0100
0000
0000
0000
0000
0000
,  // measure 24
0010
0000
0000
0000
0000
0000
0000
0000
0000
1000
0000
0000
0100
0000
0000
0000
0000
0000
0010
0000
0000
0000
0000
0000
0001
0000
0000
0000
0000
0000
0100
0000
0001
0000
0000
0000
1000
0000
0000
0100
0000
0000
0000
0000
0000
0000
0000
0000
,  // measure 25
0010
0001
0000
1000
0001
0000
0000
0010
0100
0000
1000
0000
0001
0100
0000
0000
,  // measure 26
0100
0010
0000
0100
1000
0000
0000
0001
0000
0000
1000
0000
0010
0000
1000
0001
,  // measure 27
0010
0100
0000
1000
0001
0000
0000
0010
0100
0000
0001
0000
0100
1000
0000
0000
,  // measure 28
0100
0000
0000
0010
0000
0000
0000
0000
0000
0001
0000
0000
0000
0000
0000
0000
0000
0000
0000
0000
0000
0001
0000
0000
1000
0000
0000
0000
0000
0000
0001
0000
0010
0000
0000
0000
0100
0000
0000
0010
0000
0000
0000
0000
0000
0000
0000
0000
,  // measure 29
1000
1001
0001
0101
,  // measure 30
0100
0110
0010
1010
,  // measure 31
0100
1100
0010
0011
,  // measure 32
0000
0000
0000
0000
0000
0000
0010
0000
0010
0000
0010
0000
1000
0000
0000
0001
0100
0000
0000
0000
0000
0001
0000
0000
,  // measure 33
1000
0100
0001
0100
1000
0000
0110
0000
,  // measure 34
0001
1000
0010
1000
0100
1000
1001
0000
,  // measure 35
2000
3100
0200
0301
0020
0031
0010
0000
,  // measure 36
1000
0100
1000
0001
0010
0000
0101
0000
,  // measure 37
1000
0010
2000
0000
3002
0000
0103
0000
,  // measure 38
1000
0010
1000
0010
0200
0001
0301
0000
,  // measure 39
1000
0010
0100
0001
0011
0000
1100
0000
,  // measure 40
1000
0000
0100
0000
0100
0000
0010
0000
0001
0010
0000
0001
1000
0000
0000
0000
,  // measure 41
0110
0000
0000
0100
0001
0010
0000
1000
0010
0100
0010
0000
0001
1000
0000
0000
,  // measure 42
0001
0010
0001
0100
0001
0000
1000
0100
1000
0000
0010
0000
1000
0000
0000
0000
,  // measure 43
1000
0000
0000
0100
1000
0001
0000
0010
0001
0100
0001
0000
1000
0010
0000
0000
,  // measure 44
1000
0000
0001
1000
0100
0000
0010
0100
0010
0000
0100
0000
0001
0010
0000
0000
,  // measure 45
0001
1000
0000
1000
0001
0010
0000
0100
1000
0010
1000
0000
0001
0100
0000
0000
,  // measure 46
0001
0000
1000
0001
0010
0000
0100
0010
0000
0000
0100
0000
0010
0100
0000
0000
,  // measure 47
1000
0000
0000
0001
0010
0000
0000
0100
1000
0000
0001
0000
0100
0010
0000
0000
,  // measure 48
0011
0000
0000
1001
0000
0000
0000
1100
0000
0000
0101
0000
0000
0110
0000
0000
,  // measure 49
1010
0000
0000
0000
;
