#VERSION:0.83;
#TITLE:XS;
#SUBTITLE:;
#ARTIST:Rina Sawayama;
#TITLETRANSLIT:;
#SUBTITLETRANSLIT:;
#ARTISTTRANSLIT:;
#GENRE:;
#ORIGIN:;
#CREDIT:;
#BANNER:xs.png;
#BACKGROUND:xsbg.png;
#PREVIEWVID:;
#JACKET:;
#CDIMAGE:;
#DISCIMAGE:;
#LYRICSPATH:;
#CDTITLE:;
#MUSIC:XS SM.mp3;
#OFFSET:0.000000;
#SAMPLESTART:48.000000;
#SAMPLELENGTH:12.000000;
#SELECTABLE:YES;
#BPMS:0.000=117.000;
#STOPS:;
#DELAYS:;
#WARPS:;
#TIMESIGNATURES:0.000=4=4;
#TICKCOUNTS:0.000=4;
#COMBOS:0.000=1;
#SPEEDS:0.000=1.000=0.000=0;
#SCROLLS:0.000=1.000;
#FAKES:;
#LABELS:0.000=Song Start;
#BGCHANGES:;
#KEYSOUNDS:;
#ATTACKS:
;

//---------------dance-single - ----------------
#NOTEDATA:;
#CHARTNAME:;
#STEPSTYPE:dance-single;
#DESCRIPTION:;
#CHARTSTYLE:;
#DIFFICULTY:Easy;
#METER:3;
#RADARVALUES:0.197281,0.252206,0.044837,0.313856,0.000000,154.000000,149.000000,5.000000,35.000000,0.000000,0.000000,0.000000,0.000000,0.000000,0.197281,0.252206,0.044837,0.313856,0.000000,154.000000,149.000000,5.000000,35.000000,0.000000,0.000000,0.000000,0.000000,0.000000;
#CREDIT:;
#NOTES:
0000
0000
0000
0000
,
0000
0000
0000
0000
,
0000
0000
0000
0000
,
0000
0000
0000
0000
,
0000
0000
0000
0000
,
1000
0000
0010
0001
,
0100
0000
0100
0010
,
0200
0000
0300
0000
,
1000
0000
0010
0001
,
0002
0000
0003
0000
,
1000
0000
0010
0100
,
0020
0000
0030
0000
,
1000
0100
0010
0001
,
2000
3000
0001
0010
,
0200
0300
0010
0001
,
0002
0003
0010
1000
,
0200
0300
0001
0001
,
0002
0003
1000
0010
,
2000
3000
0100
0100
,
0020
0030
0100
0100
,
1000
1000
0001
0001
,
0010
0001
0101
1000
,
0100
0000
0010
0100
,
1000
0010
0002
0003
,
1000
0000
0100
1000
,
0010
0100
0020
0031
,
2000
3100
0010
1000
,
0002
0003
0100
1000
,
0100
0010
0100
0010
,
0002
0003
1000
0000
,
0100
1000
0020
0000
,
0031
0000
0100
0000
,
1000
0100
2000
0000
,
3010
0000
0001
0000
,
0100
0001
0200
0300
,
0010
0000
1000
0000
,
0002
2003
3200
0300
,
0002
0023
2030
3000
,
0100
1000
0001
0001
,
0020
0030
1000
1010
,
0002
0103
0100
0000
,
0010
0000
0100
0110
,
0001
0010
0002
1003
,
2000
3001
0010
0100
,
1000
0010
0100
0000
,
0002
2003
3100
0010
,
0001
0000
0001
1000
,
0100
0000
1000
1010
,
0002
0003
0100
0010
,
0001
0000
0010
0110
,
0010
0000
1000
0001
,
0002
0003
1000
0010
,
0100
0000
1000
0100
,
0002
2003
3020
0130
,
0000
0000
0000
0000
,
0000
0000
0000
0000
,
0000
1000
0000
0000
;

//---------------dance-single - ----------------
#NOTEDATA:;
#CHARTNAME:;
#STEPSTYPE:dance-single;
#DESCRIPTION:;
#CHARTSTYLE:;
#DIFFICULTY:Medium;
#METER:5;
#RADARVALUES:0.330510,0.434803,0.035869,0.457333,0.000000,258.000000,254.000000,4.000000,51.000000,0.000000,0.000000,0.000000,0.000000,0.000000,0.330510,0.434803,0.035869,0.457333,0.000000,258.000000,254.000000,4.000000,51.000000,0.000000,0.000000,0.000000,0.000000,0.000000;
#CREDIT:;
#NOTES:
0000
0000
0000
0000
,
0000
0000
0000
0000
,
0000
0000
0000
0000
,
0000
0000
0000
0001
,
1000
0100
1000
0100
,
0002
0000
0000
0003
0010
1000
0100
0000
,
1000
0010
0000
0100
0001
0010
0001
0100
,
2000
0000
0000
3000
0010
0100
0000
0000
,
1000
0010
0000
0100
0010
0100
0010
0001
,
0200
0000
0000
0300
0001
0010
0000
0000
,
1000
0010
0000
0100
1000
0100
0001
0010
,
0002
0003
1000
0000
,
0020
2030
3002
0023
,
1030
0000
0100
0001
,
0010
0001
0000
0010
0002
0000
2003
0000
,
3000
0100
0000
0010
0200
0000
2300
0000
,
3000
0010
0000
0100
0002
0000
1003
0000
,
0000
0010
0000
0100
0002
0000
0013
0000
,
0000
1000
0000
0010
0020
0000
0130
0000
,
0000
0100
0000
0100
0200
0000
1300
0000
,
0010
1000
0001
0010
,
0001
1000
0100
1000
0001
0000
0010
0001
,
0100
0100
0000
1000
0010
1000
0200
0000
,
0301
0000
0010
1000
0100
0000
1000
0010
,
0001
0001
0000
0010
1000
0100
2000
0000
,
3010
1000
0100
0001
0001
0000
1000
0000
,
2000
0000
3001
0010
0001
0100
0002
0003
,
1000
0010
1000
0100
0010
0000
1000
0000
,
0002
0023
2030
3200
,
0301
0010
0001
1000
0200
0000
0300
1000
,
0010
0001
0010
0000
1000
0100
2000
0000
,
3010
1000
0100
0001
0020
0000
0030
0100
,
0001
0010
0001
0100
2000
0000
3020
0000
,
1030
0100
0001
0010
0002
0000
0003
0010
,
0100
0010
0100
1000
0200
0000
2300
0000
,
3020
0000
0000
0030
1000
0000
0000
0000
,
2000
0000
3002
0000
0023
0030
0000
0000
,
2000
3200
0302
1003
,
0010
0000
1000
0000
0100
0000
0001
0010
,
0001
1000
0000
1000
0010
1000
0100
0000
,
2000
0000
3010
0000
0100
0000
0001
0010
,
0001
1000
0000
0010
0100
1000
0020
0000
,
2030
0000
3100
0000
0001
0000
0010
0001
,
0100
0000
1000
0000
0010
0100
0010
0000
,
0200
0000
0310
0000
0100
0000
1000
0010
,
2000
3002
0023
2030
,
3100
0000
0001
0000
0010
0000
0001
0010
,
0001
0100
0000
0000
1000
0010
1001
0000
,
0001
0010
0001
0100
0110
0000
0010
1000
,
1100
1100
0000
0001
1000
0001
0020
0000
,
1030
0100
1000
0010
0200
0000
1300
0000
,
0001
0000
0010
0001
0100
1000
0020
0000
,
0130
1000
0010
0100
0200
0000
1300
0100
,
1000
0000
0001
0000
0010
0000
1000
0100
;

//---------------dance-single - ----------------
#NOTEDATA:;
#CHARTNAME:;
#STEPSTYPE:dance-single;
#DESCRIPTION:;
#CHARTSTYLE:;
#DIFFICULTY:Hard;
#METER:7;
#RADARVALUES:0.404811,0.483115,0.089673,0.251085,0.121059,316.000000,306.000000,10.000000,28.000000,0.000000,0.000000,0.000000,0.000000,0.000000,0.404811,0.483115,0.089673,0.251085,0.121059,316.000000,306.000000,10.000000,28.000000,0.000000,0.000000,0.000000,0.000000,0.000000;
#CREDIT:;
#NOTES:
0000
0000
0000
0000
,
0000
0000
0000
0000
,
0000
0000
0000
0000
,
0000
0000
0000
0000
,
1000
0000
0000
0100
0000
0000
1000
0000
0000
0010
0000
0000
0001
0000
0100
0000
,
0002
0000
0000
0000
1003
0010
1000
0000
,
0100
0001
0000
1000
0010
0100
1000
0100
,
1200
0000
0000
0000
0301
0010
0000
1000
,
0010
0000
1000
0000
0000
0000
0100
1000
0100
0000
0001
0000
0010
0000
0001
0000
,
2000
0000
0000
0000
3010
0100
0000
0001
,
0010
0001
0000
1000
0100
1000
0010
0001
,
0200
0000
1300
0000
,
0001
0000
0000
0010
0001
0000
0000
1000
0100
0000
0000
1000
0010
0000
0000
0000
,
0001
2000
0000
3100
0010
0000
0001
0000
,
1000
0020
0000
0130
1000
0000
0001
0000
,
0010
0002
0000
0103
1000
0000
0010
0000
,
1000
0200
0000
0301
0010
0001
0010
1000
,
0100
1000
0000
0001
0020
0000
1030
0000
,
0100
0001
0000
1000
0020
0000
0130
0000
,
0001
0100
0000
0001
2000
0000
3010
0000
,
1000
0000
0000
0100
0000
0000
0001
0000
0000
0010
0000
0000
0001
0000
0100
0000
,
1000
0000
0100
0000
1000
0000
0010
0000
1001
0000
0000
0000
0001
0000
0001
0010
,
1000
0100
0000
1000
0001
1000
0002
0003
,
0010
1000
0010
1000
0100
0000
1000
0000
1001
0000
0000
0000
0001
0010
0001
0000
,
0100
1000
0000
0010
0100
0010
0100
0000
,
1000
0100
1000
0010
0001
0000
1001
0000
,
1000
0000
1001
0010
0001
0100
0002
0000
,
1003
0010
0100
1000
0100
0000
0010
1000
,
0200
0000
0000
0302
0000
0000
0023
0000
0000
2030
0000
0000
3100
0000
0001
0000
,
1000
0010
1000
0010
0002
0000
0003
0010
,
1000
0100
1000
0000
0001
0010
1000
0100
,
1000
0001
0010
0100
0020
0000
0030
1000
,
0100
1000
0010
1000
0002
0000
1003
0000
,
0100
0000
1000
0000
0010
0000
0100
0000
0020
0000
0000
0030
0000
0000
1000
0000
,
0100
1000
0010
0001
0200
0000
0301
0000
,
0010
0000
1000
0000
0100
1000
0100
0001
,
0010
0000
0000
0001
0000
0000
0100
0000
0000
1000
0000
0000
0010
0000
0000
0000
,
1001
0000
0000
0011
0000
0000
0101
0000
0000
0110
0000
0000
1000
0000
0000
0000
,
1000
0000
1000
0100
1000
0000
0001
0000
0010
0000
0000
0000
1000
0100
1000
0100
,
0001
0010
0000
1000
0001
1000
0020
0030
,
0100
0001
0100
0001
0100
0000
1000
0000
1000
0000
0000
0000
0010
1000
0100
0000
,
0001
1000
0000
0001
0010
0001
0100
1000
,
0200
0000
0000
0000
0302
0000
0000
0003
0010
0000
0000
0000
1000
0000
0100
0000
,
1000
0000
0000
0000
0001
0000
0010
0000
0100
0000
0010
0000
0200
0000
0000
0300
,
1000
0010
0100
0001
0010
0000
0001
0100
,
1000
0000
0000
0100
0000
0000
0010
0000
0000
0001
0000
0000
1000
0000
0001
0000
,
1000
0010
0100
1000
0100
0000
0010
0100
,
1000
0000
0010
0000
0000
0000
0100
0000
0010
0000
0001
0000
0200
0000
0000
0300
,
1000
0100
1000
0001
0010
0000
1000
0100
,
0001
0000
0001
0000
0000
0000
1000
0000
0010
0000
1000
0000
0200
0000
0000
0300
,
1000
0110
1000
0010
,
0100
0000
1000
0100
1000
0010
0001
0000
,
0100
0001
0010
0001
0100
0000
1000
0010
,
1000
0000
0000
0100
0000
0000
0001
0000
0000
0000
0010
0000
0001
0000
1000
0000
;

//---------------dance-single - ----------------
#NOTEDATA:;
#CHARTNAME:;
#STEPSTYPE:dance-single;
#DESCRIPTION:;
#CHARTSTYLE:;
#DIFFICULTY:Beginner;
#METER:2;
#RADARVALUES:0.160131,0.216897,0.008967,0.107608,0.000000,125.000000,124.000000,1.000000,12.000000,0.000000,0.000000,0.000000,0.000000,0.000000,0.160131,0.216897,0.008967,0.107608,0.000000,125.000000,124.000000,1.000000,12.000000,0.000000,0.000000,0.000000,0.000000,0.000000;
#CREDIT:;
#NOTES:
// measure 0
0000
0000
0000
0000
,  // measure 1
0000
0000
0000
0000
,  // measure 2
0000
0000
0000
0000
,  // measure 3
0000
0000
0000
1000
,  // measure 4
0000
0000
0000
0000
,  // measure 5
0001
0000
0000
0000
,  // measure 6
0010
0000
0100
1000
,  // measure 7
0100
0000
0000
0000
,  // measure 8
1000
0000
0001
0000
,  // measure 9
1000
0000
0000
0000
,  // measure 10
0010
0000
0100
1000
,  // measure 11
0100
0000
0000
0000
,  // measure 12
0001
0000
0000
0000
,  // measure 13
1000
0000
0020
0031
,  // measure 14
0000
0000
0200
1300
,  // measure 15
0000
0000
0100
0001
,  // measure 16
0010
0000
1000
0010
,  // measure 17
1000
0000
0100
0100
,  // measure 18
0100
0000
0010
0010
,  // measure 19
1000
0000
0001
0000
,  // measure 20
2000
0000
3020
0000
,  // measure 21
0031
0000
0100
0000
,  // measure 22
0000
0000
0010
0100
,  // measure 23
0001
0000
0010
0000
,  // measure 24
1000
0000
0100
0100
,  // measure 25
0001
0000
1000
1000
,  // measure 26
0001
0001
1000
0010
,  // measure 27
0100
0000
0001
0000
,  // measure 28
1000
0000
0000
0000
,  // measure 29
0001
0000
0010
0000
,  // measure 30
0100
1000
0200
0301
,  // measure 31
0000
0010
0001
0000
,  // measure 32
0100
0010
2000
3010
,  // measure 33
1000
0000
0001
0000
,  // measure 34
0100
0001
0010
0001
,  // measure 35
0002
0003
1000
0000
,  // measure 36
0020
0000
0000
1030
,  // measure 37
0002
0000
0000
0103
,  // measure 38
1000
0000
0010
0000
,  // measure 39
0001
0000
0100
0001
,  // measure 40
0010
0000
1000
0000
,  // measure 41
0010
0000
1000
0010
,  // measure 42
0100
0100
0010
0010
,  // measure 43
0001
0000
1000
0010
,  // measure 44
0100
1000
1000
0001
,  // measure 45
0001
0000
1000
0010
,  // measure 46
0001
0000
0200
0300
,  // measure 47
1000
0000
0010
0010
,  // measure 48
0100
0000
0002
0003
,  // measure 49
0010
0000
1000
0100
,  // measure 50
0100
0110
0001
1000
,  // measure 51
0010
0000
0100
1000
,  // measure 52
0200
0300
1000
0000
,  // measure 53
0001
0010
0100
1000
;
