#VERSION:0.83;
#TITLE:Work It;
#SUBTITLE:;
#ARTIST:Marie Davidson;
#TITLETRANSLIT:;
#SUBTITLETRANSLIT:;
#ARTISTTRANSLIT:;
#GENRE:;
#ORIGIN:;
#CREDIT:;
#BANNER:Work It-bn.png;
#BACKGROUND:Work It.png;
#PREVIEWVID:;
#JACKET:;
#CDIMAGE:;
#DISCIMAGE:;
#LYRICSPATH:;
#CDTITLE:;
#MUSIC:Work It.mp3;
#OFFSET:0.000000;
#SAMPLESTART:46.153843;
#SAMPLELENGTH:12.000000;
#SELECTABLE:YES;
#BPMS:0.000=130.000;
#STOPS:;
#DELAYS:;
#WARPS:;
#TIMESIGNATURES:0.000=4=4;
#TICKCOUNTS:0.000=4;
#COMBOS:0.000=1;
#SPEEDS:0.000=1.000=0.000=0;
#SCROLLS:0.000=1.000;
#FAKES:;
#LABELS:0.000=Song Start;
#BGCHANGES:;
#KEYSOUNDS:;
#ATTACKS:
;

//---------------dance-single - ----------------
#NOTEDATA:;
#CHARTNAME:;
#STEPSTYPE:dance-single;
#DESCRIPTION:;
#CHARTSTYLE:;
#DIFFICULTY:Medium;
#METER:6;
#RADARVALUES:0.401322,0.424395,0.034364,0.025773,0.000000,327.000000,323.000000,4.000000,3.000000,0.000000,0.000000,0.000000,0.000000,0.000000,0.401322,0.424395,0.034364,0.025773,0.000000,327.000000,323.000000,4.000000,3.000000,0.000000,0.000000,0.000000,0.000000,0.000000;
#CREDIT:;
#NOTES:
0000
0000
0000
0000
,
0000
0000
0000
0000
,
1000
0000
0001
0000
0010
0000
1000
0100
,
1000
0000
0001
0000
0010
0000
0001
0100
,
0001
1000
0010
0100
,
1000
0100
0001
0000
0010
0000
0001
0000
,
1000
0010
1000
0001
1000
0000
0100
0000
,
0001
0010
0001
0100
0001
0000
1000
0000
,
0010
0000
1000
0100
1000
0000
0001
0000
,
0010
0001
0100
1000
0100
1000
0001
0000
,
1000
0000
0010
1000
0100
0000
0001
0000
,
1000
0000
0001
0010
0001
0100
1000
0100
,
2000
3001
0000
0010
,
1000
0000
0101
0000
0010
1000
0001
0000
,
1000
0100
1000
0000
0001
0000
0010
0000
,
0001
1000
0100
0000
1000
0010
1000
0000
,
0002
0000
1003
0000
1000
0100
1000
0000
,
0010
0000
1000
0000
0001
1000
1001
0000
,
0001
0000
0010
1000
0100
1000
0001
0000
,
0010
0001
0110
1000
0000
0100
1000
0000
,
0001
0000
1000
0000
0010
1000
0100
0001
,
0010
0001
1000
0100
0000
1000
0001
0000
,
0010
0000
1000
0100
0001
0000
0010
0000
,
1000
0000
0100
1000
0001
0010
0001
0000
,
1000
0000
0010
0000
0100
0010
0100
0010
,
0001
1000
0100
1000
0001
0010
0001
0000
,
1000
0001
1000
0010
1000
0000
0100
0000
,
0001
0010
0001
0100
1000
0100
1000
0000
,
0001
0000
1000
0000
0010
1000
0100
0001
,
0020
0030
1000
0100
,
1000
0001
1000
0001
0010
0000
0001
0000
,
0100
0001
0100
0001
1000
0010
1000
0000
,
0100
1000
0001
0000
0010
0001
0100
0000
,
1000
0010
0000
0000
1000
0001
1000
0000
,
0001
0000
1000
0000
0010
1000
0100
0000
,
0001
0000
0001
0000
0010
1000
0100
0000
,
1000
0000
0010
0000
1000
0010
0100
0000
,
0001
0000
0010
0000
0001
0100
1000
0000
,
1000
0000
0001
0000
0010
0001
0100
0000
,
1000
0000
0010
0000
1000
0100
1000
0000
,
0001
1000
0010
1000
,
0100
1000
0100
0001
0000
1000
0001
0000
,
1000
0000
0001
0010
0001
0000
0100
0000
,
1000
0000
0100
0000
0001
0010
0001
1000
,
0001
0000
1000
0000
0010
1000
0100
0000
,
0001
0000
1000
0010
1000
0001
0100
0000
,
1000
0000
0001
0000
0010
0001
0100
0000
,
1000
0000
0010
0000
1000
0100
0001
0000
,
1000
0001
1000
0000
0001
0000
0001
0000
,
0001
1000
0001
0000
0010
0000
0100
0000
,
1000
0000
0100
0000
1000
0100
0001
0000
,
0010
0000
0001
0000
1000
0100
1000
0000
,
0001
0010
0001
0100
,
1000
0000
0100
0000
1000
0001
1001
0000
,
1000
0000
0010
0000
1000
0100
0001
0000
,
0010
0001
0100
0000
1000
0100
0010
0000
,
1000
0000
0001
0000
1000
0010
1000
0010
,
0100
0001
0100
0010
0000
0100
0010
0000
,
0010
0010
0100
0000
1000
0000
1000
0000
,
1000
1000
0001
0000
0010
0000
0001
0000
,
0100
0000
0100
0000
1000
0010
0100
0000
,
0001
1000
0010
0100
0000
0001
1000
0000
;

//---------------dance-single - ----------------
#NOTEDATA:;
#CHARTNAME:;
#STEPSTYPE:dance-single;
#DESCRIPTION:;
#CHARTSTYLE:;
#DIFFICULTY:Easy;
#METER:3;
#RADARVALUES:0.241775,0.265247,0.060137,0.189002,0.000000,197.000000,190.000000,7.000000,22.000000,0.000000,0.000000,0.000000,0.000000,0.000000,0.241775,0.265247,0.060137,0.189002,0.000000,197.000000,190.000000,7.000000,22.000000,0.000000,0.000000,0.000000,0.000000,0.000000;
#CREDIT:;
#NOTES:
0000
0000
0000
0000
,
0000
0000
0000
1001
,
0010
0001
0010
0000
,
1000
0100
1000
0000
,
0001
0000
1000
0010
,
0001
0000
0100
1000
,
1000
0000
0010
0000
,
0001
0000
0100
0000
,
1000
0100
1000
0000
,
0001
0010
0001
1001
,
1000
0000
0100
0000
,
1000
0010
0001
0000
,
0200
1300
0020
0031
,
1000
0100
1000
0001
,
0010
0000
1000
0000
,
0100
0100
1000
0001
,
0002
1003
2000
3001
,
0010
0100
1000
1001
,
0002
0003
0010
1000
,
2000
3000
0100
0010
,
0002
0003
0100
0010
,
0200
0300
1000
0010
,
0020
0030
1000
0001
,
0200
0300
0001
0010
,
0002
0003
1000
0100
,
2000
3000
0010
0100
,
0001
0000
1000
0000
,
1000
0000
0001
0000
,
0010
0000
0100
0010
,
0100
0000
1000
0100
,
0001
1000
0001
0010
,
0001
0100
1000
0000
,
0010
0100
0001
1000
,
0010
0001
1000
0000
,
0001
0000
0001
0010
,
1000
0000
1000
0100
,
0110
0000
0100
0010
,
0010
0000
0100
0100
,
1000
1000
0001
0001
,
0010
0001
1000
0100
,
1001
0000
1000
0010
,
0001
0001
1000
1100
,
0001
1000
0010
0100
,
0001
0000
1000
0010
,
0100
1000
0100
0000
,
0001
1000
0100
0010
,
0001
1000
0010
0100
,
1000
0000
0001
0000
,
0020
0031
0000
1000
,
2000
3100
0000
0001
,
1000
0001
0010
0001
,
0100
0000
1000
0000
,
0010
0001
1000
0100
,
1000
0001
1000
1001
,
0002
0003
1000
0010
,
0200
0300
0010
0100
,
0020
0030
1000
0001
,
2000
3000
0100
1000
,
0002
0003
0010
1000
,
0200
0300
1000
0010
,
0200
0300
0010
0100
,
0020
0030
1000
0001
;

//---------------dance-single - ----------------
#NOTEDATA:;
#CHARTNAME:;
#STEPSTYPE:dance-single;
#DESCRIPTION:;
#CHARTSTYLE:;
#DIFFICULTY:Hard;
#METER:7;
#RADARVALUES:0.430777,0.424395,0.042955,0.085910,0.103092,351.000000,346.000000,5.000000,10.000000,0.000000,0.000000,0.000000,0.000000,0.000000,0.430777,0.424395,0.042955,0.085910,0.103092,351.000000,346.000000,5.000000,10.000000,0.000000,0.000000,0.000000,0.000000,0.000000;
#CREDIT:;
#NOTES:
0000
0000
0000
0000
,
0000
0000
0000
1001
,
0001
0000
0001
0000
1000
0100
1000
0000
,
0001
0000
0010
0001
1000
0100
1000
0001
,
2000
0000
3001
0000
0010
0000
0100
1000
,
0100
1000
0001
0000
0010
0000
0001
0000
,
1000
0010
1000
0001
1000
0000
0100
0000
,
0001
0010
0001
0100
1001
0100
0000
0000
,
1000
0000
0010
1000
0001
1000
0001
0000
,
0010
0000
1000
0100
1000
0001
1000
0000
,
0002
0000
1003
0000
0010
0100
1000
0100
,
0001
0000
1000
0010
1000
0100
0001
1000
,
2000
0000
3001
0010
1000
0100
0001
0000
,
1000
0010
0100
1000
0100
0001
1000
0000
,
2000
0000
3001
0010
0001
0100
1000
0000
,
0010
1000
0100
0001
1000
0010
1000
0000
,
0002
0000
1003
0000
0100
1000
0010
0000
,
1000
0000
0001
0000
0010
0001
1001
0000
,
1000
0000
0100
1000
0000
0010
0001
0000
,
1000
0000
0000
0001
0000
0000
1000
0000
0000
0000
0010
0000
0100
0000
1000
0000
,
0100
0000
0001
0000
1000
0010
1000
0100
,
0001
0000
0000
1000
0000
0000
0100
0000
0000
0000
0010
0000
0001
0000
0000
0000
,
1000
0000
0010
1000
0000
0100
0001
0000
,
1000
0000
0000
0001
0000
0000
0010
0000
0000
1000
0000
0000
0100
0000
0000
0000
,
0010
0000
0100
0000
0010
0100
0001
0010
,
0001
0000
0000
0100
0000
0000
0001
0000
0000
0000
1000
0000
0010
0000
0000
0000
,
2000
0000
3001
1000
0010
0000
0100
0000
,
1000
0100
1000
0001
0010
0000
0001
0100
,
2000
0000
3010
0000
0001
0100
0001
0010
,
0002
0000
1003
0100
0000
0010
0001
0000
,
1000
0000
0100
1000
0001
0010
1000
0000
,
0100
0000
0000
0001
0000
0000
1000
0000
0000
0010
0000
0000
2000
0000
0000
0000
,
3100
0000
0001
1000
0010
0000
0100
0000
,
1000
0000
0000
0100
0000
0000
0001
0000
0000
0000
0010
0000
0001
0000
0000
0000
,
1000
0000
0010
0000
1000
0000
0100
0001
,
1000
0000
0000
0001
0000
0000
0010
0000
1000
0000
0000
0000
0100
0000
1000
0000
,
1001
0000
0001
0000
0010
0001
0100
0000
,
1000
0000
0000
0100
0000
0000
0001
0000
0000
0010
0000
0000
1000
0000
0000
0000
,
0100
0000
0001
1000
0010
1000
0001
0000
,
1000
0000
0000
0001
0000
0000
0010
0000
0000
0000
1000
0000
0100
0000
0000
0000
,
1001
0000
0001
0010
0001
0100
1000
0000
,
0010
0000
0000
0010
0000
1000
0001
0000
,
1000
0000
0001
1000
0010
1000
0100
0001
,
1000
0000
0000
0001
0000
0000
1000
0000
0000
0000
0010
0000
0000
0100
0000
0000
,
1000
0000
0001
1000
0010
1000
0100
0000
,
0001
0000
0000
0010
0000
0000
0001
0000
0000
0000
1000
0000
0100
0000
0000
0000
,
1000
0000
0001
1000
0010
0100
1000
0001
,
0010
0000
0000
0001
0000
0000
1000
0000
0000
0000
0100
0000
1000
0000
0000
0000
,
0001
1000
1000
0000
0000
0000
0010
0000
,
0100
0001
0100
0000
0100
0010
0100
0000
,
2000
0000
3010
1000
0001
1000
0010
0001
,
0100
0000
0001
0000
0000
1000
0010
1000
,
0100
0000
0000
0000
0001
0000
0010
0000
0001
1000
0000
0000
0100
0000
0000
0000
,
1000
0001
1000
0010
1000
0100
0001
0000
,
1000
0000
0010
1000
0000
0100
0001
0000
,
0010
0000
0000
0001
0000
0000
1000
0000
0000
0000
0100
0000
1000
0000
0010
0000
,
0001
0000
1000
0000
0100
1000
0001
0010
,
0001
0000
0000
1000
0000
0000
0100
0000
0000
0000
0001
0000
0010
0000
0000
0000
,
1000
0000
0000
0100
0001
0000
1000
0000
0010
0000
1000
0000
0100
0000
0001
0000
,
0010
0000
0000
0001
1000
0000
0100
0000
1000
0000
0010
0000
0001
0000
0000
0000
,
1000
0000
0000
0001
1000
0000
0010
0000
1000
0000
0100
0000
0010
0000
0001
0000
,
0100
0000
0000
0001
0000
0000
1000
0000
0000
1000
0010
0000
0100
0000
0000
0000
;

//---------------dance-single - ----------------
#NOTEDATA:;
#CHARTNAME:;
#STEPSTYPE:dance-single;
#DESCRIPTION:;
#CHARTSTYLE:;
#DIFFICULTY:Beginner;
#METER:1;
#RADARVALUES:0.168138,0.212197,0.017182,0.034364,0.000000,137.000000,135.000000,2.000000,4.000000,0.000000,0.000000,0.000000,0.000000,0.000000,0.168138,0.212197,0.017182,0.034364,0.000000,137.000000,135.000000,2.000000,4.000000,0.000000,0.000000,0.000000,0.000000,0.000000;
#CREDIT:;
#NOTES:
// measure 0
0000
0000
0000
0000
,  // measure 1
0000
0000
0000
0001
,  // measure 2
1000
0000
0100
0000
,  // measure 3
0010
0000
0000
0000
,  // measure 4
1000
0000
0001
0000
,  // measure 5
0001
0000
0000
0000
,  // measure 6
1000
1000
1000
0000
,  // measure 7
0001
0001
0001
0000
,  // measure 8
0010
0000
0100
0000
,  // measure 9
1000
0000
0001
0000
,  // measure 10
0010
1000
0100
0000
,  // measure 11
1000
0000
0001
0000
,  // measure 12
0002
0003
1000
0000
,  // measure 13
0010
0000
0100
0000
,  // measure 14
1000
0100
1000
0000
,  // measure 15
0001
0000
1000
0000
,  // measure 16
0020
0030
0001
0000
,  // measure 17
0100
0000
0000
0000
,  // measure 18
1000
0000
0000
0000
,  // measure 19
0001
0000
0010
1000
,  // measure 20
1000
0000
0100
0000
,  // measure 21
0001
0000
0010
0100
,  // measure 22
1000
0000
0010
0000
,  // measure 23
0100
0000
0000
0000
,  // measure 24
0001
0000
0010
0001
,  // measure 25
1000
0000
0100
1000
,  // measure 26
0002
0000
0003
0000
,  // measure 27
2000
0000
3000
0000
,  // measure 28
0010
0000
0100
0010
,  // measure 29
0100
0000
0001
0000
,  // measure 30
1000
0000
0010
0000
,  // measure 31
1000
0100
1000
0000
,  // measure 32
0001
0000
0010
0000
,  // measure 33
1000
0000
0010
0001
,  // measure 34
1000
0000
0000
0100
,  // measure 35
0010
0000
0000
0001
,  // measure 36
1001
0000
1000
0000
,  // measure 37
0010
0100
0010
0001
,  // measure 38
0100
0000
1000
0000
,  // measure 39
0010
0000
0001
0000
,  // measure 40
0110
0000
0001
0000
,  // measure 41
1000
0000
0100
0010
,  // measure 42
1000
0000
0001
0000
,  // measure 43
0001
0000
0010
0000
,  // measure 44
0100
1000
0100
0000
,  // measure 45
1000
0000
0010
0000
,  // measure 46
0001
1000
0010
0000
,  // measure 47
1000
0000
0001
0000
,  // measure 48
0010
0000
0000
0000
,  // measure 49
1000
0000
0000
0100
,  // measure 50
0001
0000
0010
0000
,  // measure 51
1000
0000
0100
0000
,  // measure 52
0001
0000
1000
0000
,  // measure 53
0010
0000
0100
0000
,  // measure 54
1000
0000
0001
0010
,  // measure 55
0001
0000
0100
1000
,  // measure 56
0010
0000
1000
0100
,  // measure 57
0001
0000
0010
1000
,  // measure 58
1000
0000
0100
0000
,  // measure 59
0010
0000
1000
0001
,  // measure 60
0001
0000
1000
0000
,  // measure 61
0100
0000
1000
0010
;
