#VERSION:0.83;
#TITLE:Wizz;
#SUBTITLE:;
#ARTIST:Coucou Chloe;
#TITLETRANSLIT:;
#SUBTITLETRANSLIT:;
#ARTISTTRANSLIT:;
#GENRE:;
#ORIGIN:;
#CREDIT:;
#BANNER:Wizz-bn.png;
#BACKGROUND:Wizz-bg.png;
#PREVIEWVID:;
#JACKET:Wizz-jacket.png;
#CDIMAGE:;
#DISCIMAGE:;
#LYRICSPATH:;
#CDTITLE:;
#MUSIC:Wizz.ogg;
#OFFSET:0.000000;
#SAMPLESTART:78.510323;
#SAMPLELENGTH:14.148000;
#SELECTABLE:YES;
#BPMS:0.000=136.000,
196.000=68.000,
200.000=136.000;
#STOPS:;
#DELAYS:;
#WARPS:;
#TIMESIGNATURES:0.000=4=4;
#TICKCOUNTS:0.000=4;
#COMBOS:0.000=1;
#SPEEDS:0.000=1.000=0.000=0;
#SCROLLS:0.000=1.000;
#FAKES:;
#LABELS:0.000=Song Start;
#BGCHANGES:;
#KEYSOUNDS:;
#ATTACKS:
;

//---------------dance-single - ----------------
#NOTEDATA:;
#CHARTNAME:;
#STEPSTYPE:dance-single;
#DESCRIPTION:;
#CHARTSTYLE:;
#DIFFICULTY:Medium;
#METER:5;
#RADARVALUES:0.381813,0.412999,0.101378,0.202756,0.000000,290.000000,279.000000,11.000000,22.000000,0.000000,0.000000,0.000000,0.000000,0.000000,0.381813,0.412999,0.101378,0.202756,0.000000,290.000000,279.000000,11.000000,22.000000,0.000000,0.000000,0.000000,0.000000,0.000000;
#CREDIT:;
#NOTES:
0000
0000
0000
0000
,
0000
0000
0000
0000
,
0000
0000
0000
0000
,
1000
0001
0010
1000
,
0000
0000
0100
0000
0011
1000
0010
0000
,
1000
0000
0002
0000
0013
0000
1000
0100
,
1000
0001
1000
0010
,
1000
0100
1000
0000
0001
0010
0001
0000
,
0100
0100
0020
1030
,
1000
0200
0000
1300
,
0010
0001
1000
0001
,
0010
0001
0010
0000
1000
0100
1000
0000
,
0001
0000
1000
0000
0010
1000
0100
0001
,
0010
0000
1000
0000
0100
1000
0001
0000
,
0010
0001
1000
0110
,
0001
0010
0001
0000
0100
0001
0100
0000
,
0010
0000
1000
0000
0010
0100
1000
0100
,
0010
0000
1000
0000
0010
1000
0100
0000
,
0010
0100
0001
0100
,
2000
3001
0020
0031
,
0100
0020
0230
1300
,
1000
0000
0002
0000
0000
0003
1000
0000
,
1000
0100
1000
0010
,
0001
0000
0100
0001
1000
0010
1000
0000
,
0100
0000
0001
0000
1000
0010
0010
0000
,
1000
0000
0200
0000
0000
0300
1000
0100
,
1000
0001
0010
0001
,
0000
0100
1000
0010
,
0000
0000
0001
0000
0000
1000
0000
0100
,
1000
0001
0010
0000
0100
0001
0100
0000
,
0000
1000
0000
0010
0000
1000
0000
0001
,
0100
1000
0100
0000
0010
0001
0010
0000
,
1000
0000
1001
0000
0001
0010
1001
0000
,
0001
0100
1000
0000
0100
1000
0010
0000
,
1000
0001
0010
0001
0100
0001
1000
0000
,
2000
3010
2000
3100
,
0001
0010
0001
0100
0001
0000
1000
0000
,
1000
0010
1000
0000
0001
0100
0001
0000
,
1000
0010
1000
0100
0001
0010
0001
0000
,
1000
0001
1000
0010
,
0110
0001
0100
0000
1000
0000
0010
0000
,
1000
1000
1000
0000
0001
0001
0001
0000
,
1000
0001
1000
0001
1000
0001
0010
0100
,
1000
0100
0010
0100
,
0002
0000
1000
0000
0013
1000
0100
1000
,
1001
0000
1000
0000
0010
0000
1000
0100
,
0001
0012
1000
1003
,
0100
1000
0020
0000
1030
0100
0001
0000
,
0010
0001
1000
0010
1000
0100
0001
0000
,
2000
0010
3001
0000
0010
0001
0100
0000
,
1000
0100
1000
0000
0001
0010
0001
1000
,
1000
0000
0200
0000
0301
1000
0010
1000
,
0100
0101
1000
1010
,
1000
0001
0001
0010
,
2000
3100
0002
0013
,
1000
0010
1000
0100
,
0002
0013
1000
1010
,
2000
3100
0010
0100
,
0002
1003
1000
0011
,
2000
0000
0100
0000
0001
3000
0010
0000
;

//---------------dance-single - ----------------
#NOTEDATA:;
#CHARTNAME:;
#STEPSTYPE:dance-single;
#DESCRIPTION:;
#CHARTSTYLE:;
#DIFFICULTY:Hard;
#METER:7;
#RADARVALUES:0.501623,0.551434,0.092162,0.294917,0.092162,381.000000,371.000000,10.000000,32.000000,0.000000,0.000000,0.000000,0.000000,0.000000,0.501623,0.551434,0.092162,0.294917,0.092162,381.000000,371.000000,10.000000,32.000000,0.000000,0.000000,0.000000,0.000000,0.000000;
#CREDIT:;
#NOTES:
0000
0000
0000
0000
,
0000
0000
0000
0000
,
0000
0000
0000
0000
,
1000
0000
0000
0000
0000
0000
0001
0000
0000
1000
0000
0000
0010
0000
0000
1000
0000
0100
0000
0001
0000
0000
0000
0000
,
1000
0000
0010
1000
0100
0001
0010
0001
,
1000
0000
0002
0000
1003
0000
0010
1000
,
0100
0000
0000
0000
0002
0000
0000
0000
2003
0000
0000
3000
0020
0000
0000
0030
,
1000
0100
0001
0000
1000
0010
1000
0100
,
0001
0000
0000
0000
0020
0000
0000
0030
1000
0000
0100
0000
1000
0000
0000
0001
,
1000
0000
0020
0000
1030
0000
0100
1000
,
0100
0000
0000
0000
0002
0000
0000
0000
0010
0000
0000
0000
1000
0003
0000
0000
,
1000
0100
1000
0000
0010
0001
0100
0000
,
1000
0000
0010
0000
1000
0000
0000
0000
0001
0000
1000
0000
0000
0001
1000
0000
,
0010
1000
0100
0001
0010
0001
1000
0100
,
2000
0000
0000
3000
0001
0000
1000
0000
0010
0000
1000
0000
0100
0000
0001
0000
,
0010
0000
1000
0000
0200
0000
0000
0300
0001
0000
0010
0000
0001
0000
1000
0000
,
0010
0000
0000
0000
0100
0000
1000
0000
0100
0000
1000
0000
0001
0000
0000
0001
,
1000
0010
1000
0100
0010
0100
0002
0000
,
0013
1000
1000
0100
,
1000
0100
0001
0000
1000
0010
0001
0000
,
0100
0000
0010
0000
0100
0001
0010
0001
,
2000
0000
3010
1000
1000
0100
0001
0010
,
0001
0200
2300
3020
,
1030
0000
0000
0100
0000
0000
0001
0000
0000
0010
0000
0000
1000
0000
0000
0010
0000
1000
0000
0001
0000
0000
0000
0000
,
1000
0000
0000
0000
0010
0000
1000
0000
0100
0000
0001
0000
0010
0000
0000
0001
,
0100
1000
0020
0000
1030
0100
0001
0010
,
1000
1020
0230
0302
,
0000
0000
0000
0000
0000
0000
0003
0000
0000
0100
0000
0000
0001
0000
0000
0010
0000
0001
0000
0100
0000
0000
0000
0000
,
1000
0000
0000
0000
0010
0000
0100
0000
1000
0000
0100
0000
1000
0010
0001
0000
,
1000
0000
0010
0000
2000
0000
0000
0000
3100
0000
0001
0000
0020
0000
0000
0030
,
1000
0100
0001
0010
0001
0100
1000
0000
,
1000
0010
1001
0000
0001
0010
0101
0000
,
1000
0000
0010
0000
1000
0000
0100
0000
0001
0000
0010
0000
1000
0000
0000
0001
,
1000
0010
1000
0000
0100
0010
0001
0000
,
0100
0000
0001
0000
0010
0000
0001
0000
1000
0000
0100
0000
0020
0000
0000
0030
,
1000
0100
1000
0001
1000
0010
0100
0001
,
1000
0010
1000
0100
0001
0000
0010
0000
,
1000
0100
2000
0000
3001
0010
0002
0000
,
1003
0010
1000
0100
0010
0001
0101
0010
,
1000
0010
1000
0001
0100
0001
0010
0100
,
1000
0001
1000
0010
0100
1000
0100
0010
,
1000
0001
1001
0000
1000
0000
1010
0000
,
1000
0001
1000
0001
1000
0001
1000
0001
,
1000
0000
1000
0000
0010
0000
1000
0000
0001
0000
1000
0000
0100
0000
1000
0100
,
1000
0000
0001
0000
1000
0000
0010
0000
1000
0000
0001
0100
0001
1000
0010
0000
,
1000
0000
0100
0000
0002
0000
1000
0000
0013
0000
0000
1000
0001
0000
1000
0000
,
1001
0000
1010
0000
0100
0001
0010
0000
,
0100
0000
1000
0000
0200
0000
0000
0300
0001
0000
0010
0000
0002
0000
0000
0003
,
1000
0010
1000
0100
0001
0010
1000
0000
,
2000
0000
0001
0000
3002
0000
0010
0100
0023
0000
1000
0000
0230
0000
1000
0000
,
1300
0010
1000
0000
0100
0001
0010
0000
,
0001
0000
1000
0000
0010
0000
0000
0000
1000
0000
0100
0000
0001
0010
0001
0000
,
1000
0100
1000
0010
1000
0001
1000
0010
,
1000
1001
0001
1001
,
0001
0010
0001
0100
0001
1000
0001
0010
,
0001
0000
1000
0000
0010
1000
0100
0000
,
0020
0000
0031
0000
1000
0010
2000
0000
,
3100
0001
0010
0001
,
1000
0001
1000
0000
0010
0000
0100
0000
,
1000
0000
0000
0000
0000
0000
0001
0000
0000
0000
0000
0000
0010
0000
0000
0000
0000
0000
1000
0000
0000
0000
0000
0000
0100
0000
0000
0000
0000
0000
0000
0010
0000
0000
0000
0000
0000
0000
0000
0000
0100
0000
0000
0000
0000
0000
0000
0000
;

//---------------dance-single - ----------------
#NOTEDATA:;
#CHARTNAME:;
#STEPSTYPE:dance-single;
#DESCRIPTION:;
#CHARTSTYLE:;
#DIFFICULTY:Easy;
#METER:3;
#RADARVALUES:0.260686,0.302866,0.018432,0.276485,0.000000,198.000000,196.000000,2.000000,30.000000,0.000000,0.000000,0.000000,0.000000,0.000000,0.260686,0.302866,0.018432,0.276485,0.000000,198.000000,196.000000,2.000000,30.000000,0.000000,0.000000,0.000000,0.000000,0.000000;
#CREDIT:;
#NOTES:
0000
0000
0000
0000
,
0000
0000
0000
0000
,
0000
0000
0000
0000
,
0000
0000
0000
0000
,
1000
0001
0010
0000
,
1000
0000
0001
0000
,
0020
0031
0000
1000
,
1000
0100
0010
0001
,
1000
0002
0003
1000
,
1000
0010
0000
0100
,
1000
2000
0000
3001
,
0010
0001
0100
0001
,
2000
3010
0001
0100
,
2000
3010
0002
0103
,
1000
1000
0000
0001
,
0020
0031
0100
1000
,
1000
0001
0000
0010
,
2000
3100
1000
0010
,
0002
0103
0001
0001
,
2000
3010
2000
3010
,
0100
0001
0100
0010
,
0002
0000
1003
0000
,
1000
0010
0000
0100
,
1000
0001
0010
0001
,
0000
0100
0000
1000
,
1000
0020
0000
0130
,
0100
1000
1000
0001
,
0000
0001
0010
0000
,
1000
0000
0001
0000
,
1000
1000
0001
0001
,
0010
0000
0100
1000
,
1000
0010
0001
0100
,
1000
0020
0030
1000
,
1000
0001
0010
0001
,
0000
0100
1000
0100
,
2000
3001
0002
1003
,
0020
0001
0100
1030
,
1000
0100
0001
0010
,
0001
0100
0002
1003
,
1000
0010
0100
1000
,
1000
0001
0010
0100
,
0001
0000
0010
0000
,
2000
3001
0002
1003
,
1000
0110
1000
0110
,
0001
0020
0030
0001
,
1000
0200
0000
1300
,
1000
0010
0001
0100
,
0002
1003
2000
3001
,
0010
0100
1000
0010
,
2000
3002
0023
0230
,
1300
0100
1000
0010
,
0002
1003
2000
3010
,
0100
0100
0010
0010
,
0001
1000
0001
0000
,
1000
1000
0001
0001
,
0010
0100
0010
0000
,
1000
0100
0010
0001
,
1000
0001
0010
0100
,
1000
0100
1000
0100
,
0010
0001
0010
0001
;

//---------------dance-single - ----------------
#NOTEDATA:;
#CHARTNAME:;
#STEPSTYPE:dance-single;
#DESCRIPTION:;
#CHARTSTYLE:;
#DIFFICULTY:Beginner;
#METER:2;
#RADARVALUES:0.186956,0.245726,0.000000,0.165891,0.000000,142.000000,142.000000,0.000000,18.000000,0.000000,0.000000,0.000000,0.000000,0.000000,0.186956,0.245726,0.000000,0.165891,0.000000,142.000000,142.000000,0.000000,18.000000,0.000000,0.000000,0.000000,0.000000,0.000000;
#CREDIT:;
#NOTES:
// measure 0
0000
0000
0000
0000
,  // measure 1
0000
0000
0000
0000
,  // measure 2
0000
0000
0000
0000
,  // measure 3
0000
0000
0000
0000
,  // measure 4
0000
0000
0000
0000
,  // measure 5
0000
0002
0000
1003
,  // measure 6
1000
0000
0100
0000
,  // measure 7
0010
0000
1000
0000
,  // measure 8
0010
0000
0001
1000
,  // measure 9
1000
0002
0000
0003
,  // measure 10
1000
0100
0000
0000
,  // measure 11
0010
0000
0100
0000
,  // measure 12
0010
0001
0000
1000
,  // measure 13
2000
3010
0001
0100
,  // measure 14
0002
0013
0000
0100
,  // measure 15
2000
3100
0010
0001
,  // measure 16
0010
1000
0000
0100
,  // measure 17
2000
3001
0010
0001
,  // measure 18
0100
0001
0000
0010
,  // measure 19
0001
0000
0010
0000
,  // measure 20
0100
0000
0001
0001
,  // measure 21
2000
0000
0000
0000
,  // measure 22
3010
0001
0000
0000
,  // measure 23
0100
0000
0001
0000
,  // measure 24
0010
0001
0000
0001
,  // measure 25
1000
0020
0000
0030
,  // measure 26
0100
0100
0000
0000
,  // measure 27
1000
0000
0001
0000
,  // measure 28
0000
0010
0000
0100
,  // measure 29
0001
0000
1000
0000
,  // measure 30
0000
0001
0010
0001
,  // measure 31
0100
0000
0010
0000
,  // measure 32
0100
2000
0000
3001
,  // measure 33
0010
0000
0001
0000
,  // measure 34
0100
0000
1000
0010
,  // measure 35
0001
0000
0100
0000
,  // measure 36
2000
0001
0001
0001
,  // measure 37
3010
0100
1000
0100
,  // measure 38
0001
0000
1000
0000
,  // measure 39
0010
0001
0010
0001
,  // measure 40
0010
0000
0100
0000
,  // measure 41
1000
0000
0000
0000
,  // measure 42
0002
0013
2000
3100
,  // measure 43
1000
0000
0001
0000
,  // measure 44
2000
0000
0000
3001
,  // measure 45
0001
0010
0000
0100
,  // measure 46
1000
0000
0010
0000
,  // measure 47
0002
1003
2000
3001
,  // measure 48
0010
0000
0100
0000
,  // measure 49
1000
0001
0010
0100
,  // measure 50
1000
0100
1000
0001
,  // measure 51
0010
0001
0000
0001
,  // measure 52
2000
3000
0010
0001
,  // measure 53
0002
0003
0100
0000
,  // measure 54
0200
0300
0010
0100
,  // measure 55
1000
0000
0010
0000
,  // measure 56
0001
0000
0001
0000
,  // measure 57
0100
0000
0100
0000
,  // measure 58
1000
0000
0010
0000
,  // measure 59
1000
0010
0000
0000
;
