#TITLE:Whole New World (SOPHIE & Doss Remix);
#SUBTITLE:;
#ARTIST:SOPHIE;
#TITLETRANSLIT:Whole New World Sophie;
#SUBTITLETRANSLIT:;
#ARTISTTRANSLIT:;
#GENRE:;
#CREDIT:;
#BANNER:sm banners 4\:20.001.png;
#BACKGROUND:sm bgs 4\:20.006.png;
#LYRICSPATH:;
#CDTITLE:;
#MUSIC:wnw doss ddr.mp3;
#OFFSET:0.000000;
#SAMPLESTART:44.444443;
#SAMPLELENGTH:12.000000;
#SELECTABLE:YES;
#BPMS:0.000000=137.000000
;
#STOPS:
;
#BGCHANGES:;
#KEYSOUNDS:;
#ATTACKS:;

//---------------dance-single - ----------------
#NOTES:
     dance-single:
     :
     Beginner:
     3:
     0.234671,0.295878,0.028819,0.115277,0.000000,171.000000,168.000000,3.000000,12.000000,0.000000,0.000000,0.234671,0.295878,0.028819,0.115277,0.000000,171.000000,168.000000,3.000000,12.000000,0.000000,0.000000:
0000
0000
0000
0000
,
0000
0000
0000
0000
,
0000
0000
0000
0000
,
0000
0000
0000
0000
,
0000
0000
0010
0001
,
0001
0000
1000
0100
,
1000
0000
0010
0001
,
0010
0000
0100
0100
,
0000
1000
0010
0001
,
0100
1000
0100
1000
,
0010
0001
0100
0010
,
0001
0010
0001
1000
,
0000
0000
1000
0100
,
0000
0000
0010
0001
,
0000
0000
1000
0100
,
0000
0000
1000
0010
,
0001
0100
0001
0010
,
1000
0100
1000
0010
,
0001
0100
0010
0100
,
0010
0001
0010
0001
,
0000
0000
1000
0100
,
0000
0000
0010
0001
,
0000
0000
1000
0010
,
0000
0000
0001
0010
,
2000
3010
0001
0100
,
1000
0100
1000
0010
,
0002
0013
1000
0100
,
1000
0010
0001
1000
,
2000
3100
0001
0010
,
0001
0100
0010
0100
,
0020
0130
1000
0100
,
1000
0010
0001
1000
,
2000
3000
0100
0010
,
0002
0000
0013
0100
,
1000
0000
0100
0001
,
0010
0000
0100
0010
,
1010
0000
1000
0100
,
0001
0000
0010
0100
,
0002
0003
1000
0110
,
1000
0010
0001
0100
,
1001
0001
0001
0010
,
1000
1000
0010
1000
,
0100
0001
1000
0010
,
0100
0100
0010
0100
,
1000
1000
1000
1000
,
0001
0001
0001
0001
,
0010
0100
0010
0100
,
1000
0010
0001
0100
,
2000
0000
0000
3001
,
0020
0000
0030
1000
,
0200
0000
0300
0010
,
0001
0100
0002
1003
,
1000
0000
0010
0100
,
0001
0000
0010
0001
,
1000
0000
0100
0001
,
0020
0000
0000
0000
,
0130
0000
0000
0000
;

//---------------dance-single - ----------------
#NOTES:
     dance-single:
     :
     Easy:
     4:
     0.296427,0.376572,0.220948,0.076851,0.000000,216.000000,193.000000,23.000000,8.000000,0.000000,0.000000,0.296427,0.376572,0.220948,0.076851,0.000000,216.000000,193.000000,23.000000,8.000000,0.000000,0.000000:
0000
0000
0000
0000
,
0000
0000
0000
0000
,
0000
0000
0000
0000
,
0000
0000
0000
0000
,
1000
0000
0010
0001
,
0010
0000
0100
1000
,
0100
0000
0010
1000
,
0010
0000
0001
0100
,
1000
0010
0100
0010
,
0001
0100
1000
0010
,
1000
0100
1000
0001
,
0001
0010
0100
0010
,
0000
0000
2000
3100
,
0000
0000
0002
0013
,
1000
0000
0100
0110
,
0000
0000
0002
1003
,
1000
0100
1010
0001
,
0101
0001
0011
1000
,
1100
1000
1010
0001
,
0101
0001
1000
0010
,
2000
0100
3001
0010
,
0100
0000
2000
3100
,
0010
0001
0010
0001
,
2000
3100
0002
0003
,
1000
1100
0001
0011
,
1000
0010
1000
0100
,
1000
1001
0001
0010
,
0001
0101
1000
0010
,
1000
1100
1000
1010
,
0001
0101
0001
0011
,
1000
1100
1000
1010
,
1000
0100
0001
0000
,
0010
0001
0100
1000
,
0100
1000
0010
1000
,
1001
0001
0010
0001
,
0100
1000
0100
1000
,
1001
0001
0010
0001
,
0100
0010
0100
1000
,
0110
0010
0001
1000
,
0100
1000
0100
0001
,
1000
1000
1000
0010
,
0001
0001
0001
0100
,
1000
1100
0010
0011
,
0001
0001
1000
0010
,
1000
1000
1000
1000
,
0001
0001
0001
0001
,
0200
1300
0010
1000
,
0001
1000
0010
1000
,
0100
0100
0100
1000
,
1000
1000
0010
1000
,
1001
0001
0010
0100
,
0001
0001
0010
0001
,
0100
0100
0100
0100
,
0010
1000
0100
1000
,
0001
0000
0010
1000
,
0100
0000
0001
1000
,
1000
0000
0000
0000
;

//---------------dance-single - ----------------
#NOTES:
     dance-single:
     :
     Medium:
     6:
     0.384257,0.457266,0.105671,0.278586,0.000000,280.000000,269.000000,11.000000,29.000000,0.000000,0.000000,0.384257,0.457266,0.105671,0.278586,0.000000,280.000000,269.000000,11.000000,29.000000,0.000000,0.000000:
0000
0000
0000
0000
,
0000
0000
0000
0000
,
0000
0000
0000
0000
,
0000
0000
0000
0000
,
1000
0000
0010
0001
,
0010
0000
0100
1000
,
0100
0000
0001
1000
,
0010
0000
1000
0200
,
1300
1001
0001
0001
,
0020
2030
3200
0302
,
0023
0032
2003
3200
,
2300
0000
0020
3000
0032
0000
0003
0000
,
1100
0000
0000
1000
0200
0000
0301
0000
,
0010
0000
0001
0100
0002
0000
0013
0000
,
1000
0000
0000
1000
0200
0000
1300
0000
,
0000
0000
0000
0010
0002
0000
0103
1000
,
1000
0020
1030
0100
,
0002
1003
0020
1030
,
0200
0302
0203
2300
,
3020
2030
3200
1300
,
0001
0000
0010
1000
0100
0000
0001
0000
,
1000
0000
0010
1000
0100
0000
0001
0000
,
1000
0100
1000
0100
1000
0100
1000
0100
,
0001
0010
0001
1000
0002
0000
0003
0000
,
1000
0100
1001
0000
0001
0010
0001
0000
,
0100
0000
1000
0100
1000
0001
0010
0000
,
1000
0010
1000
0000
1000
0001
0100
0000
,
1000
0000
0100
0001
0010
0001
1000
0000
,
1000
0010
0101
0000
0001
0010
0101
0000
,
1000
0000
0100
1000
0010
1000
1001
0000
,
1000
0010
1010
0000
1000
0100
0101
0000
,
1000
0000
0010
1000
0001
0100
0011
0000
,
1000
0000
0110
1000
0100
1000
0010
0000
,
0001
0000
0010
0001
1000
0100
1000
0000
,
1001
0000
0001
0010
0001
0100
1000
0000
,
0100
0000
1000
0010
1000
0001
0010
0001
,
0100
0000
1000
0100
1000
0001
0010
0000
,
0001
0000
0100
0001
1000
0010
1000
0000
,
1000
0000
0100
0100
0001
0010
0001
0000
,
0010
0000
0100
0010
0100
0010
0001
0010
,
0001
0000
0010
0000
0010
0001
0010
0100
,
0001
0000
0010
0000
1000
0010
1000
0010
,
0100
0000
0001
0000
0010
0001
0100
0000
,
1000
0000
0010
0000
0100
0010
0100
0010
,
0001
0000
0001
0010
0001
0010
0001
1000
,
0100
0000
0100
0010
0100
0010
0100
1000
,
0001
0000
1000
0010
0100
0010
0001
0000
,
2000
0000
0000
0000
0010
0000
0001
3000
,
0001
0000
0001
0000
0001
1000
0100
0000
,
1000
0000
1000
0100
0010
0100
0010
0000
,
0001
0000
1000
0010
0100
0001
1000
0000
,
0010
0000
0010
0001
0100
0001
0010
0000
,
1000
0000
1000
0000
0010
0100
0001
0000
,
0010
0000
0010
0000
0100
0010
0001
0000
,
0001
0000
0100
0000
0100
0010
0100
0000
,
0002
0000
1000
0100
,
1003
0000
0000
0000
;

//---------------dance-single - ----------------
#NOTES:
     dance-single:
     :
     Hard:
     7:
     0.472087,0.512203,0.326618,0.144096,0.120080,344.000000,310.000000,34.000000,15.000000,0.000000,0.000000,0.472087,0.512203,0.326618,0.144096,0.120080,344.000000,310.000000,34.000000,15.000000,0.000000,0.000000:
// measure 0
0000
0000
0000
0000
,  // measure 1
0000
0000
0000
0000
,  // measure 2
0000
0000
0000
0000
,  // measure 3
0000
0000
0000
0000
,  // measure 4
0000
0000
0010
0001
,  // measure 5
1000
0000
2000
3100
,  // measure 6
1000
0000
0002
0013
,  // measure 7
0100
0000
2000
3100
,  // measure 8
1001
0001
0010
0101
,  // measure 9
1000
1100
0010
0110
,  // measure 10
0001
0011
0001
0101
,  // measure 11
1000
1010
1000
1001
,  // measure 12
0010
0000
0110
0010
0001
0000
0110
1000
,  // measure 13
1000
0000
1010
0000
1001
0000
0101
1000
,  // measure 14
1010
0000
0100
0001
0100
0000
0010
1000
,  // measure 15
0100
0000
0001
1000
0001
0010
1000
0100
,  // measure 16
0001
0011
1000
1100
,  // measure 17
0001
0101
0010
1010
,  // measure 18
0100
1100
0100
0110
,  // measure 19
0010
0011
1000
1001
,  // measure 20
0001
0010
0100
1000
0100
1000
0001
0010
,  // measure 21
1000
0100
0001
0010
1000
0100
1000
0001
,  // measure 22
0020
0000
1000
0030
0100
0000
0001
0000
0010
0000
1000
0000
0100
0000
1000
0000
,  // measure 23
0001
0010
0001
0100
0020
0100
0031
1000
,  // measure 24
1000
1000
1001
0010
1000
0100
1001
0000
,  // measure 25
1000
0000
0000
1000
0001
0000
0010
0000
1000
0000
0100
0000
0101
0000
0000
0000
,  // measure 26
1000
0010
0101
1000
0010
1000
0101
0000
,  // measure 27
1000
0000
0000
0100
1000
0000
0010
0000
1000
0000
0010
0000
0110
0000
0000
0000
,  // measure 28
0001
0010
0011
0100
1000
0100
0110
0000
,  // measure 29
1000
0000
0000
0010
1000
0000
0010
0000
1000
0000
0100
0000
0101
0000
0000
0000
,  // measure 30
1000
0010
1000
0100
0110
1000
0100
0000
,  // measure 31
1000
0000
0000
0001
0010
0000
1000
0000
0100
0000
1000
0000
1001
0000
0000
0000
,  // measure 32
1000
0000
0000
0010
1000
0000
0100
0000
0010
0000
0001
0000
0010
1000
0010
1000
,  // measure 33
0100
0000
0000
0001
0000
0000
0100
0000
0002
0000
0013
0000
2000
0000
0000
0000
,  // measure 34
3001
0000
0011
0010
0100
1000
0200
0000
,  // measure 35
1300
0000
0000
1000
0000
0000
0010
0000
1000
0000
0100
0000
0001
0000
0000
0000
,  // measure 36
1000
0000
1000
0010
1000
0100
0001
0000
,  // measure 37
1000
0000
0000
0010
0000
0000
1000
0000
0200
0000
0302
0000
0203
0000
0000
0000
,  // measure 38
1300
0000
0100
1000
0001
0010
1000
0100
,  // measure 39
0010
0000
0000
0100
0000
0000
0010
0000
0001
0000
0010
0000
1000
0000
0100
0000
,  // measure 40
1000
0000
0000
1000
0000
0000
1000
0000
0000
1000
0000
0000
0001
0000
0010
0000
,  // measure 41
0001
0000
0000
0100
0000
0000
1000
0000
0100
0000
1000
0000
0001
0000
0010
0000
,  // measure 42
1000
0000
0100
1000
0100
0001
0010
0000
,  // measure 43
1000
0000
0000
0100
0000
0000
0010
0000
0001
0000
0010
0000
1000
0000
0100
0000
,  // measure 44
0100
0000
0000
1000
0000
0000
0010
0000
0000
0001
0000
0000
0100
0000
1000
0000
,  // measure 45
0100
0000
0000
0010
0000
0000
0100
0000
0000
0001
0000
0000
0010
0000
0001
0000
,  // measure 46
0100
0000
1000
0010
1000
0100
1000
0000
,  // measure 47
0001
0000
0000
1000
0000
0000
0010
0000
1000
0000
0100
0000
0001
0000
0000
0000
,  // measure 48
1000
0000
1000
0010
1000
0100
0001
0010
,  // measure 49
1000
0000
0000
0100
0000
0000
1000
0000
0001
0000
0010
0000
0002
0000
0000
0000
,  // measure 50
1003
0000
1000
0100
1000
0010
2000
3100
,  // measure 51
0100
0000
0000
0001
0000
0000
0001
0000
0010
0000
0001
0000
0100
0000
1000
0000
,  // measure 52
0100
0000
0000
0100
0000
0000
0100
0000
0000
1000
0000
0000
0010
0000
0100
0000
,  // measure 53
0001
0000
0000
1000
0000
0000
0010
0000
0100
0000
0001
0000
2000
0000
0000
0000
,  // measure 54
3010
0000
0100
0001
0010
0001
1000
0000
,  // measure 55
2000
0000
0000
0000
0000
0000
0000
0000
0010
0000
0001
0000
0100
3000
0000
0000
,  // measure 56
0001
1000
0000
0000
0000
0000
0000
0000
;
