#VERSION:0.83;
#TITLE:WET;
#SUBTITLE:;
#ARTIST:COBRAH;
#TITLETRANSLIT:Wet;
#SUBTITLETRANSLIT:;
#ARTISTTRANSLIT:;
#GENRE:;
#ORIGIN:;
#CREDIT:;
#BANNER:wetbn.png;
#BACKGROUND:wetbg.png;
#PREVIEWVID:;
#JACKET:;
#CDIMAGE:;
#DISCIMAGE:;
#LYRICSPATH:;
#CDTITLE:;
#MUSIC:Wet.mp3;
#OFFSET:0.000000;
#SAMPLESTART:30.000000;
#SAMPLELENGTH:15.000000;
#SELECTABLE:YES;
#BPMS:0.000=126.000;
#STOPS:6.500=0.476,
45.000=0.238,
45.500=0.238,
189.000=0.476;
#DELAYS:;
#WARPS:;
#TIMESIGNATURES:0.000=4=4;
#TICKCOUNTS:0.000=4;
#COMBOS:0.000=1;
#SPEEDS:0.000=1.000=0.000=0;
#SCROLLS:0.000=1.000;
#FAKES:;
#LABELS:0.000=Song Start;
#BGCHANGES:;
#KEYSOUNDS:;
#ATTACKS:
;

//---------------dance-single - ----------------
#NOTEDATA:;
#CHARTNAME:;
#STEPSTYPE:dance-single;
#DESCRIPTION:;
#CHARTSTYLE:;
#DIFFICULTY:Beginner;
#METER:3;
#RADARVALUES:0.242820,0.256829,0.028018,0.112071,0.000000,182.000000,179.000000,3.000000,12.000000,0.000000,0.000000,0.000000,0.000000,0.000000,0.242820,0.256829,0.028018,0.112071,0.000000,182.000000,179.000000,3.000000,12.000000,0.000000,0.000000,0.000000,0.000000,0.000000;
#CREDIT:;
#NOTES:
1000
0001
0010
0000
,
0100
1000
0000
1000
,
0100
0010
0000
1000
,
0010
1000
0001
1000
,
0100
1000
0010
0001
,
0100
2000
3001
0000
,
0010
0001
0100
0001
,
1000
0200
1300
0000
,
0010
0100
0000
0001
,
1000
0100
1000
0000
,
0010
0001
0100
1000
,
0100
1001
0010
0100
,
0001
0000
0010
0100
,
0010
0000
1000
1000
,
1000
0000
0001
0010
,
0001
0200
1300
0100
,
1000
0000
0010
0001
,
0010
0000
1000
0100
,
1000
0000
0001
0001
,
1000
2000
3100
0001
,
0010
0000
0100
0010
,
0100
0000
1000
0010
,
1000
0000
0100
0001
,
0100
0000
1000
0000
,
0000
0000
0000
0000
,
0000
0000
0001
0010
,
1000
0000
0100
0000
,
0100
0000
0001
1000
,
0001
0000
1000
0010
,
1000
0000
0100
1000
,
0100
0000
0001
1000
,
0001
1000
1001
0001
,
0010
0100
1000
0100
,
1000
0000
0001
0010
,
0001
0100
1000
0010
,
2000
3200
0301
0001
,
1000
0000
0010
0100
,
1000
1000
0001
0001
,
0010
0000
0100
1000
,
0010
0100
1000
0001
,
0010
0001
0100
0001
,
2000
3100
0000
0010
,
0001
0100
0001
0010
,
2000
3100
0000
0100
,
0010
0100
0001
1000
,
0002
2003
3000
0100
,
0010
1000
0100
1000
,
0010
1000
0001
0010
,
0000
0100
1000
0100
,
0000
1000
0001
0010
,
0000
0100
1000
0100
,
0002
1003
0100
0010
,
0000
0001
1000
0001
,
0000
1000
0100
1000
,
0000
0020
0130
1000
,
1001
0000
0000
0000
;

//---------------dance-single - ----------------
#NOTEDATA:;
#CHARTNAME:;
#STEPSTYPE:dance-single;
#DESCRIPTION:;
#CHARTSTYLE:;
#DIFFICULTY:Medium;
#METER:7;
#RADARVALUES:0.406924,0.436610,0.074714,0.130749,0.144758,305.000000,297.000000,8.000000,14.000000,0.000000,0.000000,0.000000,0.000000,0.000000,0.406924,0.436610,0.074714,0.130749,0.144758,305.000000,297.000000,8.000000,14.000000,0.000000,0.000000,0.000000,0.000000,0.000000;
#CREDIT:;
#NOTES:
1000
0000
0000
0000
0010
0000
0000
1000
0000
0000
0000
0000
0000
0000
0001
0000
,
0010
1000
0100
1000
,
0100
0000
0000
0001
0000
0000
0000
0000
0000
0000
0010
0000
1000
0000
0100
0000
,
1000
0000
0001
0000
2000
0000
0000
0000
3002
0000
0000
0003
0000
0000
0000
0000
,
1000
0000
0100
0000
1000
0000
0010
0001
,
0010
0001
1000
0000
0100
0000
0000
0000
,
0010
0100
0010
0001
1000
0001
1000
0000
,
0100
0000
0010
0000
0001
0000
0000
0000
1000
0000
0000
0000
0000
0000
0000
0100
,
1000
0000
0100
0000
0010
0000
0001
0000
0010
0000
0001
0000
2000
0000
0000
3000
,
0200
0000
0000
0000
0302
0000
0000
0000
0023
0000
0000
0000
0030
0000
0000
1000
,
0100
1000
0001
1000
0001
0010
1000
0100
,
0010
0001
1001
0110
1000
0000
0100
0000
,
1000
0000
0000
0001
0000
0000
0000
0010
0000
0000
0100
0000
1000
0000
0100
0000
,
0001
1001
0001
0010
,
0100
0000
0000
1000
0000
0000
0000
0100
0000
0000
0001
0000
0010
0000
1000
0000
,
0100
0010
1000
0001
,
0010
0000
0000
0100
0000
0000
0000
0000
0001
0000
0010
0000
0001
0000
0100
0000
,
1000
0001
1000
0100
,
1000
0000
0000
0010
0000
0000
0000
0100
0000
0000
0001
0000
1000
0000
0001
0000
,
0100
0000
0000
0001
1000
0000
0001
0000
0010
0000
0000
0000
0001
0000
0000
0000
,
0100
0000
0000
1000
0000
0000
0000
0001
0000
0000
0010
0000
0100
0000
1000
0000
,
0100
1001
0001
0010
,
0100
0000
0000
1000
0000
0000
0000
0100
0000
0000
0001
0000
0010
0000
1000
0000
,
0100
0001
1000
0100
,
1000
0000
0000
0000
0000
0000
0010
0000
0001
0000
0000
0000
0100
0000
0000
1000
,
0000
0000
0000
0000
0000
0000
0000
0000
0010
0000
0000
0000
0100
0000
0000
1000
,
0000
0000
0000
0000
0000
0000
0001
0000
0010
0000
0000
0000
1000
0000
0000
0100
,
0000
0000
0000
0001
0000
0000
1000
0000
0110
0000
0000
0000
1000
0000
0000
1000
,
0000
0000
0000
0000
0000
0000
0001
0000
0010
0000
0000
0000
0001
0000
0000
0100
,
0000
0000
0000
0000
0000
0000
0000
0000
1000
0000
0000
0000
0100
0000
0000
1000
,
0000
0000
0001
1000
,
0100
0000
0100
0001
1000
0001
1000
0001
,
1000
0000
0010
0100
1000
0100
1000
0001
,
1000
0000
0001
0000
1000
0010
1000
0010
,
0100
0001
1000
0000
0001
1000
0001
0100
,
2000
0000
3020
0000
0031
0100
0001
0000
,
1000
0100
1000
0000
0001
1000
0001
0010
,
1000
0100
0000
0000
0001
0000
0001
0100
,
0001
1000
0000
0100
1000
0001
1000
0001
,
0020
0000
0230
0000
0300
0000
1000
0100
,
1000
0100
0001
0010
0001
1000
0001
1000
,
1001
0000
0110
0000
1000
0100
1000
0010
,
0100
0010
0001
0100
0001
1000
0010
0100
,
0001
0000
0010
0000
1000
0100
1000
0100
,
0010
1000
0001
1000
0001
0010
2000
0000
,
3200
0000
0302
0000
0003
1000
0010
1000
,
0100
0001
0010
0001
0100
1000
0010
0100
,
0002
0000
0000
0000
1003
0000
0000
0000
0001
0000
0000
0000
0100
0000
0000
0010
,
0000
0000
0000
1000
0000
0000
0001
0000
0100
0000
0001
0000
0010
0000
0000
0000
,
0110
0000
0000
0000
0010
0000
0000
0000
1000
0000
0000
0000
0001
0000
0000
0100
,
0000
0000
0000
0001
0000
0000
0010
0000
1000
0000
0100
0000
0001
0000
0000
0000
,
1000
0000
0000
0000
0100
0000
0000
0000
0010
0000
0000
0000
1000
0000
0000
0001
,
0000
0000
0010
1000
0010
0001
0100
0000
,
0010
0000
0000
0000
0100
0000
0000
0000
0001
0000
0000
0000
0100
0000
0000
1000
,
0000
0000
0000
0001
0000
0000
0010
0000
0100
0000
0010
0000
0001
0000
0100
0010
,
0100
0000
0000
0000
;

//---------------dance-single - ----------------
#NOTEDATA:;
#CHARTNAME:;
#STEPSTYPE:dance-single;
#DESCRIPTION:;
#CHARTSTYLE:;
#DIFFICULTY:Hard;
#METER:9;
#RADARVALUES:0.661752,0.693439,0.410927,0.457623,0.518328,496.000000,452.000000,44.000000,49.000000,0.000000,0.000000,0.000000,0.000000,0.000000,0.661752,0.693439,0.410927,0.457623,0.518328,496.000000,452.000000,44.000000,49.000000,0.000000,0.000000,0.000000,0.000000,0.000000;
#CREDIT:;
#NOTES:
1000
0000
0000
0000
1100
0000
0000
0100
0000
0000
0000
0000
0000
0000
0010
0000
,
0001
0000
0010
0000
0011
0000
0000
0010
0000
0000
0000
0000
1000
0000
0000
0000
,
1001
0000
0000
0110
0000
0000
1000
0100
0000
0000
0001
0000
1000
0000
0100
0000
,
1000
0000
0100
0000
0001
0000
0010
0100
1000
0100
0000
0001
1000
0000
0100
0000
,
0010
0100
0010
0001
1000
0001
1000
0100
,
0010
0001
0020
0000
0230
1000
1300
0010
,
1000
0001
0010
0100
1000
0010
1000
0001
,
0010
0000
0100
0000
0010
0000
0001
0100
1000
0100
0001
0010
0100
0000
0001
0010
,
1000
0000
0100
0000
0002
0000
1003
0000
0100
0000
0010
0000
0002
0000
0013
0100
,
2000
0000
3001
0000
0002
0000
0000
0000
0023
0000
0000
0000
1030
0000
0100
1000
,
0001
0000
0010
0000
0002
0000
0103
0000
1000
0001
0010
0001
0100
0000
0100
0000
,
0010
0010
1001
0110
1010
0000
0101
0000
,
0110
0000
0000
0100
1000
0000
0000
0001
1000
0000
0010
0000
0110
0000
0100
0000
,
1100
0000
0000
0020
0031
0000
1000
0000
0120
0000
0000
0030
1010
0000
0000
0100
,
0001
0000
0000
0100
1000
0000
0000
0001
0010
0000
1000
0000
1001
0000
0100
0000
,
0110
0000
1000
0002
1003
0100
0000
0010
1000
0000
0000
0000
1001
0000
0000
0000
,
0110
0000
0000
0010
0000
0100
1000
0100
2000
0000
3001
0000
0020
0000
0130
0000
,
1000
0000
0000
0001
1000
0000
0000
0000
1010
0000
0000
0000
0101
0000
0000
0000
,
0011
0000
0000
0001
1000
0000
0000
0100
1000
0000
0010
0000
0011
0000
0001
0000
,
1001
0000
0000
0020
0130
0000
1000
0000
1000
0000
0002
0000
0013
0000
0002
0000
,
0103
0000
0020
1000
0031
0000
0000
0000
1000
0000
0100
0000
0002
0000
0010
0000
,
0103
0000
1000
0100
0001
0000
0010
0000
1001
0000
0000
0000
0110
0000
0000
0000
,
1010
0000
0000
0010
1000
0000
0001
0000
2000
0000
3200
0000
0320
0000
0032
0000
,
2003
0000
3100
0010
0001
0000
1000
0001
1000
0000
0000
0000
0100
0000
0000
0001
,
0000
0000
0000
0000
0000
0000
0010
0000
1000
0000
0000
0000
0010
0000
0000
0100
,
0000
0000
0000
0000
0000
0000
0000
0000
0001
0000
0000
0000
0010
0000
0000
0100
,
0000
0000
0000
0000
0000
0000
1000
0000
0100
0000
0000
0100
0000
0000
0100
0000
,
1000
0100
0000
1000
0000
0000
0010
0000
1001
0000
0000
0000
1001
0000
0000
1001
,
0000
0000
0000
0000
0000
0000
0100
0000
0100
0000
0000
0000
0001
0000
0000
0010
,
0100
0000
0001
0001
1000
0000
0100
0000
1000
0000
0000
0000
1000
0000
0000
0001
,
1000
0001
0001
0100
,
1000
0100
1000
0100
0001
0010
0001
0010
1000
0000
0100
0000
1000
0000
0000
0001
,
0000
0010
0100
0000
2000
0000
3100
0000
0001
0000
0010
0000
0100
1000
0000
0001
,
0010
0000
0001
0000
1001
0000
0110
0000
1000
0000
0100
0000
1000
0001
0000
0010
,
1000
0010
0001
0010
1001
0001
0101
0001
,
0011
0000
0000
0000
0000
0000
0000
0000
0110
0000
0000
0000
0000
0100
1000
0100
1000
0000
0100
0000
1000
0000
0000
0000
0001
0000
0000
0000
0010
0000
0100
0000
,
0000
0001
0010
0000
0001
0000
1000
0100
0001
0000
0010
0000
0001
0000
0000
1000
,
0000
1000
0100
0000
0001
0000
0010
0000
1000
0100
0000
0001
0010
0100
0000
2000
,
3000
0000
0100
0001
0100
0000
1000
0100
2000
0000
3100
0000
0020
0000
0130
0000
,
0002
0000
2003
0000
3001
0010
0001
0100
,
1000
0100
1000
0010
0100
0010
0001
0100
,
0002
0000
0010
0010
0203
1000
0000
1000
0300
0000
0001
0000
0010
0000
0001
0000
,
0100
1000
0010
0010
1000
1000
0010
0100
,
0001
0000
1000
0100
1000
0001
1000
0001
0000
0000
0100
0010
1000
0000
0100
0000
,
0001
0000
0100
0001
0010
0000
1000
0010
1000
0000
0001
0000
0020
0000
0001
0000
,
0230
0000
1000
0010
0320
1000
0000
0100
1030
0000
1000
0000
0100
0000
0100
0000
,
0010
0000
0010
1000
0001
0000
0001
0100
0010
0000
0010
0000
0001
1000
0001
1000
,
0100
0001
0100
0000
1010
0000
0000
0000
0101
0000
0000
0000
1000
0000
0000
0010
,
0000
0100
1000
0100
0001
0000
0011
0000
1000
0000
1100
0000
0010
0000
0000
0100
,
1001
0000
0001
0000
2000
0000
3100
0000
0002
0000
0013
0100
0001
0000
0000
1000
,
0010
0000
0001
0020
1030
0000
0100
0000
1001
0000
0010
0000
0110
0000
1000
0200
,
0301
0010
2200
0300
3001
0000
0010
0001
1000
0000
0000
0010
1000
0000
0000
1000
,
0100
0000
0001
0010
0002
0000
1003
0000
0200
0000
0301
0010
0010
0000
0010
0001
,
1000
0010
0200
0001
1300
0000
0010
0100
0011
0000
0001
1000
0100
0000
0010
0002
,
1003
0100
1000
0100
0020
0000
0032
0000
2003
0000
3200
0000
0302
0000
1003
0100
,
1001
0000
0000
0000
;

//---------------dance-single - ----------------
#NOTEDATA:;
#CHARTNAME:;
#STEPSTYPE:dance-single;
#DESCRIPTION:;
#CHARTSTYLE:;
#DIFFICULTY:Easy;
#METER:5;
#RADARVALUES:0.328208,0.333878,0.046696,0.102732,0.000000,246.000000,241.000000,5.000000,11.000000,0.000000,0.000000,0.000000,0.000000,0.000000,0.328208,0.333878,0.046696,0.102732,0.000000,246.000000,241.000000,5.000000,11.000000,0.000000,0.000000,0.000000,0.000000,0.000000;
#CREDIT:;
#NOTES:
// measure 0
1000
0000
0001
0000
1000
0000
0000
0010
,  // measure 1
1000
0100
1000
0001
,  // measure 2
0010
0000
0001
0000
0000
0100
1000
0000
,  // measure 3
0010
0002
0013
1000
,  // measure 4
0000
0000
0100
0000
1000
0100
1000
0000
,  // measure 5
0001
0010
0001
0010
,  // measure 6
0000
0000
1000
0100
1000
0000
0001
0000
,  // measure 7
0010
0100
0010
0001
,  // measure 8
0000
0010
0001
0010
0100
0000
1000
0000
,  // measure 9
0001
1000
0100
0010
,  // measure 10
0001
0000
0010
0000
1000
0100
2000
0000
,  // measure 11
0000
3000
0001
0010
1000
0000
0100
0000
,  // measure 12
1000
0000
0001
0010
,  // measure 13
1000
0011
0010
0100
,  // measure 14
0010
1000
0001
0010
,  // measure 15
0001
1000
0100
0000
1000
0000
0001
0000
,  // measure 16
0010
0000
0001
0000
0100
1000
0100
0000
,  // measure 17
0001
0010
0010
0100
,  // measure 18
0010
0000
1000
0000
0010
0100
0010
0100
,  // measure 19
0001
0001
0001
0010
,  // measure 20
0001
0000
0100
0000
0001
0100
0001
1000
,  // measure 21
0010
0010
0100
1000
,  // measure 22
0100
0000
1000
0000
0010
0100
0010
0001
,  // measure 23
1000
0001
1000
0000
,  // measure 24
0000
0000
0000
0010
0100
0000
0000
0000
,  // measure 25
0000
0000
0001
0000
,  // measure 26
0000
0000
0000
0010
0100
0000
0000
0000
,  // measure 27
0000
0000
1000
0010
,  // measure 28
1000
0000
0000
0100
0100
0000
0001
0000
,  // measure 29
0010
0000
1000
0100
,  // measure 30
1000
0000
0000
0010
0001
0000
0001
0000
,  // measure 31
1000
0100
1000
0100
0001
0000
1000
0000
,  // measure 32
0010
0000
0100
0001
1000
0000
0100
0000
,  // measure 33
1000
1000
0010
0001
,  // measure 34
0100
0001
0100
0000
0010
0100
1000
0100
,  // measure 35
2000
3002
1003
0100
,  // measure 36
0010
0100
0010
0000
0001
0000
0100
0000
,  // measure 37
0001
0100
1000
0000
0011
0000
0010
0000
,  // measure 38
1000
0010
1000
0000
0100
1000
0001
0000
,  // measure 39
0010
0100
1001
0000
,  // measure 40
0010
0100
0001
0000
1000
0100
1000
0000
,  // measure 41
0010
0000
0100
0100
1000
0000
0000
0001
,  // measure 42
0010
0000
0100
0001
0100
0000
0010
0100
,  // measure 43
0010
0000
0000
0100
1000
0000
0000
0001
,  // measure 44
0100
0001
1000
0010
0100
0010
0100
0000
,  // measure 45
0001
0000
0010
1000
2000
0000
3002
0000
,  // measure 46
2003
0000
3200
0000
0302
0000
0023
0030
,  // measure 47
0200
1300
0001
0010
,  // measure 48
0100
0000
1000
0100
1000
0000
0001
0000
,  // measure 49
0011
1000
0100
0010
,  // measure 50
0001
0000
0010
0001
0010
0001
0010
0000
,  // measure 51
1000
0100
0001
1000
,  // measure 52
0010
0000
0100
0010
0100
0000
0010
0000
,  // measure 53
1000
0100
1000
0010
,  // measure 54
0001
0100
0001
1000
,  // measure 55
1001
0000
0000
0000
;
