#VERSION:0.83;
#TITLE:Visions;
#SUBTITLE:;
#ARTIST:Charli XCX;
#TITLETRANSLIT:;
#SUBTITLETRANSLIT:;
#ARTISTTRANSLIT:;
#GENRE:;
#ORIGIN:;
#CREDIT:;
#BANNER:visionsbn.png;
#BACKGROUND:visionsbg.png;
#PREVIEWVID:;
#JACKET:;
#CDIMAGE:;
#DISCIMAGE:;
#LYRICSPATH:;
#CDTITLE:;
#MUSIC:Visions.mp3;
#OFFSET:0.000000;
#SAMPLESTART:24.237000;
#SAMPLELENGTH:16.500000;
#SELECTABLE:YES;
#BPMS:0.000=140.000,
4.000=70.000,
20.000=140.000,
100.000=35.000,
101.000=140.000;
#STOPS:;
#DELAYS:;
#WARPS:;
#TIMESIGNATURES:0.000=4=4;
#TICKCOUNTS:0.000=4;
#COMBOS:0.000=1;
#SPEEDS:0.000=1.000=0.000=0;
#SCROLLS:0.000=1.000;
#FAKES:;
#LABELS:0.000=Song Start;
#BGCHANGES:;
#KEYSOUNDS:;
#ATTACKS:
;

//---------------dance-single - ----------------
#NOTEDATA:;
#CHARTNAME:;
#STEPSTYPE:dance-single;
#DESCRIPTION:;
#CHARTSTYLE:;
#DIFFICULTY:Easy;
#METER:4;
#RADARVALUES:0.318110,0.404194,0.205305,0.142134,0.000000,282.000000,256.000000,26.000000,18.000000,0.000000,0.000000,0.000000,0.000000,0.000000,0.318110,0.404194,0.205305,0.142134,0.000000,282.000000,256.000000,26.000000,18.000000,0.000000,0.000000,0.000000,0.000000,0.000000;
#CREDIT:;
#NOTES:
1000
0000
0000
0000
1000
0000
0000
0000
0002
0000
0000
0000
0000
0000
0000
0003
,
1000
0010
2000
0000
,
0001
0010
3020
0000
,
1030
0100
0002
0000
,
0010
0100
0203
0000
,
1300
0100
1000
0100
,
0002
0000
1003
1000
,
0010
0001
0010
1000
,
0200
1300
0002
0000
,
0013
0100
1000
0100
,
2000
0000
3001
0010
,
1000
0100
1000
0010
,
0001
1000
0001
0000
,
0010
1000
0100
0100
,
2000
0000
3010
0001
,
0002
0000
1003
0100
,
1000
0000
0010
0000
,
0100
0010
0100
0100
,
0100
0000
0001
0001
,
1000
0000
1000
1000
,
0001
0000
0010
0100
,
1000
0100
1000
0100
,
1000
0100
0010
0001
,
0010
0001
0010
0001
,
1000
0100
0010
0001
,
0000
1001
1000
1000
,
1000
1000
1100
1000
,
1010
0001
0001
0001
,
0001
0001
0101
0001
,
0011
1000
1001
0001
,
1001
0010
0110
0100
,
0110
0010
0011
0010
,
1100
1000
1100
1010
,
0101
0001
1000
0100
,
1000
0010
1000
0100
,
0001
0010
1000
0100
,
0100
1000
0010
0001
,
0010
1000
0100
1000
,
1001
0001
0010
0001
,
0101
1000
0010
1000
,
1010
1000
0100
0001
,
0010
2000
3100
0001
,
0010
2000
3010
0001
,
0100
2000
3001
0010
,
0100
0002
0103
2000
,
3010
1000
1000
1000
,
0100
1000
0001
0001
,
0001
0010
0010
1000
,
1000
0100
1000
0100
,
0100
0001
0010
0010
,
0010
1000
1000
1000
,
1000
1100
1000
1000
,
0010
1000
0001
0001
,
0010
0001
0100
1000
,
0100
1000
1010
0001
,
0101
0001
1010
1000
,
1100
0001
0101
0001
,
0011
1000
1001
0010
,
0110
2000
0100
0100
,
0100
0100
0010
0001
,
0010
0001
0010
0001
,
0100
0001
0100
0010
,
0100
3001
0001
0001
,
0001
0001
0001
0001
,
0001
1000
1000
1000
,
1000
0010
0100
0010
,
0100
0001
1000
0100
,
1000
0010
0001
0100
,
2000
3000
0000
0000
;

//---------------dance-single - ----------------
#NOTEDATA:;
#CHARTNAME:;
#STEPSTYPE:dance-single;
#DESCRIPTION:;
#CHARTSTYLE:;
#DIFFICULTY:Medium;
#METER:6;
#RADARVALUES:0.460244,0.458086,0.063171,0.126341,0.000000,408.000000,400.000000,8.000000,16.000000,0.000000,0.000000,0.000000,0.000000,0.000000,0.460244,0.458086,0.063171,0.126341,0.000000,408.000000,400.000000,8.000000,16.000000,0.000000,0.000000,0.000000,0.000000,0.000000;
#CREDIT:;
#NOTES:
1000
0000
0010
0000
0002
0000
1000
1000
,
1003
0100
1000
0000
0002
0000
1003
0000
,
0010
0100
0010
0001
0200
0000
0301
0000
,
0010
0001
0200
0000
1300
0000
0010
1000
,
2000
0000
3100
0010
0200
0000
1300
0000
,
1000
0100
1000
0100
0001
0000
1000
0000
,
0010
0000
0001
0010
,
1000
0100
1000
0100
1000
0000
0010
0000
,
0001
0200
0301
0000
,
0010
0100
0010
0100
0020
0000
0032
0000
,
2003
3000
0100
1000
,
0010
1000
0010
0000
0100
0001
0100
0000
,
0001
1000
0010
1000
,
1000
0100
1000
0100
0001
0000
0001
0000
,
0010
0000
0010
1000
0010
0100
0001
0000
,
0100
0010
0100
0010
1000
0000
0001
1000
,
0001
0000
1000
0000
0010
1000
0100
0000
,
0001
0010
0001
0100
0001
1000
0010
0000
,
1000
0000
0100
1000
0100
0010
0100
0000
,
0001
0010
0001
0100
1000
0000
0001
0000
,
0010
0000
1000
0100
1000
0010
0001
0000
,
0100
0001
0101
1000
0001
0000
0001
1000
,
0010
0000
1000
0100
1000
0010
0100
0000
,
0001
0010
0001
0100
0001
0000
1000
0000
,
0010
0000
1000
0100
1000
0100
0001
0000
,
2200
3300
0101
0000
0001
0000
1001
0000
,
1000
1001
0001
0011
,
0010
0110
0100
1100
,
0100
0100
0010
0010
0200
0000
2300
0000
,
3001
0000
0010
0001
0100
0000
1000
0100
,
1000
0000
0010
0001
0100
0001
1000
0100
,
1000
0000
0010
0001
0100
0001
1000
0010
,
1000
0000
1000
0100
1000
0010
1000
0100
,
0001
0010
0001
1000
0001
1000
0100
1000
,
0100
1000
0100
1000
0010
1000
0010
0100
,
0010
0100
0001
0010
0001
0100
0001
1000
,
0010
0100
1000
0100
0010
0001
0010
0001
,
0100
1000
0010
0100
0001
1000
0010
1000
,
0100
0010
0001
1000
0010
0100
1000
0001
,
0010
0100
0001
1000
0010
1000
0100
0001
,
1000
0010
1000
0001
0100
0010
1000
0001
,
0100
0010
1000
0001
0100
1000
0010
1000
,
0001
1000
0100
0010
1000
0001
1000
0100
,
0001
0010
1000
0100
0010
0100
1000
0100
,
0001
0010
0001
0100
1000
0100
1000
0001
,
0010
0001
1000
0001
1000
0010
1000
0010
,
0100
1000
0100
0001
0100
0001
1000
0010
,
1000
0100
0001
0010
0001
1000
0100
1000
,
0010
1000
1000
0001
1000
0010
1000
0100
,
0001
0100
1000
0000
0010
0000
0001
0000
,
1000
0000
0001
0000
0001
1000
0100
0000
,
1000
0000
0010
0000
0010
1000
0100
0000
,
0010
0000
0010
0000
0001
0001
0001
0000
,
1000
0000
0100
0000
0100
0100
0100
0000
,
1000
0000
0010
0010
1000
0010
1000
0000
,
1000
0000
0100
0100
0001
0100
0001
0000
,
0010
0000
1000
1000
0001
1000
0001
0000
,
0010
0000
0100
1000
0100
0000
0001
0000
,
0010
0002
1000
1000
,
1000
0100
0100
0100
,
0100
1000
0010
1000
,
0100
1000
0010
0100
,
1000
0003
1000
0000
0100
0000
0010
0000
,
0001
1000
0010
1000
,
0100
0001
0010
0001
,
0100
1000
0100
0010
,
0001
0001
0001
0001
,
1000
0100
0010
0001
,
2000
3000
0000
0000
;

//---------------dance-single - ----------------
#NOTEDATA:;
#CHARTNAME:;
#STEPSTYPE:dance-single;
#DESCRIPTION:;
#CHARTSTYLE:;
#DIFFICULTY:Hard;
#METER:8;
#RADARVALUES:0.540335,0.673656,0.173719,0.592225,0.304009,479.000000,457.000000,22.000000,75.000000,0.000000,0.000000,0.000000,0.000000,0.000000,0.540335,0.673656,0.173719,0.592225,0.304009,479.000000,457.000000,22.000000,75.000000,0.000000,0.000000,0.000000,0.000000,0.000000;
#CREDIT:;
#NOTES:
1000
2000
0000
3000
0010
0002
0013
0000
2000
0000
0000
0000
0000
3100
0001
0100
,
1000
0000
0100
0000
0010
0000
0001
0000
2000
0000
0000
0000
0000
0000
0000
0000
3001
0000
0000
0000
0000
0000
0000
0000
1000
0000
0000
0010
0000
0000
0000
0000
,
1000
0000
0100
0000
0010
0000
0100
0000
2000
0000
0000
0000
3020
0000
0000
0000
0032
0000
0000
0000
0003
0000
0000
0000
0010
0000
0000
0010
0000
0000
0000
0000
,
0001
0000
0100
0000
0010
0000
0100
0000
0002
0000
0000
1000
0000
0000
0000
0000
0023
0000
0000
0000
0000
0000
0000
0000
0001
0000
0000
0000
0000
0000
0000
0000
,
2030
0000
0100
0000
0100
0000
0010
0000
0010
0000
0000
0000
0001
0000
0000
0000
3200
0000
0000
0000
0000
0000
0000
0000
0010
0000
0000
0001
0000
0000
0000
0000
,
1300
0100
1000
0100
0001
0000
0020
0000
,
1000
0030
0000
0000
0000
0000
0000
0000
0100
0000
0000
1000
0000
0000
0000
0000
,
0001
0000
0010
0000
0001
0000
1000
0000
0100
0000
1000
0000
0020
0000
0000
0030
,
2000
0000
0000
0000
3200
0000
0000
0000
0302
0000
0000
0003
0000
0000
0000
0000
,
1000
0010
0000
1000
0000
0010
0001
0000
0001
0000
0000
0010
2000
0000
3000
0000
,
0100
0000
1000
0000
0000
0000
0001
0000
0000
0010
0000
0000
1000
0000
0000
0000
,
0110
0000
1000
0000
0001
0000
1000
0000
0001
0000
1000
0000
0020
0000
0000
0030
,
0200
0000
0000
0300
2000
0000
0000
0000
3200
0000
0000
0300
0000
0000
0000
0000
,
0001
0000
0001
0000
0010
0000
1000
0000
0200
0000
0000
0000
2300
0000
0000
3000
,
0010
0000
1000
0001
0100
0001
0100
0001
,
0010
0000
1000
0000
0100
0000
1000
0000
0002
0000
0000
0000
0020
0003
0000
0000
,
2030
0000
0000
0000
0010
3000
0000
0000
0001
0000
0000
0000
0100
0000
0000
0000
,
1000
0100
1000
0100
0002
0000
0023
0000
,
2030
0000
3100
1000
0100
0001
0020
0000
,
1030
0100
0001
0010
2000
0000
3020
0000
,
2030
0000
3100
0100
0000
0001
0010
0001
,
0100
0100
0100
1000
0200
0000
2300
0000
,
3020
0000
0031
0100
0001
1000
0020
0000
,
1030
0100
1000
0100
0001
0000
1000
0000
,
0010
0000
1000
0000
0100
1000
0001
0000
,
1000
0100
1000
0100
0010
0000
0001
0000
1001
0000
0000
0000
0000
0000
0000
0000
1010
0000
0000
0000
0000
0000
0000
0000
1100
0000
0000
0000
0000
0000
0000
0000
,
0110
0000
0000
0000
0101
0000
0001
0000
0011
0000
0010
0000
1000
0100
0000
0001
,
1001
0000
0000
0000
0110
0000
0010
0000
0100
0000
0010
0000
0001
0100
0000
0010
,
1000
0000
0100
1000
0200
0000
0301
0000
2000
0000
3100
0000
0020
0000
0000
0000
,
0032
0000
0100
0000
1003
0000
0100
0000
1100
0000
0010
0000
0002
0103
0000
0020
,
1030
0000
0000
0000
0000
0000
0100
0000
1000
0000
0100
0000
1000
0000
0000
0000
0000
0000
0001
0000
0000
0000
0000
0000
0000
0000
0000
0000
0000
0000
0100
0000
0000
0000
0000
0000
1000
0000
0000
0100
0000
0000
0000
0000
0000
0001
0000
0000
,
1000
0000
0100
0001
0100
0000
0001
0000
0002
0000
1003
0000
1000
0000
0000
1000
,
0100
0010
0002
0023
0230
2300
3020
0000
,
0032
0103
0011
1010
,
1001
0000
0000
0000
1100
0000
0100
0000
0101
0000
0001
0000
0010
1000
0000
0100
,
0110
0000
0000
0000
1001
0000
0001
0000
1000
0000
0001
0000
0100
1000
0000
0001
,
0010
0000
1000
0010
2000
0000
3100
0000
0020
0000
1030
0000
0002
0000
0000
0000
,
0203
0000
1000
0000
0310
0000
1000
0000
1010
0000
0001
0000
0200
1300
0000
0002
,
0013
0000
1000
0000
0010
0000
0100
0000
0000
0000
1000
0000
0010
1000
0000
0100
,
0010
0000
1000
0100
1000
0000
0100
0000
0200
0000
0310
0000
0010
0000
0000
0010
,
1000
0001
0200
0302
2003
3020
0032
0000
,
0203
0000
0000
0000
1300
0000
0000
0000
0100
0000
0000
0010
1000
0000
0100
0000
,
1000
0000
0100
0000
0001
0000
0000
0000
0100
0000
0000
0001
0010
0000
0001
0000
,
0010
0100
1000
0100
0001
0010
1000
0100
,
1001
0010
1000
0000
0100
1000
0001
0010
,
1000
0100
1000
0000
0001
0010
0001
1000
,
0100
1000
0001
1000
0010
0100
0100
0010
,
0100
0000
1000
0001
1000
0010
1000
0000
,
0100
0000
0001
0010
0001
0100
0001
0000
,
0001
0000
0010
1000
0010
0100
0001
0000
,
1000
0100
0001
0010
1000
0000
0100
0000
0000
0100
0000
0000
0001
0000
0000
0010
,
0001
0000
0000
0000
1000
0000
0100
0000
0000
0010
0000
0000
1000
0000
0000
0100
,
1000
0000
0000
0000
1000
0000
0001
0000
0000
0010
0000
0000
0010
0000
0000
0100
,
0000
0000
1000
0000
1000
0000
0001
0000
0000
0010
0000
0000
1000
0000
0000
0100
,
0000
0000
0001
0000
1000
0000
0001
0000
1000
0010
0000
0000
1000
0000
0000
0100
,
1000
0000
1000
0000
0100
0000
1000
0000
0100
0001
0000
0000
0100
0000
0000
0010
,
0100
0000
1000
0000
0010
0000
0100
0000
0010
0001
0000
0000
0010
0000
0000
1000
,
0010
0000
0100
0000
0001
0000
0010
0000
0001
0100
0000
0010
0001
0000
0000
0100
,
0001
0000
0000
0000
1000
0000
0000
0000
1001
0000
0000
0000
1000
0000
0000
0010
,
0100
0000
0000
0000
1000
0000
0001
0000
1000
0010
0000
0000
0100
0000
0000
1000
,
0010
0000
0001
0000
1000
0000
0010
0000
1010
0000
0000
0000
0100
0000
0000
1000
,
0010
0000
0001
0000
0010
0000
1000
0000
0100
1000
0000
0000
0001
0000
0000
0010
,
0000
0100
2001
0000
0010
0000
0001
0000
,
0100
0000
3002
0010
1000
0000
0100
0000
,
0010
2003
0010
0010
,
0100
3020
1000
0100
,
0001
0000
2030
3000
0200
0300
0002
0003
,
0020
0000
0030
0000
2000
0000
0000
3000
0200
0000
0000
0300
2000
0000
0000
3000
,
0002
0003
0000
0000
;

//---------------dance-single - ----------------
#NOTEDATA:;
#CHARTNAME:;
#STEPSTYPE:dance-single;
#DESCRIPTION:;
#CHARTSTYLE:;
#DIFFICULTY:Beginner;
#METER:3;
#RADARVALUES:0.293293,0.431140,0.110549,0.386921,0.000000,260.000000,246.000000,14.000000,49.000000,0.000000,0.000000,0.000000,0.000000,0.000000,0.293293,0.431140,0.110549,0.386921,0.000000,260.000000,246.000000,14.000000,49.000000,0.000000,0.000000,0.000000,0.000000,0.000000;
#CREDIT:;
#NOTES:
// measure 0
0000
0000
0000
0000
,  // measure 1
1000
0020
2030
0000
,  // measure 2
3001
0010
0001
0000
,  // measure 3
0100
0100
0020
0000
,  // measure 4
1030
0100
1000
0000
,  // measure 5
1000
0000
0001
0010
,  // measure 6
1000
0000
0000
0000
,  // measure 7
0100
0000
0001
0000
,  // measure 8
0100
0001
0110
0000
,  // measure 9
1000
0000
0100
2000
,  // measure 10
3010
0000
0001
0000
,  // measure 11
1000
0000
1000
0100
,  // measure 12
1000
0010
0001
1000
,  // measure 13
0001
0001
1000
1000
,  // measure 14
0100
1000
0010
0001
,  // measure 15
0001
0100
1000
0100
,  // measure 16
1000
0000
0010
0000
,  // measure 17
0001
0100
0001
0010
,  // measure 18
0001
0000
1000
0010
,  // measure 19
0010
0100
0010
0000
,  // measure 20
0001
0100
1000
0000
,  // measure 21
2000
3020
0032
0203
,  // measure 22
1300
0000
0100
0010
,  // measure 23
0001
0000
1000
0010
,  // measure 24
0100
1000
0100
0001
,  // measure 25
1001
1010
0100
1000
,  // measure 26
0100
0010
0001
0100
,  // measure 27
0001
1000
0010
0100
,  // measure 28
0001
2000
3200
0302
,  // measure 29
0023
1030
0100
0010
,  // measure 30
0001
0001
0100
0010
,  // measure 31
0100
0010
1000
0100
,  // measure 32
1000
0200
0310
0002
,  // measure 33
1003
0100
1000
0010
,  // measure 34
1000
0001
0100
1000
,  // measure 35
0010
0100
0001
2000
,  // measure 36
3010
0002
0103
0020
,  // measure 37
0130
2000
3010
0200
,  // measure 38
1300
0020
0130
0002
,  // measure 39
0013
0010
1000
0100
,  // measure 40
1000
0020
1030
1000
,  // measure 41
1000
0002
0103
0100
,  // measure 42
0100
0020
0031
0001
,  // measure 43
0001
0002
1003
1000
,  // measure 44
1000
0020
1030
0010
,  // measure 45
0001
0200
0301
0010
,  // measure 46
0100
2000
3010
1000
,  // measure 47
0100
0100
1000
1000
,  // measure 48
1000
0001
0001
0010
,  // measure 49
0100
1000
0000
0010
,  // measure 50
0002
0013
1000
1000
,  // measure 51
1000
0200
0301
0010
,  // measure 52
1000
0200
0301
0001
,  // measure 53
0010
2000
3100
0100
,  // measure 54
1000
1001
0100
0011
,  // measure 55
1000
0110
0001
1010
,  // measure 56
0001
1100
1000
0101
,  // measure 57
0010
1001
0110
0011
,  // measure 58
1010
2100
0010
0001
,  // measure 59
0001
0001
0100
0010
,  // measure 60
0100
0001
0010
0001
,  // measure 61
0100
0001
0010
0001
,  // measure 62
3100
0002
0013
2000
,  // measure 63
3100
0020
0130
0200
,  // measure 64
0310
0200
0310
0002
,  // measure 65
1003
2000
3100
0020
,  // measure 66
0130
0200
0320
0032
,  // measure 67
2003
3200
0302
0023
,  // measure 68
2030
3000
0000
0000
;
