#VERSION:0.83;
#TITLE:Unlock It;
#SUBTITLE:;
#ARTIST:Charli XCX feat. Kim Petras;
#TITLETRANSLIT:;
#SUBTITLETRANSLIT:;
#ARTISTTRANSLIT:;
#GENRE:;
#ORIGIN:;
#CREDIT:;
#BANNER:unlocktheswag.png;
#BACKGROUND:iridescence.png;
#PREVIEWVID:;
#JACKET:;
#CDIMAGE:;
#DISCIMAGE:;
#LYRICSPATH:;
#CDTITLE:;
#MUSIC:Unlock It.mp3;
#OFFSET:0.000000;
#SAMPLESTART:44.444443;
#SAMPLELENGTH:12.000000;
#SELECTABLE:YES;
#BPMS:0.000=135.000,
107.000=67.500,
108.000=135.000,
202.000=67.500,
203.000=135.000,
267.000=67.500,
269.000=135.000;
#STOPS:12.500=1.333;
#DELAYS:;
#WARPS:;
#TIMESIGNATURES:0.000=4=4;
#TICKCOUNTS:0.000=4;
#COMBOS:0.000=1;
#SPEEDS:0.000=1.000=0.000=0;
#SCROLLS:0.000=1.000;
#FAKES:;
#LABELS:0.000=Song Start;
#BGCHANGES:;
#KEYSOUNDS:;
#ATTACKS:
;

//---------------dance-single - ----------------
#NOTEDATA:;
#CHARTNAME:;
#STEPSTYPE:dance-single;
#DESCRIPTION:;
#CHARTSTYLE:;
#DIFFICULTY:Beginner;
#METER:2;
#RADARVALUES:0.217332,0.242311,0.016014,0.024021,0.000000,190.000000,188.000000,2.000000,3.000000,0.000000,0.000000,0.000000,0.000000,0.000000,0.217332,0.242311,0.016014,0.024021,0.000000,190.000000,188.000000,2.000000,3.000000,0.000000,0.000000,0.000000,0.000000,0.000000;
#CREDIT:;
#NOTES:
0000
0000
0000
0000
,
0000
0000
0000
0000
,
0000
0000
0000
0000
,
1001
1000
0000
0100
,
0000
0001
0010
0000
,
1000
0100
0000
0010
,
0000
0100
0000
0000
,
0001
0001
0000
1000
,
0000
0100
1000
0100
,
0000
0001
0000
0010
,
0000
1000
0100
0000
,
0001
0001
0000
1000
,
1000
0100
0010
0100
,
0100
0001
1000
0001
,
0001
0000
0000
0000
,
0010
0100
0000
1000
,
0100
1000
0000
0001
,
0010
0001
0100
0100
,
1000
0001
0000
1000
,
0000
1000
0100
1000
,
0001
0001
0000
0010
,
0100
1000
0000
0001
,
0010
1000
0100
0000
,
0001
1000
0001
0001
,
0000
0100
1000
0000
,
0010
0001
1000
0100
,
1000
0001
1000
0001
,
1000
0100
1000
0001
,
0010
0000
0100
1000
,
0001
0000
1000
0010
,
0001
0100
0100
1000
,
1000
0000
0010
0001
,
0010
0000
0100
0100
,
0010
0000
1000
0100
,
1000
0010
0001
0100
,
0010
0002
1003
0000
,
0100
0000
1000
0100
,
0001
0010
0001
0100
,
0000
0000
1000
0010
,
0001
0100
1000
0200
,
0000
0300
0000
0001
,
1000
0100
0001
2000
,
0000
3000
0001
0010
,
1000
0100
0100
0001
,
0010
0000
1000
0100
,
0001
0000
0010
0001
,
0100
0001
0000
1000
,
0100
0010
0001
0001
,
1000
0100
0000
0010
,
0001
0000
0010
0100
,
0001
1000
0000
1000
,
0000
0001
0000
0010
,
0000
0100
1000
0001
,
0000
0001
0000
0010
,
0001
0100
0001
1000
,
1000
0000
0001
0001
,
0000
0010
0000
0100
,
1000
0000
0100
0001
,
0001
1000
0000
0100
,
1000
0001
0000
0010
,
0000
0001
0000
1000
,
0100
1000
0000
0001
,
0000
0010
0000
1000
,
0100
1000
0000
0001
,
0000
0001
0000
0010
,
0100
1000
0000
0001
,
0000
1000
0000
0000
,
0000
1001
0000
0000
;

//---------------dance-single - ----------------
#NOTEDATA:;
#CHARTNAME:;
#STEPSTYPE:dance-single;
#DESCRIPTION:;
#CHARTSTYLE:;
#DIFFICULTY:Easy;
#METER:3;
#RADARVALUES:0.283676,0.273238,0.016014,0.480419,0.000000,248.000000,246.000000,2.000000,60.000000,0.000000,0.000000,0.000000,0.000000,0.000000,0.283676,0.273238,0.016014,0.480419,0.000000,248.000000,246.000000,2.000000,60.000000,0.000000,0.000000,0.000000,0.000000,0.000000;
#CREDIT:;
#NOTES:
1000
0000
0001
0010
,
0001
0000
0000
0100
,
1000
0000
0001
0000
,
1002
1003
0100
0010
,
0001
0020
0031
1000
,
0100
2000
3001
0002
,
0013
1000
0000
0100
,
0001
0010
0100
2000
,
3100
0002
0013
0010
,
0200
1300
1000
0001
,
0010
0001
1000
0000
,
0100
1000
0000
0001
,
0001
1000
0100
1000
,
0010
0001
0100
2000
,
3100
0001
0010
0000
,
1000
0200
0300
0001
,
0001
0010
0001
0100
,
1000
0200
1300
1000
,
0010
0002
1003
2000
,
3001
0001
0010
0200
,
1300
2000
3100
0001
,
0010
0002
1003
0100
,
0020
1030
0001
0000
,
0010
0100
1000
0100
,
0001
0010
0200
1300
,
1000
0001
0010
0100
,
1000
0001
0001
1000
,
1000
0100
0010
0001
,
0001
0000
1000
0100
,
0020
0030
0001
0010
,
0002
2003
3100
0010
,
0002
0003
1000
0100
,
0020
0030
0100
1000
,
0200
0300
0001
0100
,
1000
0010
0100
0010
,
1000
0002
2003
3000
,
0100
0010
0001
1000
,
0001
0100
0100
0010
,
1000
1000
1000
1000
,
0002
0013
0100
0100
,
0010
0001
0100
0001
,
1000
0000
0010
0002
,
2003
3000
0100
0010
,
0001
0010
0001
0100
,
2000
3100
0001
0010
,
0001
0100
0010
0100
,
2000
3002
0003
1000
,
0100
0010
0100
0001
,
0020
0130
0100
0200
,
1300
2000
3001
0001
,
0020
0130
0000
1000
,
0100
0010
0001
0001
,
0001
0000
1000
0010
,
1000
0100
0010
0001
,
0010
0001
0100
1000
,
1000
0001
0001
0010
,
0100
0000
0010
1000
,
0001
0100
0010
1000
,
0001
1000
0010
2000
,
3002
0203
2300
3020
,
0032
0103
2000
3010
,
0002
1003
0100
0020
,
0032
2003
3200
0320
,
0031
0200
1300
0020
,
0031
2000
3100
0020
,
0032
0203
2300
3020
,
0032
2003
3000
2100
,
0000
3001
0000
2000
,
0000
3000
0000
0000
;

//---------------dance-single - ----------------
#NOTEDATA:;
#CHARTNAME:;
#STEPSTYPE:dance-single;
#DESCRIPTION:;
#CHARTSTYLE:;
#DIFFICULTY:Medium;
#METER:6;
#RADARVALUES:0.462117,0.461102,0.032028,0.224195,0.000000,404.000000,400.000000,4.000000,28.000000,0.000000,0.000000,0.000000,0.000000,0.000000,0.462117,0.461102,0.032028,0.224195,0.000000,404.000000,400.000000,4.000000,28.000000,0.000000,0.000000,0.000000,0.000000,0.000000;
#CREDIT:;
#NOTES:
1000
0100
1000
0001
0000
0001
1000
0000
,
0100
1000
0100
0001
0000
0001
1000
0100
,
1000
0100
0001
0010
0000
1000
1000
0000
,
0002
0003
1000
0100
1000
0100
1000
0000
,
0001
0010
0001
0000
1000
0000
0100
1000
,
0010
0000
0010
0000
0001
0100
0001
1000
,
0100
0000
1000
0000
0000
0000
0000
0010
,
0001
0100
1000
0100
1000
0001
1000
0000
,
0001
0000
1000
0000
0100
0010
0001
0010
,
2000
3000
0100
0000
0100
0001
0100
0001
,
2000
3000
0110
0000
0020
0130
0000
1000
,
0100
0001
0001
0000
0000
1000
0010
1000
,
0100
0001
0100
0001
0001
0010
0001
0010
,
0001
0100
1000
0100
0100
0010
0100
0010
,
0100
0000
0000
0000
0000
0000
0000
1000
,
0010
0100
0100
0000
0000
0100
1000
0001
,
1000
0001
0010
0000
1000
0100
1000
0100
,
0001
0010
1000
0001
1000
0001
0010
1000
,
0100
0000
2000
0000
3001
0000
0002
0010
,
0103
0000
1000
0100
1000
0010
0001
0000
,
1000
0100
2000
0000
3002
0003
0010
0010
,
0100
0000
2000
0000
3100
1000
0001
0010
,
0002
0003
1000
0100
0200
0000
0300
1000
,
0010
1000
0001
0010
1000
0100
0100
0000
,
0001
0010
0001
0100
2000
3000
0100
1000
,
0010
0001
0002
0000
0103
1000
0100
1000
,
0001
0000
0010
0000
0100
0000
2000
3000
,
0001
0000
0010
0100
1000
0100
0001
0000
,
1000
0000
0000
0000
0001
0010
0100
0000
,
1000
0000
0000
0000
0100
1000
0010
0000
,
0001
0010
0001
0100
0001
1000
0100
1000
,
1000
0000
0000
0000
0001
0010
0100
0000
,
1000
0000
0100
0000
1000
0100
1000
0001
,
0001
0000
1000
0010
0100
1000
0100
0000
,
1000
0001
0010
0100
1000
0100
1000
0001
,
1000
0001
1001
0000
,
1000
0100
1000
0100
0010
0001
0010
0001
,
0000
0000
0000
0000
,
1000
0010
1000
0100
0001
0010
0001
1000
,
1000
0100
0001
1000
0001
1000
0001
0010
,
0010
0010
0001
0001
0100
0100
1000
1000
,
0000
0000
0000
1000
0010
0001
1000
0002
,
2000
0000
3003
0100
1000
0100
0001
0010
,
1000
0000
0100
0001
0100
0000
1000
0010
,
0200
0300
2000
0000
3001
0000
0001
0000
,
0010
0000
0100
1000
0100
0010
0002
0003
,
1000
0100
0002
0000
0003
1000
0100
1000
,
0010
0010
0001
0100
1000
0000
0010
0100
,
0100
0100
0020
0000
0130
0100
0001
0100
,
0100
0000
0001
0100
0001
0010
1000
0000
,
0100
0000
1000
0000
2002
3003
1000
0000
,
0100
0000
1000
0010
0001
0000
0001
0100
,
0001
1000
0000
1000
0100
0000
0001
0000
,
0010
0000
1000
0000
0100
0001
0100
1000
,
0010
0001
0100
0001
0010
0001
1000
0000
,
0100
0000
1000
0010
0001
0000
0001
0100
,
1000
0100
0000
1000
0001
0010
0001
0000
,
1000
0000
0100
1000
0010
0000
0001
0001
,
1000
0001
0001
0010
0100
1000
0100
0000
,
0010
0000
0100
1000
0001
0000
1000
0001
,
0010
0001
0100
1000
0100
0001
2000
0000
,
3002
0000
1003
0000
0110
0000
0100
1000
,
0100
0001
0010
0001
1000
0001
1000
0000
,
0001
0000
0010
0100
1000
0000
0100
1000
,
0100
0001
0010
0001
1000
0100
0001
0000
,
1000
0000
0010
0100
0001
0000
1000
0000
,
0100
0000
0010
0000
0100
0000
2000
0100
,
0002
3003
2000
0000
0000
3000
0100
0000
;

//---------------dance-single - ----------------
#NOTEDATA:;
#CHARTNAME:;
#STEPSTYPE:dance-single;
#DESCRIPTION:;
#CHARTSTYLE:;
#DIFFICULTY:Hard;
#METER:7;
#RADARVALUES:0.493001,0.511546,0.064056,0.408356,0.152133,431.000000,423.000000,8.000000,51.000000,0.000000,0.000000,0.000000,0.000000,0.000000,0.493001,0.511546,0.064056,0.408356,0.152133,431.000000,423.000000,8.000000,51.000000,0.000000,0.000000,0.000000,0.000000,0.000000;
#CREDIT:;
#NOTES:
// measure 0
1000
0000
0100
0000
0100
0000
0001
0000
1000
0000
0001
0100
1000
0000
0010
0000
,  // measure 1
1000
0001
0100
0001
0000
0100
1000
0100
,  // measure 2
0001
0000
0010
0000
0001
0000
1000
0000
0000
0100
0000
0000
1000
0000
0001
0000
,  // measure 3
2002
0000
0000
3000
1003
0000
0010
0000
0001
0000
0100
0000
2000
0000
0000
0000
,  // measure 4
3001
1000
0002
0000
0023
0000
0130
1000
,  // measure 5
0100
0000
0000
0000
0002
0000
0000
0003
1000
0000
0001
0000
1000
0000
0001
0000
,  // measure 6
0100
0000
0010
0000
0000
0000
1000
0100
,  // measure 7
0001
0000
0010
0000
0001
0000
1000
0000
0001
0000
0010
0000
0020
0000
0000
0030
,  // measure 8
0200
0000
1300
0000
0200
0000
0000
0300
0002
0000
0000
0003
1000
0000
0001
0000
,  // measure 9
1000
0010
0200
0000
1300
0100
0001
0010
,  // measure 10
0002
0000
2003
0000
3200
0000
0300
1000
,  // measure 11
0001
0000
0010
0000
1000
0000
0000
1000
0000
0000
0100
0000
0000
0001
0000
0000
,  // measure 12
0010
0000
0000
0000
1000
0000
0000
0100
0000
0000
0010
0000
0000
0100
0000
0000
,  // measure 13
0010
0000
0001
0000
1000
0000
0000
0000
0001
0000
0000
0100
0000
0000
0010
0000
,  // measure 14
1000
0000
0000
0000
0100
0000
0000
0001
0000
0000
0010
0000
0000
0100
0000
0000
,  // measure 15
0010
0000
0001
0000
1000
0000
0000
0000
0001
0000
0000
1000
0000
0000
0010
0000
,  // measure 16
0000
0100
0000
0000
1000
0000
0000
0100
0000
0000
0001
0000
0000
0010
0000
0000
,  // measure 17
0100
0000
0000
0000
1000
0000
0000
0100
0000
0000
0001
0000
0000
0010
0000
0000
,  // measure 18
0001
0000
0000
0000
0100
0000
0000
0010
0000
0000
0001
0000
0000
1000
0000
0000
,  // measure 19
0100
0000
1000
0100
0001
0010
0001
0000
,  // measure 20
1000
0000
0100
0000
2000
0000
0000
0000
3010
0000
0001
0000
0000
0100
0000
0000
,  // measure 21
2000
0000
3020
0000
1030
0100
0001
0010
,  // measure 22
0001
0000
0000
0000
0100
0000
2000
0000
0002
0000
0000
3000
0003
0000
1000
0000
,  // measure 23
0100
0000
1000
0000
0010
0000
0100
0000
0001
0000
0010
0000
0002
0000
0000
0003
,  // measure 24
1000
0000
0100
0000
0010
0000
0010
0000
0002
0000
0000
0003
2000
0000
3200
0000
,  // measure 25
2300
0000
3200
0000
0320
0000
0000
0030
0100
0000
0001
0000
0100
0000
0010
0000
,  // measure 26
0100
0000
0000
0000
0020
0000
0000
0000
2000
0000
3030
0000
0001
1000
0100
0000
,  // measure 27
1000
0000
0000
0000
0000
0000
0100
0000
0000
0001
0000
0000
0020
0000
0000
0000
,  // measure 28
2030
0000
0000
3000
0000
0000
0100
0000
0000
0010
0000
0000
0200
0000
0000
0000
,  // measure 29
2300
0000
0000
0000
0000
3000
0001
0000
0000
0010
0000
0000
0200
0000
0000
0000
,  // measure 30
1300
0100
0001
0010
0001
1000
0100
1000
,  // measure 31
0002
0000
0000
0000
0003
0000
1000
0000
0000
0100
0000
0000
0010
0000
0000
0000
,  // measure 32
0002
0000
0000
0000
0003
0000
1000
0000
0000
0010
0000
0000
0100
0000
0000
0000
,  // measure 33
0200
0000
0000
0000
0300
0000
1000
0000
0000
0010
0000
0000
0100
0000
0000
0000
,  // measure 34
1000
0100
0001
0010
0010
0001
1000
0100
,  // measure 35
2000
0000
0000
0000
0001
3000
0000
0000
0002
0000
0000
0000
0003
0000
0100
0000
,  // measure 36
1000
0100
1000
0001
1000
0001
0010
1000
,  // measure 37
0100
0100
0100
0001
0100
0010
0001
0010
,  // measure 38
0001
0010
0100
0010
1000
0010
0100
0010
,  // measure 39
0001
0100
0100
1000
0100
1000
0010
0001
,  // measure 40
1000
0001
1000
0001
0010
1000
0100
0001
,  // measure 41
0010
0000
1000
0000
0100
0000
0001
0100
1000
0000
0001
0000
2000
0000
0001
0000
,  // measure 42
0020
3000
0000
0000
0030
0000
0100
0000
1000
0000
0010
0000
0001
0000
1000
0000
,  // measure 43
1000
0100
1000
0001
0001
0000
0001
1000
,  // measure 44
2000
0000
3200
0000
0301
0010
0002
0000
,  // measure 45
1003
0000
0100
0001
1000
0010
2000
0000
,  // measure 46
3100
1000
0200
0301
0000
0001
1000
0010
,  // measure 47
1000
0000
0000
0001
0000
0000
0010
0000
0000
1000
0000
0000
0100
0000
0002
0000
,  // measure 48
1003
2000
3001
0000
0010
0000
0100
1000
,  // measure 49
0002
0000
1003
0001
0010
1000
0100
0000
,  // measure 50
1000
0000
0000
0000
0001
0000
0000
0000
1000
0100
1000
0000
0001
0000
0000
0000
,  // measure 51
1000
0000
0000
0100
0001
0000
0100
0000
0000
0010
0000
0000
1000
0000
0000
0000
,  // measure 52
0010
0000
0000
0100
0010
0000
0100
0000
0000
1000
0000
0000
0001
0000
0000
0000
,  // measure 53
0010
0000
0000
0100
1000
0000
0100
0000
0000
0010
0000
0000
1000
0000
0100
0000
,  // measure 54
1000
0100
0001
0010
0001
1000
1000
0100
,  // measure 55
0001
0000
1000
0000
0001
0000
1000
0001
1000
0000
0010
0000
1000
0000
0100
0000
,  // measure 56
1000
0100
0000
0001
1000
0001
0001
1000
,  // measure 57
0001
0000
1000
0000
0000
0001
0000
0100
0001
0000
1000
0000
0100
0000
1000
0000
,  // measure 58
0100
0010
0001
1000
0100
0001
1000
0001
,  // measure 59
1000
0001
0020
0000
1030
0000
0100
1000
,  // measure 60
0100
0001
0010
0001
1000
0001
2000
0000
,  // measure 61
3100
0000
0001
1000
0001
0010
0001
0100
,  // measure 62
1000
0100
0001
0010
0001
1000
1001
1000
,  // measure 63
1001
0000
1001
0000
0001
0100
0100
1000
,  // measure 64
0010
0001
0100
1000
0010
0000
0101
0000
,  // measure 65
0110
0000
1001
0000
1010
0000
0100
1000
,  // measure 66
0100
0010
0001
1000
0001
0100
0000
0001
,  // measure 67
0020
1030
0000
0000
;
