#VERSION:0.83;
#TITLE:Trophy;
#SUBTITLE:;
#ARTIST:Charli XCX;
#TITLETRANSLIT:Trophy;
#SUBTITLETRANSLIT:;
#ARTISTTRANSLIT:;
#GENRE:;
#ORIGIN:;
#CREDIT:;
#BANNER:sm banners 4\:20.007.png;
#BACKGROUND:sm bgs 4\:20.007.png;
#PREVIEWVID:;
#JACKET:;
#CDIMAGE:;
#DISCIMAGE:;
#LYRICSPATH:;
#CDTITLE:;
#MUSIC:Trophy DDR.mp3;
#OFFSET:0.000000;
#SAMPLESTART:44.444443;
#SAMPLELENGTH:12.000000;
#SELECTABLE:YES;
#BPMS:0.000=127.000,
68.000=63.500,
70.000=127.000;
#STOPS:;
#DELAYS:;
#WARPS:;
#TIMESIGNATURES:0.000=4=4;
#TICKCOUNTS:0.000=4;
#COMBOS:0.000=1;
#SPEEDS:0.000=1.000=0.000=0;
#SCROLLS:0.000=1.000;
#FAKES:;
#LABELS:0.000=Song Start;
#BGCHANGES:;
#KEYSOUNDS:;
#ATTACKS:
;

//---------------dance-single - ----------------
#NOTEDATA:;
#CHARTNAME:;
#STEPSTYPE:dance-single;
#DESCRIPTION:;
#CHARTSTYLE:;
#DIFFICULTY:Medium;
#METER:6;
#RADARVALUES:0.357398,0.383796,0.010338,0.082704,0.000000,242.000000,241.000000,1.000000,8.000000,0.000000,0.000000,0.000000,0.000000,0.000000,0.357398,0.383796,0.010338,0.082704,0.000000,242.000000,241.000000,1.000000,8.000000,0.000000,0.000000,0.000000,0.000000,0.000000;
#CREDIT:;
#NOTES:
0000
0000
0000
0000
,
0000
0000
0000
0000
,
1000
0000
0010
0000
1000
1000
1000
0000
,
0001
0000
0010
0000
0001
0100
0001
0000
,
0010
0000
0010
0000
0100
0100
0100
0000
,
1000
0000
0000
0000
,
0001
0000
1000
0000
0010
0100
0010
0000
,
1000
0000
1000
0000
0010
0001
0010
0000
,
0100
0000
0100
0000
0100
0010
0100
0000
,
1000
0000
0000
0000
,
1000
0010
1000
0100
0001
0100
0001
0000
,
0000
1000
0010
1000
0100
0001
0010
0002
,
2003
0000
0000
3100
0010
0001
0100
1000
,
0000
0000
0000
0010
0001
0100
1000
0001
,
1000
0000
0100
0010
0001
0000
1000
0100
,
1000
0000
0010
0001
0100
0000
0001
0010
,
0001
1000
0100
1000
0010
0001
1000
0001
,
0020
0000
0000
0000
0000
0030
1000
0000
1000
0000
0100
0000
1000
0000
0001
0000
,
0010
1000
2000
0000
3000
0000
0001
0010
,
2000
0000
3000
0100
2000
0000
0000
3001
,
0010
0100
2000
0000
0000
3000
0010
1000
,
0001
0100
0001
0001
1000
0000
1000
0000
,
0010
1000
0100
0000
0001
0000
0001
0010
,
0001
0100
1000
0000
1000
0010
1000
0010
,
0001
0100
0001
0010
0002
0000
0000
0000
,
0000
0000
0000
0003
1000
0000
0100
0000
,
1000
0010
0001
0100
,
0001
0010
0001
0000
1000
0000
0010
0000
,
1000
0100
1000
0001
,
0010
0100
0010
0000
1000
0000
0010
0000
,
1000
0100
1000
0010
,
0010
1000
0100
0000
1000
0000
0010
0000
,
0001
0100
0001
0010
,
1000
0100
0001
0000
0000
0000
0000
0000
,
1000
0010
1000
0001
1000
0000
1000
0000
,
0100
0100
0100
0000
0001
0000
0010
0000
,
0001
0001
0001
0000
1000
0000
0010
0000
,
1000
1000
1000
0000
0000
0000
0000
0000
,
0010
0100
0010
0100
0010
0000
0010
0000
,
0010
0010
0010
0000
1000
0000
1000
0000
,
1000
1000
1000
0000
0001
0000
0001
0000
,
1000
0001
0010
0000
0100
0000
0000
0000
,
1000
0010
1000
0001
1000
0000
0001
1000
,
0010
0100
1000
0000
1000
0000
0001
0010
,
1000
0100
0001
0000
1000
0000
0010
1000
,
0100
0010
0001
0000
0100
0000
0010
0100
,
0010
0100
0001
0010
0001
0000
0100
0000
,
1000
0010
0001
0000
0100
0000
0100
0000
,
0001
0100
1000
0000
0010
0000
0100
0000
,
0010
0100
0010
0000
1001
0000
0000
0000
;

//---------------dance-single - ----------------
#NOTEDATA:;
#CHARTNAME:;
#STEPSTYPE:dance-single;
#DESCRIPTION:;
#CHARTSTYLE:;
#DIFFICULTY:Hard;
#METER:8;
#RADARVALUES:0.539050,0.598890,0.444532,0.051690,0.335983,365.000000,322.000000,43.000000,5.000000,0.000000,0.000000,0.000000,0.000000,0.000000,0.539050,0.598890,0.444532,0.051690,0.335983,365.000000,322.000000,43.000000,5.000000,0.000000,0.000000,0.000000,0.000000,0.000000;
#CREDIT:;
#NOTES:
0000
0000
0000
0000
,
0000
0000
0000
0000
,
1000
0000
0010
0000
0001
0100
1000
0000
,
1000
0000
0000
0010
1000
0000
0010
0000
0001
0000
0101
0000
0101
0000
0000
0000
,
1000
0000
0000
0010
1000
0000
0100
0000
1000
0000
1100
0000
1100
0000
0000
0000
,
1000
0000
0000
0000
0000
0000
0000
0001
0010
0000
0001
0000
1000
0000
0100
0000
,
1000
0000
0001
0000
1001
1001
1001
0000
,
0001
0000
0000
0010
0001
0000
0010
0000
1100
0000
1100
0000
1100
0000
0000
0000
,
0010
0000
0000
0100
0010
0000
0100
0000
0110
0000
0110
0000
0110
0000
0000
0000
,
1000
0000
0000
0000
0000
0000
0000
0100
,
1000
0100
0001
0010
1000
0010
1000
0101
,
1000
0000
0100
1000
0100
0000
1000
0000
0010
0000
0001
0000
0100
0000
1010
0000
,
0020
0000
0030
0001
0100
1000
0010
1100
,
0010
0001
0100
1000
0100
1000
0010
0001
,
1000
0000
0000
0100
0000
0100
1000
0000
0001
0000
0000
0010
0000
0000
1100
0000
,
0100
0000
0001
0010
0000
0001
1000
0000
0100
0000
0000
1000
0000
0000
0100
0000
,
0001
0000
0010
0000
0001
0000
1000
0000
0100
0000
1000
0100
0000
0000
0010
0000
,
0002
0000
0000
0000
0000
0000
1000
0003
1000
0000
0100
0000
1000
0000
0001
0000
,
0010
0000
0000
0000
0001
0000
0000
0000
1000
0000
0000
0000
0100
0000
0000
0000
0000
0000
0000
0000
0000
0000
0000
0000
0000
0000
0000
0000
0000
0000
1000
0000
0000
0100
0000
0000
1000
0000
0000
0000
0000
0000
0100
0000
0000
0000
0000
0000
,
0001
0010
0001
0020
0000
0000
0000
0000
0000
1030
0000
0000
0200
0000
0000
0000
0000
0000
0000
0000
0000
1300
0000
0000
,
0001
0010
1000
0000
0000
0000
0000
1000
,
0100
0000
0001
0000
1000
0001
1000
0001
1000
0100
0000
0000
0010
0001
0000
0000
,
1000
0010
0000
0000
0001
0100
0000
0000
1000
0001
0000
0000
0100
0010
0000
0000
,
0010
0001
0000
0000
0100
1000
0000
0000
0010
0100
0000
0000
0001
1000
0000
0000
,
0010
1000
0000
0000
0100
0001
0000
0000
0002
0000
0000
0000
0000
0000
0000
0000
,
0000
0000
0000
0000
0000
0000
0003
0000
1001
0000
0000
0010
0000
0000
0100
0000
,
0001
0000
0000
0000
0000
0000
0000
0000
0010
0000
0000
0000
0000
0000
0000
0000
1000
0000
0000
0000
0000
0000
0000
0000
0100
0000
0000
0000
0000
0000
0000
0000
0000
0010
0000
0000
0000
0000
0000
0000
0000
0000
0100
0000
0000
0000
0000
0000
,
0010
0000
0000
0001
0000
0000
1000
0000
0000
0000
0000
0000
0100
0000
0000
0000
0010
0000
0000
0000
0100
0000
0000
0000
,
1000
0000
0000
0100
0000
0000
0001
0000
0010
0000
0000
0100
0000
0000
1000
0000
,
0001
0000
1000
0000
0001
0000
0000
0000
1000
0000
0000
0001
0000
0000
0010
0000
,
0001
0000
0000
0100
0000
0000
1000
0000
0100
0000
0000
0001
0000
0000
0010
0000
,
1000
0000
0100
0000
1000
0000
0001
0000
1001
0000
0000
1000
0000
0000
0010
0000
,
0100
0000
0000
1000
0000
0000
0100
0000
0001
0000
0000
0010
0000
0000
0001
0000
,
0100
0000
1000
0000
1001
0000
0000
0000
0000
0000
0000
0000
0000
0000
0000
1000
,
0100
1000
0001
0010
1001
0000
1001
0000
,
1000
0000
0010
0000
0100
0000
0000
0000
1000
0000
0000
0001
0010
0000
0001
0000
,
0100
0000
1100
0000
1100
0000
0000
0000
1000
0000
0000
0010
1000
0000
0010
0000
,
0101
0000
0101
0000
0101
0000
0000
0000
1000
0000
0000
0000
0000
0000
0000
0010
,
0001
0000
0001
0000
0100
0000
1000
0000
1001
0000
0000
0010
1000
0000
0001
0000
,
0101
0000
0101
0000
0101
0000
0000
0000
1000
0000
0000
0100
1000
0000
0010
0000
,
1001
0000
1001
0000
1001
0000
0000
0000
1000
0000
0000
0010
0100
0000
0001
0000
,
1000
0000
0001
0100
0001
0000
1000
0000
1010
0000
0000
0000
0000
0000
0000
0001
,
0100
0000
0100
0000
0001
0000
1000
0000
1010
0000
0000
1000
0100
0000
0001
0000
,
0010
0000
0001
1000
0100
0000
1000
0000
0001
0000
0000
1000
0010
0000
1000
0000
,
0001
0000
0100
0001
0100
0000
1000
0000
0010
0000
0000
1000
0001
0000
0010
0000
,
0001
0000
0100
0001
0100
0000
0000
0000
0001
0000
0000
0001
0001
0000
0001
0000
,
0010
1010
1000
1010
0001
0000
1001
0000
,
0001
0000
0010
1000
0100
0000
0001
0000
1000
0000
0000
0000
1001
0000
0000
0000
,
1000
0000
0010
1000
0010
0000
0000
0000
1001
0000
0000
0000
1001
0000
0000
0000
,
0110
0000
0001
0000
0100
0000
0000
0000
1000
0000
0000
0000
0000
0000
0000
1000
,
0100
1000
0001
0010
0000
0000
0000
0000
;

//---------------dance-single - ----------------
#NOTEDATA:;
#CHARTNAME:;
#STEPSTYPE:dance-single;
#DESCRIPTION:;
#CHARTSTYLE:;
#DIFFICULTY:Easy;
#METER:4;
#RADARVALUES:0.310138,0.409383,0.413518,0.113717,0.000000,210.000000,170.000000,40.000000,11.000000,0.000000,0.000000,0.000000,0.000000,0.000000,0.310138,0.409383,0.413518,0.113717,0.000000,210.000000,170.000000,40.000000,11.000000,0.000000,0.000000,0.000000,0.000000,0.000000;
#CREDIT:;
#NOTES:
0000
0000
0000
0000
,
0000
0000
0000
0000
,
1000
0001
1001
1001
,
0010
0100
0110
0110
,
0001
0010
0011
0011
,
1100
0000
0000
0000
,
1000
0010
1010
1010
,
0001
0100
0101
0101
,
0010
0100
0110
0110
,
1001
0000
0000
0000
,
1000
0100
1000
0020
,
0031
1000
0100
1000
,
0020
0000
0031
0100
,
1000
0000
0010
1000
,
0100
0100
1000
0002
,
1003
0100
0010
0200
,
1300
0010
0100
0001
,
2000
0000
0000
3020
0031
0000
0000
0000
,
0100
1000
0000
0010
,
0001
1000
0100
0000
,
0010
1000
0000
0001
,
1000
0001
0001
0011
,
0001
0101
0001
1001
,
1000
1010
1000
1100
,
0100
0110
1001
0000
,
0000
0000
0110
0001
,
0100
1000
0010
0100
,
0010
0001
1000
0100
,
1000
0010
0100
0001
,
0010
0001
1010
0100
,
0010
0100
0010
0001
,
0100
0010
1010
0100
,
0001
0010
0001
0100
,
0001
1000
0000
0000
,
0000
0000
1001
0011
,
0101
1100
1000
1010
,
0001
0101
1010
0101
,
0110
1001
2000
0000
,
3010
0001
0100
1100
,
1000
1000
0010
0011
,
0001
0101
1000
1000
,
0200
2300
3010
0000
,
0001
0010
0001
1000
,
0100
1100
0001
0010
,
0001
1001
1000
0010
,
1000
1100
0010
0100
,
0010
0001
0010
1000
,
0100
0100
1000
0002
,
0013
1000
2000
3010
,
0100
1000
0001
0000
;

//---------------dance-single - ----------------
#NOTEDATA:;
#CHARTNAME:;
#STEPSTYPE:dance-single;
#DESCRIPTION:;
#CHARTSTYLE:;
#DIFFICULTY:Beginner;
#METER:3;
#RADARVALUES:0.209713,0.255864,0.155069,0.103379,0.000000,142.000000,127.000000,15.000000,10.000000,0.000000,0.000000,0.000000,0.000000,0.000000,0.209713,0.255864,0.155069,0.103379,0.000000,142.000000,127.000000,15.000000,10.000000,0.000000,0.000000,0.000000,0.000000,0.000000;
#CREDIT:;
#NOTES:
// measure 0
0000
0000
0000
0000
,  // measure 1
0000
0000
0000
0000
,  // measure 2
1001
0000
0101
0000
,  // measure 3
1010
0000
0101
0000
,  // measure 4
0110
0000
1001
0000
,  // measure 5
1000
0000
0000
0010
,  // measure 6
0001
0000
0101
0000
,  // measure 7
1000
0000
1010
0000
,  // measure 8
0100
0000
0110
0000
,  // measure 9
1001
0000
0000
0000
,  // measure 10
2000
3000
0001
0010
,  // measure 11
0000
0100
1000
0010
,  // measure 12
2000
0000
3001
0010
,  // measure 13
0000
0000
0100
0001
,  // measure 14
2000
3000
0100
0001
,  // measure 15
0020
0030
0010
1000
,  // measure 16
0002
0000
0003
1000
,  // measure 17
2000
0000
3100
0000
,  // measure 18
0010
1000
0000
1000
,  // measure 19
0001
0000
0010
0000
,  // measure 20
0100
1000
0000
1000
,  // measure 21
0010
0001
0101
0100
,  // measure 22
1000
0100
0010
0100
,  // measure 23
0010
0001
1000
0100
,  // measure 24
1000
0010
1001
0000
,  // measure 25
0000
0000
1001
0001
,  // measure 26
0010
0000
0100
0000
,  // measure 27
1000
0000
0010
0000
,  // measure 28
0100
0000
0001
0000
,  // measure 29
0010
0000
0110
0000
,  // measure 30
1000
0000
0010
0000
,  // measure 31
0001
0000
1001
0000
,  // measure 32
0010
0000
0100
0000
,  // measure 33
0010
0000
0000
0000
,  // measure 34
0000
0100
1000
0100
,  // measure 35
1000
1000
0001
0010
,  // measure 36
0001
0001
0010
0100
,  // measure 37
0010
0010
0200
0300
,  // measure 38
0000
0000
1000
0001
,  // measure 39
1000
1000
0001
1000
,  // measure 40
0001
0001
0010
0100
,  // measure 41
1000
0001
1000
0000
,  // measure 42
0000
0000
0001
0010
,  // measure 43
0100
1000
0020
1030
,  // measure 44
0100
0010
0002
0103
,  // measure 45
1000
0010
2000
3000
,  // measure 46
0000
0100
0001
0010
,  // measure 47
1000
0000
0001
0100
,  // measure 48
0001
0000
1000
0010
,  // measure 49
1000
0000
0001
0000
;
