#TITLE:Take My Heart Away;
#SUBTITLE:feat. Karina Ramage;
#ARTIST:Danny L Harle;
#TITLETRANSLIT:;
#SUBTITLETRANSLIT:;
#ARTISTTRANSLIT:;
#GENRE:;
#CREDIT:;
#BANNER:Take My Heart Away-bn.png;
#BACKGROUND:Take My Heart Away-bg.png;
#LYRICSPATH:;
#CDTITLE:;
#MUSIC:Take My Heart Away.mp3;
#OFFSET:0.000000;
#SAMPLESTART:38.709679;
#SAMPLELENGTH:12.000000;
#SELECTABLE:YES;
#BPMS:0.000000=77.500000
,12.000000=155.000000
;
#STOPS:
;
#BGCHANGES:;
#KEYSOUNDS:;
#ATTACKS:;

//---------------dance-single - ----------------
#NOTES:
     dance-single:
     :
     Beginner:
     3:
     0.282134,0.280599,0.000000,0.025538,0.000000,232.000000,232.000000,0.000000,3.000000,0.000000,0.000000,0.282134,0.280599,0.000000,0.025538,0.000000,232.000000,232.000000,0.000000,3.000000,0.000000,0.000000:
0000
0000
0000
0000
,
0000
0000
0000
0000
,
0000
0000
0000
0000
,
0000
0000
0000
0000
,
0000
0000
0000
0000
,
0000
0000
0000
0000
,
1000
0001
0010
0001
,
1000
0000
0100
1000
,
0010
0001
1000
0001
,
0001
0000
0000
0000
,
1000
0100
1000
0010
,
0001
0000
1000
0010
,
0100
0001
0010
0001
,
1000
0010
0010
0010
,
1000
0100
1000
0000
,
0001
0010
0001
0000
,
1000
0100
1000
0010
,
0001
0000
0000
0000
,
0000
0000
1000
0000
,
0100
0000
0010
0000
,
0001
0000
1000
0000
,
0010
0000
1000
0000
,
0100
0100
0010
0010
,
0001
0001
1000
1000
,
1000
0100
0010
0001
,
1000
0001
1000
0010
,
0001
1000
1000
0100
,
0010
0001
1000
0010
,
1000
0100
0010
0001
,
0100
0001
1000
0010
,
1000
0100
1000
0010
,
0001
0100
0001
0010
,
1000
0100
1000
0010
,
0100
0001
1000
0010
,
1000
0000
0001
0010
,
0001
0000
0100
1000
,
0100
0000
0010
0100
,
0010
0000
1000
0001
,
1000
0000
0010
0100
,
0010
0000
0100
0100
,
1000
0000
0001
0001
,
0010
1000
0100
1000
,
0001
0000
0010
0000
,
1000
0000
0100
0000
,
2000
0000
3001
0000
,
0020
0030
1000
0000
,
0100
1000
0001
0010
,
0002
0003
1000
0000
,
0100
0010
1000
0010
,
0001
1000
0010
0001
,
0100
1000
0010
1000
,
0001
0001
0010
0100
,
0100
0001
0010
0001
,
1000
0010
0010
1000
,
0100
1000
0010
0001
,
0100
0100
1000
0010
,
0100
0001
0010
0001
,
1000
0000
0100
0000
,
0001
1000
0001
0010
,
0001
0100
1000
0010
,
1000
0100
1000
0010
,
0100
0010
0001
0100
,
0001
1000
0010
0100
,
0010
0001
1000
0010
,
1000
0100
1000
0010
,
0001
0100
0001
0010
,
0001
1000
1000
0100
,
0010
0001
1000
0010
,
0100
0100
0010
0001
,
1000
0010
1000
0100
,
0001
0100
0001
0010
,
1000
0100
1000
1000
,
0010
0100
0001
0010
,
0001
1000
0000
0000
;

//---------------dance-single - ----------------
#NOTES:
     dance-single:
     :
     Easy:
     5:
     0.353884,0.543002,0.417121,0.161741,0.000000,291.000000,242.000000,49.000000,19.000000,0.000000,0.000000,0.353884,0.543002,0.417121,0.161741,0.000000,291.000000,242.000000,49.000000,19.000000,0.000000,0.000000:
0000
0000
0000
0000
,
0000
0000
0000
0000
,
0000
0000
0000
0000
,
1010
0001
0010
0001
,
1000
1000
0010
1000
,
0001
0010
0001
0100
,
1001
0000
0000
0000
,
1010
0100
1000
0100
,
0001
0010
0001
0100
,
0100
1000
0010
1000
,
0001
1000
1000
1000
,
0011
1000
0100
1000
,
0001
0010
0001
0100
,
0001
1000
0010
0100
,
1001
0000
0000
0000
,
0000
0000
0010
0000
1000
0000
0000
0100
,
0000
0000
0001
0000
0010
0000
0000
0100
,
0000
0000
0010
0000
1000
0000
0000
0001
,
0000
1000
0010
0100
,
0001
0001
1000
1000
,
0010
0010
0100
0100
,
1000
0001
0010
1000
,
0001
1000
0100
0001
,
1001
1000
0010
1000
,
0110
0001
0010
0001
,
0101
0001
0010
1000
,
1100
1000
0010
0100
,
0110
0010
0001
0100
,
0101
0010
1000
0100
,
1001
1000
0010
0100
,
1010
0100
0001
1000
,
0000
0000
1001
0000
0010
0000
0000
1000
,
0000
0000
0110
0000
0001
0000
0000
0010
,
0000
0000
1010
0000
0010
0000
0000
0100
,
0000
0000
1100
0000
0100
0000
0000
0001
,
0000
0000
0101
0000
0010
0000
0000
0010
,
0000
0000
0110
0000
0100
0000
0000
1000
,
0000
0000
0011
0000
0001
0000
0000
0001
,
0000
0100
0010
0100
,
2000
0000
3020
0000
,
0032
0000
0203
0000
,
2300
0000
3200
0000
,
0320
0000
2030
0000
,
3001
1000
0200
0300
,
2000
3100
0010
1000
,
0200
0000
1300
0000
,
0001
0010
0100
1000
,
0001
1000
0010
0100
,
0001
0010
1000
0100
,
1000
0001
0010
0001
,
0100
0000
1000
0010
,
0001
0100
1000
0010
,
0100
0001
0010
0001
,
0100
1000
0010
0100
,
0001
0000
1000
0010
,
1001
0110
1001
0110
,
1100
1010
1100
1010
,
0101
0011
0101
0011
,
0002
0000
0023
0000
0230
0000
2300
3000
,
1001
1001
0110
0110
,
1100
1100
1010
1010
,
0011
0011
0101
0101
,
0002
2003
3200
0320
,
0031
0010
1000
0010
,
0100
1000
0100
0001
,
0010
0100
1000
0010
,
0100
1001
0101
0011
,
1000
0000
0100
0000
1000
0000
0001
0010
,
0000
0001
0000
1000
0010
0000
1000
0000
,
0001
0000
1000
0000
0010
0000
0100
0001
,
0000
0000
1001
0000
0110
0000
0000
0010
;

//---------------dance-single - ----------------
#NOTES:
     dance-single:
     :
     Medium:
     7:
     0.515624,0.603335,0.357532,0.051076,0.063845,424.000000,382.000000,42.000000,6.000000,0.000000,0.000000,0.515624,0.603335,0.357532,0.051076,0.063845,424.000000,382.000000,42.000000,6.000000,0.000000,0.000000:
0000
0000
0000
0000
,
0000
0000
0000
0000
,
0000
0010
0001
0000
,
1000
0000
0010
0000
0100
0000
0001
1000
,
0010
0000
0010
0000
0100
0000
1000
0100
,
1000
0000
0001
0010
0001
0000
0100
1000
,
0100
0000
0001
1000
0010
1000
0100
0001
,
0010
0000
1000
0000
0010
0000
1000
0010
,
0000
0001
0000
0100
1000
0000
0001
0000
,
0010
0000
0001
0000
0100
0000
1000
0010
,
0000
1001
0101
0011
,
1001
0000
0010
0000
0100
0000
1000
0100
,
0000
1000
0000
0010
0100
0000
0001
0000
,
0010
0000
0001
0000
0100
0000
1000
0010
,
0110
0000
0000
0000
,
0000
1000
0000
0000
0001
0000
1000
0000
0010
0000
0000
0100
0000
0000
1000
0000
,
0000
0001
0000
0000
1000
0000
0010
0000
0100
0000
0000
1000
0000
0000
0010
0000
,
0000
1000
0000
0000
0001
0000
1000
0000
0010
0000
0000
0100
0000
0000
1000
0000
,
0000
0001
0000
0000
1000
0000
0010
0000
1000
0000
0000
0000
0100
0000
0001
0000
,
0010
0000
0000
0000
0001
0000
1000
0000
0100
0000
0000
1000
0000
0000
0001
0000
,
0010
0000
0000
0000
1000
0000
0100
0000
1000
0000
0000
0010
0000
0000
1000
0000
,
0100
0001
0010
0001
0100
0000
1000
0010
,
1000
0001
1000
0010
,
1001
0000
0101
0000
0011
0000
1001
1000
,
0100
0000
0110
0000
1100
0000
1010
1000
,
1001
0110
1001
0110
,
1001
0000
0000
0000
0001
0000
1000
0000
0011
0000
0000
0110
0000
0000
1100
0000
,
0000
0001
0000
0000
0010
0000
0001
0000
0110
0000
0000
0000
1010
0000
0000
0000
,
0011
0000
0000
0000
0100
0000
0001
0000
0110
0000
0000
1000
0000
0000
0100
0000
,
0001
0000
0000
0000
1001
0000
0010
0000
1100
0000
0000
0100
0000
0000
0001
0000
,
0010
0000
0000
0000
0001
0000
1000
0000
0100
0000
0000
0100
0000
0000
0010
0000
,
0000
0000
1000
0001
1000
0000
0110
0110
,
0000
0000
1000
0010
1000
0000
0001
0100
,
1000
0000
0010
1000
0100
0000
0001
0010
,
0000
0000
1000
0100
1000
0000
0010
0100
,
0001
0000
0010
0001
0100
0000
1000
0010
,
0100
0000
0100
0001
0010
0000
0001
0100
,
0000
1000
0010
0100
1000
0000
0001
0010
,
1000
0000
0100
1000
0001
0010
0001
1000
,
2000
0000
0000
0000
0001
0010
0001
0100
,
3002
0000
0000
0000
1000
0000
0010
1003
,
0200
0000
1300
1001
,
0010
0100
2000
3100
,
0001
0000
0010
0000
0001
1000
0100
1000
,
0000
0010
1000
0000
0001
0000
1000
0020
,
0000
0130
0000
0000
1000
0000
0010
0000
,
0100
0000
0001
0010
0001
1000
0100
1000
,
1001
0000
0011
0000
0001
0000
0100
1000
,
1010
1100
0001
0010
,
0001
0000
1000
0000
0010
0000
0100
0001
,
1000
0010
0100
1000
,
1001
0000
0011
0000
0001
0000
0100
1000
,
0000
0010
0000
1000
0100
0000
0010
0000
,
0001
0000
1000
0000
0010
0000
1000
0100
,
0000
0000
1000
0010
1000
0001
0100
0001
,
1000
0000
0001
1000
0010
1000
0100
0001
,
0010
0100
1000
0100
1000
0001
0010
0001
,
0100
1000
0010
1000
0010
0100
0001
0010
,
0001
0001
0010
0001
1000
0100
1000
0010
,
1000
0010
0100
0010
0001
0100
1000
0010
,
1000
0000
0001
0010
0001
1000
0100
1000
,
0010
1000
0100
0001
0010
0001
0100
1000
,
0010
1000
0001
1000
0010
1000
0100
0001
,
1001
0000
1001
0000
0110
1000
1000
0001
,
1000
0010
0001
1000
0110
0000
1001
0010
,
0001
0000
0210
0310
0110
0000
1000
0100
,
0001
1000
0010
1000
0100
0001
0010
0001
,
1000
0000
0010
1000
0100
0100
0001
0010
,
0001
0100
1000
0010
1000
0000
0100
0001
,
0010
0000
0100
0000
0010
0000
1000
0100
,
0001
0000
0000
0000
1000
0000
0010
0000
1000
0000
0000
0100
0000
0000
0001
0000
;

//---------------dance-single - ----------------
#NOTES:
     dance-single:
     :
     Hard:
     9:
     0.663988,0.663669,0.297943,0.374557,0.515016,546.000000,511.000000,35.000000,44.000000,0.000000,0.000000,0.663988,0.663669,0.297943,0.374557,0.515016,546.000000,511.000000,35.000000,44.000000,0.000000,0.000000:
// measure 0
0000
0000
0000
0000
,  // measure 1
0000
0000
0000
0000
,  // measure 2
0000
0000
0000
0000
0100
0000
0001
0000
0020
0000
0000
2030
0000
0000
3100
0000
,  // measure 3
0011
0000
0000
0000
1000
0000
0010
0000
1000
0000
0000
0100
0000
0000
0001
0000
,  // measure 4
0010
0000
0000
0000
0001
0000
0100
0000
1000
0000
0000
0010
0000
0000
1000
0000
,  // measure 5
0100
0000
0000
0000
0010
0000
0001
0000
0100
0000
0000
0001
0000
0000
1000
0000
,  // measure 6
0020
1000
0000
0000
0100
0000
0001
0000
1000
0000
0031
0000
1010
0000
0000
0000
,  // measure 7
1001
0000
0011
0000
0101
0100
1000
0010
,  // measure 8
1000
0100
0001
0010
0101
0100
0110
0010
,  // measure 9
1100
0000
0110
0000
1001
0100
1001
0010
,  // measure 10
1001
0110
0011
1010
,  // measure 11
1001
0000
0110
0000
0100
0010
1000
0010
,  // measure 12
1000
0100
0001
0010
0001
1000
0100
1000
,  // measure 13
0010
0000
0001
1000
0010
0000
1000
0100
,  // measure 14
0001
0000
1000
0010
1000
0100
0001
0010
,  // measure 15
0000
1000
0000
0100
1000
0000
0001
0000
0010
0000
0000
1000
0000
0000
0100
0000
,  // measure 16
0000
0001
0000
0010
0001
0000
1000
0000
0100
0000
0000
1000
0000
0000
0010
0000
,  // measure 17
0000
0001
0000
0100
1000
0000
0001
0000
0010
0000
0000
0100
0000
0000
0010
0000
,  // measure 18
0000
0001
0000
1000
0210
0000
1000
0000
0320
0000
0000
0001
2030
0000
0010
0000
,  // measure 19
3100
0001
0000
1000
0010
0000
0010
0000
1000
0000
0000
1000
0001
0000
0010
0000
,  // measure 20
0010
0100
0000
1000
0001
0000
0010
0000
0001
0000
0000
0100
0001
0000
1000
0000
,  // measure 21
1000
0010
0000
1000
0100
0000
0001
0000
0010
0000
0000
0001
0100
0000
1000
0000
,  // measure 22
0100
0000
0000
1000
0010
0000
0100
0000
0001
0000
0000
0010
0100
0000
1000
0000
,  // measure 23
0100
0010
0000
1000
0001
0000
0010
0000
1000
0000
0000
0100
0000
0000
0001
0000
,  // measure 24
0010
0001
0000
1000
0010
0000
1000
0000
0100
0000
0000
1000
0000
0000
0010
0000
,  // measure 25
1001
0010
0000
1000
0001
0000
0001
0000
0100
0000
0000
1000
0010
0000
1000
0000
,  // measure 26
0001
1000
0000
0100
1000
0000
0001
0000
0110
0000
0000
1001
0000
0000
1100
0000
,  // measure 27
0010
1000
0000
0001
1000
0000
0100
0000
0001
0000
0010
0001
1000
0000
0100
0000
,  // measure 28
1000
0010
0000
1000
0001
0000
0100
0000
1000
0000
0001
1000
0000
0010
1000
0000
,  // measure 29
0100
0000
0001
1000
0010
0000
1000
0000
0100
0000
0001
1000
0000
0010
1000
0000
,  // measure 30
0010
0100
0000
0001
1000
0000
0010
0000
0110
0000
0000
1001
0000
0000
1000
0000
,  // measure 31
0010
0000
1000
0000
0001
0000
1000
0000
0020
0000
0000
2030
0000
0000
3002
0000
,  // measure 32
1003
0010
0000
1000
0100
0000
0001
0000
2000
0000
0000
3020
0000
0000
0230
0000
,  // measure 33
0301
1000
0000
0001
1000
0000
0010
0000
2000
0000
0000
3200
0000
0000
0302
0000
,  // measure 34
0013
0001
0000
1000
0100
0000
1000
0000
0002
0000
0000
0023
0000
0000
0230
0000
,  // measure 35
0000
1300
0000
0010
1000
0000
0100
0000
0002
0000
0000
2003
0000
0000
3010
0000
,  // measure 36
1000
0100
0000
1000
0001
0000
0010
0000
0110
0000
0010
0100
0000
0010
0100
0000
,  // measure 37
2000
3000
0000
0001
0010
0000
1000
0000
2000
0000
0000
3200
0000
0300
0100
0000
,  // measure 38
0010
0001
0000
1000
0010
0000
1000
0000
1001
0000
0100
0000
1100
0000
0010
0000
,  // measure 39
0002
0000
0000
0000
2003
0010
0100
0100
,  // measure 40
3002
0010
0000
0000
0023
0000
1000
0230
,  // measure 41
0302
0000
2000
0000
3000
0000
0000
0000
2003
0000
0000
0000
0020
0000
0000
3000
,  // measure 42
0230
2300
3002
0023
,  // measure 43
0230
0000
0000
0000
1300
0100
1000
0020
,  // measure 44
0000
0032
0003
0000
2000
0000
3010
0200
,  // measure 45
0000
0000
1300
1000
0010
0000
0001
0000
,  // measure 46
0000
1000
0010
1000
0100
0010
0001
0010
,  // measure 47
1001
0000
1100
0000
0010
1000
0001
0101
,  // measure 48
0000
0010
1000
0100
0010
0000
0001
0000
,  // measure 49
1010
0000
0100
0000
1000
0010
1000
0100
,  // measure 50
0001
1000
0010
0000
0001
0000
1000
0000
,  // measure 51
0010
1000
0100
0001
0010
0000
0100
0110
,  // measure 52
0000
0001
1000
0010
1000
0100
1000
0000
,  // measure 53
1001
0000
0001
0000
0010
0001
0100
1000
,  // measure 54
0000
0000
1000
0010
1000
0001
0101
0100
,  // measure 55
1000
0100
1000
0100
1000
0000
0010
0000
0001
0000
0000
1000
0000
0000
0100
0000
,  // measure 56
0010
0001
0010
0001
0010
0000
0010
0000
0100
0000
0000
0100
0000
0000
0001
0000
,  // measure 57
1000
0001
0010
1000
0100
0000
0010
0000
1000
0000
0000
0001
0000
0000
1000
0000
,  // measure 58
0001
1000
0000
0001
1000
0000
0100
0000
1001
0000
0000
0020
0130
0000
0100
0000
,  // measure 59
0010
1000
0010
1000
0010
0000
0001
0000
0100
0000
0000
0010
0000
0000
1000
0000
,  // measure 60
0001
0100
0001
0100
0001
0000
0001
0000
1000
0000
0000
1000
0000
0000
0100
0000
,  // measure 61
0010
0100
0001
0010
1000
0000
0001
0000
0010
0000
0000
0100
0000
0000
0010
0000
,  // measure 62
1000
0000
1000
0100
0001
0100
0001
0100
0010
0000
0001
1000
0010
0000
1000
0000
,  // measure 63
0001
0100
0000
0001
1000
0000
0100
0000
0010
0000
0000
0001
0010
0000
0100
0000
,  // measure 64
1000
0000
0001
0100
1000
0000
0001
0000
0010
0000
0000
1000
0100
0000
0001
0000
,  // measure 65
0010
0100
0000
0010
1000
0000
0100
0000
0100
0000
0000
0001
0010
0000
0001
0000
,  // measure 66
1000
0100
0000
1000
0001
0000
0010
0000
0010
0000
0000
0010
0100
0000
0100
0000
,  // measure 67
0010
0001
0000
0010
0100
0000
0001
0000
1000
0000
0000
0010
1000
0000
0001
0000
,  // measure 68
0100
0000
0010
0001
0100
0000
0010
0000
1000
0000
0000
0100
0001
0000
0010
0000
,  // measure 69
1000
0001
0000
1000
0100
0000
0001
0000
0001
0000
0000
0010
1000
0000
0010
0000
,  // measure 70
0100
0001
0000
0100
1000
0000
0001
0000
0020
0000
0000
0230
0000
0000
1300
0000
;
