#TITLE:01 Sweet Pea;
#SUBTITLE:;
#ARTIST:felicita;
#TITLETRANSLIT:;
#SUBTITLETRANSLIT:;
#ARTISTTRANSLIT:;
#GENRE:;
#CREDIT:;
#BANNER:sweet.png;
#BACKGROUND:pea.png;
#LYRICSPATH:;
#CDTITLE:;
#MUSIC:SWEET PEA DDR.mp3;
#OFFSET:0.000000;
#SAMPLESTART:37.500000;
#SAMPLELENGTH:12.000000;
#SELECTABLE:YES;
#BPMS:0.000000=320.000000
,488.000000=160.000000
;
#STOPS:
;
#BGCHANGES:;
#KEYSOUNDS:;
#ATTACKS:;

//---------------dance-single - ----------------
#NOTES:
     dance-single:
     :
     Beginner:
     3:
     0.214153,0.388545,0.066135,0.308632,0.000000,136.000000,130.000000,6.000000,28.000000,0.000000,0.000000,0.214153,0.388545,0.066135,0.308632,0.000000,136.000000,130.000000,6.000000,28.000000,0.000000,0.000000:
0000
0000
0000
0000
,
0000
0000
0000
0000
,
0000
0000
0000
0000
,
0000
0000
0000
0000
,
1000
0000
1000
0000
,
0000
0000
0001
0000
,
1000
0000
0000
0000
,
0010
0000
0001
0000
,
1000
0000
0000
0000
,
0100
0000
0001
0000
,
1000
0000
0000
0000
,
0010
0000
0100
0000
,
1000
0000
0000
0000
,
0001
0000
0010
0000
,
1000
0000
0000
0000
,
0100
0000
1000
0000
,
0001
0000
0000
0000
,
0010
0000
1000
0000
,
0001
0000
0000
0000
,
0100
0000
1000
0000
,
0020
0000
0000
0000
,
0000
0000
0000
0000
,
0000
0000
0000
0000
,
0000
0000
0030
0000
,
1000
0000
0100
0000
,
0001
0000
0001
0000
,
1000
0000
0000
0000
,
0010
0000
0100
0000
,
0001
0000
0001
0000
,
1000
0000
1000
0000
,
0100
0000
0000
0000
,
0010
0000
0100
0000
,
0001
0000
0010
0000
,
1000
0000
1000
0000
,
0010
0000
0001
0000
,
0100
0000
1000
0000
,
0001
0000
1000
0000
,
0001
0000
1000
0000
,
2000
0000
3000
0000
,
0110
0000
0100
0000
,
0001
0000
0000
0000
,
2000
0000
3000
0000
,
0001
0000
0000
0000
,
2000
0000
3000
0000
,
0010
0000
0000
0000
,
0100
0000
1000
0000
,
0002
0000
0003
0000
,
1000
0000
0100
0000
,
1000
0000
0001
0000
,
0010
0000
0010
0000
,
2000
0000
3000
0000
,
0100
0000
0001
0000
,
2000
0000
3000
0000
,
0001
0000
0001
0000
,
0020
0000
0030
0000
,
0100
0000
1000
0000
,
2000
0000
3000
0000
,
0001
0000
0010
0000
,
0200
0000
0000
0000
,
2300
0000
0000
0002
,
3000
0000
0003
0000
,
0000
0000
0100
0000
,
0001
0000
0000
0000
,
1000
0000
0000
0000
,
0010
0000
0000
0000
,
1000
0000
0000
0000
,
1000
0000
0110
0000
,
0001
0000
1000
0000
,
0001
0000
0000
0000
,
0001
0000
2000
0000
,
3000
0000
0100
0000
,
0000
0000
0001
0000
,
0000
0000
0010
0000
,
0000
0000
1000
0000
,
0000
0000
0100
0000
,
0000
0000
0001
0000
,
0000
0000
0010
0000
,
0000
0000
2000
0000
,
0000
0000
3001
0000
,
0000
0000
0001
0000
,
0000
0000
0010
0000
,
0000
0000
0100
0000
,
0000
0000
1000
0000
,
0000
0000
0100
0000
,
0000
0000
0001
0000
,
0000
0000
1000
0000
,
0000
0000
1000
0000
,
0000
0000
0001
0000
,
0000
0000
0010
0000
,
0000
0000
0100
0000
,
0000
0000
0001
0000
,
1000
0000
0001
0000
,
0020
0000
0000
0000
,
1030
0000
0001
0000
,
2000
0000
0000
0000
,
3002
0000
0000
0000
,
0003
0000
2000
0000
,
0000
0000
0000
0000
,
3002
0000
0000
0000
,
0003
0000
0000
0000
,
2000
0000
0000
0000
,
0000
0000
3000
0000
,
0000
0000
0000
2020
,
0000
0000
0000
3030
,
0000
0000
0000
0000
,
0000
0000
0000
0000
,
0000
0000
2002
0000
,
0000
0000
0000
0000
,
0000
0000
0000
3003
,
0000
0000
0000
0000
,
0000
2002
0000
0000
,
0000
0000
0000
0000
,
0000
3003
0000
0000
,
0000
0000
0000
0000
,
0000
0000
0000
2002
,
0000
0000
0000
0000
,
0000
0000
0000
0000
,
0000
0000
3003
0000
;

//---------------dance-single - ----------------
#NOTES:
     dance-single:
     :
     Easy:
     5:
     0.423581,0.646198,0.330677,0.242496,0.022045,269.000000,239.000000,30.000000,22.000000,0.000000,0.000000,0.423581,0.646198,0.330677,0.242496,0.022045,269.000000,239.000000,30.000000,22.000000,0.000000,0.000000:
0000
0000
0000
0000
,
0000
0000
0000
0000
,
0000
0000
0000
0000
,
0000
0000
0000
0000
,
1000
0110
1000
0000
,
0001
1000
0001
0000
,
1000
0001
1000
0000
,
0010
1000
0010
1000
,
1000
0001
1000
0000
,
0001
0000
0001
0000
,
1000
0100
1000
0000
,
0001
0010
0001
0000
,
1000
0100
1000
0000
,
0001
0000
0001
0000
,
1000
0100
1000
0000
,
0010
0000
0010
0000
,
0001
0100
0001
0000
,
1000
0000
1001
0000
,
0001
0010
0001
0000
,
0100
1000
0100
1000
,
1000
0000
0000
0000
,
0000
0000
0000
0000
,
0000
0000
0000
0000
,
0000
0000
0000
0000
,
1000
0010
1000
0000
,
0001
0000
0001
0000
,
1000
1000
1000
0000
,
0100
1000
0100
0001
,
0010
1000
0001
1000
,
1001
0000
1001
0000
,
1000
0010
1000
0000
,
0100
0001
0100
0001
,
1000
0001
1000
0000
,
1001
0000
1001
0000
,
0001
0010
0001
0000
,
0100
1000
0100
1000
,
0001
1000
0001
0000
,
1000
0000
1000
0000
,
0010
1000
0100
0000
,
0001
0100
0001
1000
,
2002
0000
0000
0000
,
0000
3003
0000
0000
,
1000
0100
1000
0000
,
0020
0000
0000
0030
,
0001
0000
1000
0000
,
0100
1000
0100
0000
,
0002
0000
1003
0000
,
1000
0100
1000
0010
,
1000
0001
1000
0000
,
0001
1000
0010
0000
,
2000
0000
0000
3000
,
0001
1000
0001
1000
,
1001
0000
0000
0000
,
0110
1000
0100
0000
,
0001
0000
1000
0000
,
0010
1000
0100
0001
,
1000
0000
0001
1000
,
0001
0000
0010
0000
,
1100
0000
0001
1000
,
2002
0000
0003
0020
,
3000
0000
0030
1001
,
0000
1100
0000
1100
,
0001
0000
1000
0001
,
1001
0000
1000
0010
,
1010
0000
1000
0100
,
1001
0000
0001
0001
,
1001
0000
1000
0000
,
1100
0000
1000
0000
,
1010
0000
0001
0000
,
0101
0000
1000
0000
,
1100
0000
0001
0000
,
1001
0000
1001
0000
,
1000
0000
1010
0000
,
1000
0000
1100
0000
,
1000
0000
1001
0001
,
0001
1000
0100
0000
,
1000
0000
1010
0000
,
0100
0000
0101
0000
,
2000
0000
3100
0000
,
0002
0000
0013
0000
,
2000
0000
3100
0000
,
1000
0001
1000
0001
,
0002
0000
0013
0000
,
0200
0000
1300
0000
,
0002
0000
1003
0000
,
0020
0000
1030
0100
,
1000
0100
0001
0000
,
2000
0000
3001
0000
,
0020
0000
1030
0000
,
0100
1000
0100
0001
,
0020
0000
1030
0100
,
0002
0000
1003
0001
,
2000
0000
3001
1000
,
1000
0010
1000
1000
,
0100
0000
0000
0000
0100
0000
0000
0000
0000
0000
0000
0000
0000
0000
0000
1000
,
0000
0000
0000
0000
0000
0000
0000
0000
0000
0000
0000
0000
0000
0000
0000
0000
0000
0000
0000
0000
0000
0000
0000
0000
0000
0000
0000
0000
0000
0000
0000
0000
0000
0000
0000
0000
0000
0000
0000
0000
0000
0000
0000
0000
0000
0000
0000
0000
0000
0000
0000
0000
0000
0000
0000
0000
0000
0000
0000
0000
0000
0000
0000
0000
0000
0000
0000
0000
0000
0000
0000
0000
0000
0000
0000
0000
0000
0000
0000
0000
0000
0000
0000
0000
0000
0000
0000
0000
0000
0000
0000
0000
0000
0000
0000
0000
0000
0000
0000
0000
0000
0000
0000
0000
0000
0000
0000
0000
0000
0000
0000
0000
0000
0000
0000
0000
0000
0000
0000
0000
0000
0000
0000
0000
0000
0000
0000
0000
0000
0000
1000
0000
0000
0000
0000
0000
0000
0000
0000
0000
0000
0000
0000
0000
0000
0000
0000
0000
0000
0000
0000
0000
0000
0000
0000
0000
0000
0000
0000
0000
0000
0000
0000
0000
0000
0000
0000
0000
0000
0000
0000
0000
0000
0000
0000
0000
0000
0000
0000
0000
0000
0000
0000
0000
0000
0000
0000
0000
0000
0000
0000
0000
,
0000
0000
0000
0000
0000
0000
0000
0000
0000
0000
0000
0000
0000
0000
0000
0100
0000
0000
0000
0000
0000
0000
0000
0000
0000
0000
0000
0000
0000
0000
0000
0000
,
0000
0000
0000
0000
0000
0000
0000
0000
0000
0000
0000
0000
0000
0000
0000
0000
0000
0000
0000
0000
0000
0010
0000
0000
0000
0000
0000
0000
0000
0000
0000
0000
0000
0000
0000
0000
0000
0000
0000
0000
0000
0000
0000
0000
0000
0000
0000
0000
0000
0000
0000
0000
0000
0000
0000
0000
0000
0000
0000
0000
0000
0000
0000
0000
,
0000
0010
0000
0000
,
0000
1000
0000
0000
,
0000
0000
0000
0000
,
0000
0000
0000
0000
,
0000
0000
0000
0010
0000
0000
0000
0000
,
0000
0000
0000
0000
,
0000
0000
0000
0000
,
0000
0000
0000
0000
,
0000
0001
0000
0000
,
0000
0000
0000
0000
,
0000
0000
0000
0000
,
0000
0000
0000
0000
,
0000
1000
0000
0000
,
0000
0000
0000
0000
,
0000
0000
0000
0000
,
0000
0000
0000
0000
,
0000
0000
0000
2002
,
0000
0000
0000
0000
,
0000
0000
0000
0000
,
0000
3003
0000
0000
;

//---------------dance-single - ----------------
#NOTES:
     dance-single:
     :
     Medium:
     7:
     0.626711,0.969297,1.289640,0.341699,0.038579,398.000000,281.000000,117.000000,31.000000,0.000000,0.000000,0.626711,0.969297,1.289640,0.341699,0.038579,398.000000,281.000000,117.000000,31.000000,0.000000,0.000000:
0000
0000
0000
0000
,
0000
0000
0000
0000
,
0000
0000
0000
0000
,
0000
0000
0000
0000
,
1000
0001
1001
0000
,
1000
0100
1100
0000
,
1000
0010
1010
0000
,
0002
0000
0103
0000
2000
0000
3100
1000
,
0100
0001
0101
0000
,
0001
1000
1001
0000
,
0010
0001
0011
0000
,
0010
0000
0100
0000
1000
0000
0001
0010
,
0100
0001
0101
0000
,
0100
1000
1100
0000
,
0100
1000
1100
0000
,
2010
0000
3010
0000
0102
0000
0103
1000
,
0010
1000
1010
0000
,
0101
0000
0101
0000
,
0001
0100
1100
0000
,
1000
0000
0010
0000
0100
0000
1000
0002
,
2000
0000
0000
0000
,
0000
0000
0000
0000
,
0000
0000
0000
0000
,
0000
0000
0000
3003
,
1000
0100
1100
0000
,
0011
0000
0110
0000
,
1000
0001
1001
0000
,
1000
1100
1000
1001
,
1000
1000
1010
0000
,
0101
0000
0101
0000
,
1000
1100
1100
0000
,
1010
1010
1001
1000
,
1000
1001
1001
0000
,
0001
0010
0011
0000
,
0101
0101
0101
0000
,
1000
1100
1000
0001
,
1000
1000
1001
0000
,
1001
0000
1001
0000
,
0010
1000
1100
0000
,
0001
0010
0001
0100
,
2002
0000
0000
0000
,
0000
0000
0000
0000
,
0000
0000
0000
0000
,
0000
0000
0000
3003
,
1000
0100
0010
0000
,
0001
0010
0100
0000
,
1000
0100
0001
0010
,
0010
0000
1000
0000
0010
0001
0010
0001
,
1000
0001
1001
0000
,
1010
0000
0101
0000
,
1000
0010
0110
0000
,
1000
0000
0100
0000
0100
1000
0100
1000
,
1000
0100
0110
0000
,
0100
1000
0100
0000
,
1000
0100
1001
0000
,
0010
1000
1000
0001
,
1001
0000
0010
0001
1000
0000
1010
0000
,
0002
2003
3020
0032
,
2003
0000
3002
0000
2003
0000
3200
0300
,
0220
0000
0000
0000
0000
0330
2002
0000
,
0000
0000
0000
0000
,
3003
0000
1000
1100
,
1001
0000
1001
0000
,
1010
0000
1100
1010
,
1001
0000
1100
0001
,
0100
0001
1001
1001
,
1001
1001
0110
0000
,
1001
0000
1000
1010
,
1000
0000
2002
0000
,
0000
0000
0003
0200
0000
0000
0000
3300
,
1001
1001
1001
0000
,
1001
0000
1010
0000
,
1001
1001
1100
0000
,
1100
0000
0110
0000
0001
1000
0001
1000
,
0001
0000
1000
0100
0001
0000
1001
0000
,
1000
0100
0010
0001
,
1001
1001
1001
0000
,
2000
0002
0000
0000
0000
0000
0000
0000
0000
0000
0000
0000
0000
0000
0000
3003
0000
0000
0000
0000
2000
0000
0000
0000
,
3002
1003
1001
0000
,
2000
3001
1001
0000
,
0020
1030
1010
0000
,
0100
0000
1100
0000
0101
0000
0100
0001
,
0100
1000
1100
0000
,
1010
0000
1010
0000
,
0001
0101
0101
1000
,
0110
0011
0000
0001
,
1100
1001
1001
0000
,
1001
0001
1010
0000
,
1100
0100
0001
0100
,
1000
0010
0000
0100
,
0101
1000
0010
1000
,
0101
1000
0000
0101
,
1100
1010
0000
0100
,
1001
1001
0000
1001
,
0100
0000
0000
0000
0110
0000
0000
0000
0000
0000
0000
0000
0000
0000
0000
1001
,
0000
0000
0000
0000
0000
0000
0000
0000
0000
0000
0000
0000
0000
0000
0000
0000
0000
0000
0000
0000
0000
0000
0000
0000
0000
0000
0000
0000
0000
0000
0000
0000
0000
0000
0000
0000
0000
0000
0000
0000
0000
0000
0000
0000
0000
0000
0000
0000
0000
0000
0000
0000
0000
0000
0000
0000
0000
0000
0000
0000
0000
0000
0000
0000
0000
0000
0000
0000
0000
0000
0000
0000
0000
0000
0000
0000
0000
0000
0000
0000
0000
0000
0000
0000
0000
0000
0000
0000
0000
0000
0000
0000
0000
0000
0000
0000
0000
0000
0000
0000
0000
0000
0000
0000
0000
0000
0000
0000
0000
0000
0000
0000
0000
0000
0000
0000
0000
0000
0000
0000
0000
0000
0000
0000
0000
0000
0000
0000
0000
0010
1000
0000
0000
0000
0000
0000
0000
0000
0000
0000
0000
0000
0000
0000
0000
0000
0000
0000
0000
0000
0000
0000
0000
0000
0000
0000
0000
0000
0000
0000
0000
0000
0000
0000
0000
0000
0000
0000
0000
0000
0000
0000
0000
0000
0000
0000
0000
0000
0000
0000
0000
0000
0000
0000
0000
0000
0000
0000
0000
0000
0000
0000
,
0000
0000
0000
0000
0000
0000
0000
0000
0000
0000
0000
0000
0000
0000
0000
0101
0000
0000
0000
0000
0000
0000
0000
0000
0000
0000
0000
0000
0000
0000
0000
0000
,
0000
0000
0000
0000
0000
0000
0000
0000
0000
0000
0000
0000
0000
0000
0000
0000
0000
0000
0000
0000
0000
0110
0000
0000
0000
0000
0000
0000
0000
0000
0000
0000
0000
0000
0000
0000
0000
0000
0000
0000
0000
0000
0000
0000
0000
0000
0000
0000
0000
0000
0000
0000
0000
0000
0000
0000
0000
0000
0000
0000
0000
0000
0000
0000
,
0000
0011
0000
0000
,
0000
1100
0000
0000
,
0000
0000
0000
0000
,
0000
0000
0000
0000
,
0000
0000
0000
1001
0000
0000
0000
0000
,
0000
0000
0000
0000
,
0000
0000
0000
0000
,
0000
0000
0000
0000
,
0000
0011
0000
0000
,
0000
0000
0000
0000
,
0000
0000
0000
0000
,
0000
0000
0000
0000
,
0000
1100
0000
0000
,
0000
0000
0000
0000
,
0000
0000
0000
0000
,
0000
0000
0000
0000
,
0000
0000
0000
2002
,
0000
0000
0000
0000
,
0000
0000
0000
0000
,
0000
3003
0000
0000
;

//---------------dance-single - ----------------
#NOTES:
     dance-single:
     :
     Hard:
     10:
     0.795199,1.138355,1.388843,1.267595,0.044090,505.000000,379.000000,126.000000,115.000000,0.000000,0.000000,0.795199,1.138355,1.388843,1.267595,0.044090,505.000000,379.000000,126.000000,115.000000,0.000000,0.000000:
// measure 0
0000
0000
0000
0000
,  // measure 1
0000
0000
0000
0000
,  // measure 2
0000
0000
0000
0000
,  // measure 3
0000
0000
0000
0000
,  // measure 4
1001
1001
1001
0000
,  // measure 5
0110
0110
0110
0000
,  // measure 6
0011
0011
0011
0000
,  // measure 7
1100
0000
0100
0000
1100
0000
1000
1000
,  // measure 8
0101
0101
0101
0000
,  // measure 9
1010
1010
1010
0000
,  // measure 10
0011
0110
1100
0000
,  // measure 11
1010
0000
0101
0000
1001
0000
0100
0010
,  // measure 12
1001
0000
1001
0000
1001
0000
1000
0001
,  // measure 13
0011
0011
0101
0000
,  // measure 14
0101
0000
0101
0000
0101
0000
0010
0100
,  // measure 15
2100
0000
3010
0000
0102
0000
0013
0100
,  // measure 16
1100
0110
0011
0000
,  // measure 17
0101
0000
1010
0000
,  // measure 18
1001
0000
0110
0000
1001
0000
0010
0100
,  // measure 19
2000
0000
3200
0000
0320
0000
0032
0003
,  // measure 20
1000
0100
1000
0100
0001
0100
0001
0100
,  // measure 21
0001
1000
0001
1000
0001
0010
0001
0010
,  // measure 22
0100
1000
0100
0001
0100
1000
0100
0001
,  // measure 23
0100
1000
0010
0001
0010
1000
0010
0100
,  // measure 24
0110
1100
0101
0000
,  // measure 25
2002
3003
2002
3003
,  // measure 26
1010
0000
1100
0000
1010
0000
0001
0010
,  // measure 27
0002
0000
2003
0000
3002
0000
1003
0001
,  // measure 28
0100
0000
0110
0000
0010
0000
1000
0001
,  // measure 29
2002
3003
2002
3003
,  // measure 30
1001
0101
0011
0000
,  // measure 31
0220
0330
0220
0330
,  // measure 32
1100
0000
0101
0000
1100
0000
0010
1000
,  // measure 33
0020
0000
0230
0000
0320
0000
0130
0010
,  // measure 34
0001
0000
1001
0000
1000
0000
0100
0010
,  // measure 35
0220
0330
0220
0330
,  // measure 36
1000
0000
0001
0000
1000
0100
1000
0100
,  // measure 37
2000
0000
0002
3003
0220
0330
0000
0000
,  // measure 38
0010
0000
0010
0000
0010
0100
0100
0100
,  // measure 39
2000
3100
0002
0013
2000
0000
0002
3003
,  // measure 40
1000
0010
1000
0100
0001
0100
1000
0100
,  // measure 41
0001
1000
0001
1000
0001
1000
0010
1000
,  // measure 42
0010
0001
0010
1000
0010
0001
0010
1000
,  // measure 43
0010
0001
0010
0001
0100
1000
0100
1000
,  // measure 44
1001
0000
0001
0000
1000
0000
0010
0001
,  // measure 45
0010
0110
0100
0000
,  // measure 46
1100
0110
0011
0000
,  // measure 47
1001
0000
0001
0000
0001
1000
0001
0000
,  // measure 48
0101
1010
1001
0000
,  // measure 49
2002
3003
0220
0330
,  // measure 50
1100
0000
1100
0000
1100
0000
1000
0100
,  // measure 51
0101
0000
0011
0000
1000
0100
1000
0010
,  // measure 52
2000
3200
0320
0031
,  // measure 53
0002
0203
0320
0030
,  // measure 54
2000
3200
2300
3100
,  // measure 55
0002
0000
0023
0000
0031
0010
0001
0010
,  // measure 56
0110
0000
0100
0100
0020
0000
1000
0000
,  // measure 57
0032
2003
3002
2003
,  // measure 58
3020
0230
0320
0130
,  // measure 59
2002
0000
3003
2020
,  // measure 60
0000
0000
0000
0000
0000
0000
0000
0000
3030
0000
0000
0000
0000
2000
0000
0000
,  // measure 61
0000
0000
0000
0000
0000
0000
0000
3000
0001
0000
0000
0000
0010
0000
0000
0000
,  // measure 62
0011
0000
1000
0000
,  // measure 63
1100
0000
1000
0010
,  // measure 64
1010
0000
0001
0010
,  // measure 65
0001
0010
0001
0010
2002
3003
2002
3003
,  // measure 66
2002
3003
2002
3003
0011
0000
0000
0000
,  // measure 67
1100
0000
2000
3200
,  // measure 68
0310
2002
0000
0000
,  // measure 69
0000
0000
0000
0000
0000
0000
0000
3003
,  // measure 70
1000
0001
0110
0000
,  // measure 71
0101
0000
1010
0000
,  // measure 72
0110
0110
0110
0000
,  // measure 73
1100
0000
0011
0000
1000
0100
0010
0001
,  // measure 74
1001
0000
1000
0001
2002
3003
2002
3003
,  // measure 75
0002
0023
0230
2300
,  // measure 76
3100
0010
0001
0000
,  // measure 77
0200
0002
0000
0000
0000
0000
0000
0000
0000
0000
0000
0000
0000
0000
0000
0303
0000
0000
0000
0000
1010
0000
0000
0000
,  // measure 78
1000
1000
0001
0000
,  // measure 79
0002
0013
0100
0000
,  // measure 80
2000
3200
0320
0030
,  // measure 81
1000
0000
0001
0000
0010
0000
0001
0010
,  // measure 82
0001
0001
1001
0000
,  // measure 83
1000
0000
1001
0000
,  // measure 84
2000
3100
1100
0000
,  // measure 85
0002
0000
0013
0000
0011
0000
0010
0001
,  // measure 86
0100
0010
1000
0000
,  // measure 87
2000
3010
0100
0000
,  // measure 88
0020
0230
0302
0003
,  // measure 89
0100
0000
1000
0000
0010
0000
1000
1000
,  // measure 90
2002
3003
0001
0010
0011
0000
0011
0000
,  // measure 91
2000
3020
0000
0032
,  // measure 92
1003
0000
1000
0200
1000
0000
0301
0000
,  // measure 93
0101
0000
0202
0000
0000
0303
1010
0000
,  // measure 94
0200
0000
0000
0000
1300
0000
0000
0000
0000
0000
0000
0000
0000
0000
0000
0101
,  // measure 95
0000
0000
0000
0000
0000
0000
0000
0000
0000
0000
0000
1100
0000
0000
0000
0000
,  // measure 96
0000
0000
0000
0000
0000
0000
0000
0000
0000
0000
0000
0000
0000
0000
0000
1100
0000
0000
0000
0000
0000
0000
0000
0000
0000
0000
0000
0000
0000
0000
0000
0000
,  // measure 97
0000
0000
0000
0000
0000
0000
0000
0000
0000
0000
0000
0000
0000
0000
0000
0000
0000
0000
0000
0000
0000
1100
0000
0000
0000
0000
0000
0000
0000
0000
0000
0000
0000
0000
0000
0000
0000
0000
0000
0000
0000
0000
0000
0000
0000
0000
0000
0000
0000
0000
0000
0000
0000
0000
0000
0000
0000
0000
0000
0000
0000
0000
0000
0000
,  // measure 98
0000
0101
0000
0000
,  // measure 99
0000
2002
0000
0000
,  // measure 100
0000
3003
0000
0000
,  // measure 101
0000
2000
3000
0002
,  // measure 102
0000
0000
0003
0220
0000
0000
0000
0000
,  // measure 103
0000
0000
0000
0330
,  // measure 104
0000
0000
0000
0000
0000
0000
0000
0000
0000
0000
0000
0000
0000
0010
0000
0000
,  // measure 105
0000
0000
0000
0000
,  // measure 106
0000
2020
0000
0000
,  // measure 107
0000
0000
0000
3030
,  // measure 108
0000
0000
0000
0000
,  // measure 109
0000
0000
0000
0000
,  // measure 110
0000
0202
0000
0000
,  // measure 111
0000
0000
0000
0303
,  // measure 112
0000
0000
0000
0000
,  // measure 113
0000
0000
0000
0000
,  // measure 114
0000
0000
0000
0110
;
