#VERSION:0.83;
#TITLE:Supersoaker;
#SUBTITLE:;
#ARTIST:Eartheater;
#TITLETRANSLIT:;
#SUBTITLETRANSLIT:;
#ARTISTTRANSLIT:;
#GENRE:;
#ORIGIN:;
#CREDIT:;
#BANNER:Supersoaker-bn.png;
#BACKGROUND:Supersoaker-bg.png;
#PREVIEWVID:;
#JACKET:Supersoaker-jacket.png;
#CDIMAGE:;
#DISCIMAGE:;
#LYRICSPATH:;
#CDTITLE:;
#MUSIC:Supersoaker.ogg;
#OFFSET:0.000000;
#SAMPLESTART:6.741573;
#SAMPLELENGTH:16.179777;
#SELECTABLE:YES;
#BPMS:0.000=178.000,
50.000=89.000,
51.000=178.000,
83.000=89.000,
97.000=178.000,
115.000=356.000,
117.000=178.000,
127.000=356.000,
131.000=89.000,
147.000=178.000,
175.000=356.000,
179.000=178.000,
191.000=356.000,
195.000=178.000,
207.000=89.000,
209.000=178.000;
#STOPS:97.000=0.084,
97.250=0.084,
97.500=0.084,
97.750=0.084,
98.000=0.084,
98.250=0.084,
98.500=0.084,
98.750=0.084,
115.000=0.084,
115.500=0.084,
116.000=0.084,
116.500=0.084,
127.000=0.084,
127.500=0.084,
128.000=0.084,
128.500=0.084,
129.000=0.084,
129.500=0.084,
130.000=0.084,
130.500=0.084,
175.000=0.084,
175.500=0.084,
176.000=0.084,
176.500=0.084,
177.000=0.084,
177.500=0.084,
178.000=0.084,
178.500=0.084,
191.000=0.084,
191.500=0.084,
192.000=0.084,
192.500=0.084,
193.000=0.084,
193.500=0.084,
194.000=0.084,
194.500=0.084;
#DELAYS:;
#WARPS:;
#TIMESIGNATURES:0.000=4=4;
#TICKCOUNTS:0.000=4;
#COMBOS:0.000=1;
#SPEEDS:0.000=1.000=0.000=0;
#SCROLLS:0.000=1.000,
81.000=0.250,
83.000=1.000,
146.000=0.500,
147.000=1.000;
#FAKES:;
#LABELS:0.000=Song Start;
#BGCHANGES:;
#KEYSOUNDS:;
#ATTACKS:
;

//---------------dance-single - ----------------
#NOTEDATA:;
#CHARTNAME:;
#STEPSTYPE:dance-single;
#DESCRIPTION:;
#CHARTSTYLE:;
#DIFFICULTY:Beginner;
#METER:2;
#RADARVALUES:0.161420,0.263941,0.000000,0.224264,0.000000,131.000000,131.000000,0.000000,26.000000,0.000000,0.000000,0.000000,0.000000,0.000000,0.161420,0.263941,0.000000,0.224264,0.000000,131.000000,131.000000,0.000000,26.000000,0.000000,0.000000,0.000000,0.000000,0.000000;
#CREDIT:;
#NOTES:
0000
0000
0000
0000
,
0000
0000
0000
0000
,
0000
0000
0000
0000
,
0000
0000
0000
0000
,
0000
0000
0000
0000
,
1000
0000
0001
0000
,
0010
0000
0001
0000
,
0200
0000
0000
0000
,
1300
0000
0010
0000
,
0100
0000
0001
0000
,
0100
0000
0100
0000
,
0020
0000
1030
0000
,
2000
0000
3100
0001
,
0000
2000
0000
3010
,
0000
0100
0000
0200
,
0000
0301
0000
0010
,
0000
0001
0010
0100
,
0000
2000
0000
3010
,
0000
0010
1000
0100
,
0000
2000
0000
0000
,
0000
3001
0000
1000
,
0000
0010
0100
0001
,
0000
0010
1000
0200
,
0000
1300
0010
0100
,
0001
1000
0010
1000
,
0001
0020
0000
1030
,
0000
0100
0000
1000
,
0000
0010
0000
0100
,
0001
0100
0000
1000
,
0000
0001
0000
0010
,
0000
0100
0000
1000
,
0000
0010
0000
2000
,
0000
0000
0000
3001
,
0000
0010
0000
0200
,
0000
1300
0000
1000
,
0010
1000
0001
0020
,
0000
0230
0000
1300
,
0000
1000
0010
1000
,
0000
0100
0000
0001
,
0000
0010
0001
0010
,
0000
0100
0000
1000
,
0000
0010
1000
0010
,
0000
0100
0000
0010
,
0000
0200
0000
2300
,
0000
0001
0000
3001
,
0000
0010
0000
0100
,
0000
0020
0000
1030
,
0000
0100
0000
1000
,
0000
0002
0000
1003
,
0000
0010
0000
0100
,
0000
0010
0000
1000
,
0000
0100
0000
0002
,
1000
2003
0000
0000
,
0000
0010
0000
0000
,
0000
3100
0000
0000
,
0000
0001
0020
0000
,
0000
2030
0000
0000
,
0000
0000
0000
0000
,
0000
3200
0000
0000
,
0000
0301
0000
0010
,
0000
0020
0000
0000
,
0030
0100
0000
1000
,
0000
1000
0000
0001
,
0000
0010
0000
0001
,
0000
0100
0000
0010
,
0000
1000
0000
0010
,
0000
2000
0000
0000
,
0000
3002
0000
0023
,
0130
0000
0000
0000
;

//---------------dance-single - ----------------
#NOTEDATA:;
#CHARTNAME:;
#STEPSTYPE:dance-single;
#DESCRIPTION:;
#CHARTSTYLE:;
#DIFFICULTY:Medium;
#METER:6;
#RADARVALUES:0.345021,0.470954,0.034502,0.241515,0.000000,280.000000,276.000000,4.000000,28.000000,0.000000,0.000000,0.000000,0.000000,0.000000,0.345021,0.470954,0.034502,0.241515,0.000000,280.000000,276.000000,4.000000,28.000000,0.000000,0.000000,0.000000,0.000000,0.000000;
#CREDIT:;
#NOTES:
0000
0000
0000
0000
,
0000
0000
0000
0000
,
0000
0000
0000
0000
,
0000
0000
0000
0000
,
0000
0000
0000
0000
,
1000
0000
0100
1000
0100
0000
0010
0000
,
0001
0000
0010
0001
0010
0000
1000
0000
,
0002
0000
0000
0000
1003
0000
0010
1000
,
0100
0100
0001
0010
,
0001
1000
0020
1030
,
0100
0000
0100
0000
,
2000
3100
2000
0000
,
3002
0013
0200
0310
,
1000
0100
0100
0001
,
0010
0000
0001
0010
0001
0000
1000
0000
,
0100
0000
1000
0100
1000
0000
0010
0000
,
0100
0000
0010
0001
0010
0000
1000
0000
,
1000
0001
0010
0001
,
0200
1300
0010
1000
,
0000
0002
0000
1003
,
0010
0100
1000
0000
0000
0000
1000
0001
,
0000
0010
0200
0000
1300
0000
1000
0000
,
0020
1030
0100
0001
0020
0000
1030
0100
,
0000
1000
0002
0000
0013
0000
0100
0000
,
0001
0010
1000
0100
0010
0001
1000
0000
,
0001
0000
0010
0000
1000
0100
1000
0000
,
0001
0010
0001
0100
,
0010
0000
0001
0000
0010
0000
0001
0100
,
0001
0000
1000
0000
0010
0000
1000
0100
,
1000
0100
0001
0000
0100
0000
0010
0000
,
0010
1000
0001
0100
,
0001
0000
0010
0000
1000
0000
1000
0001
,
1000
0010
0100
0001
0010
0001
1000
0010
,
1000
0000
0100
0001
0100
0010
0002
0000
,
1003
0010
0200
0000
0000
0300
1000
0000
,
0010
1000
0100
2000
,
3001
0000
0020
0031
1000
0000
1000
0000
,
0010
0000
1000
0100
1000
0001
0010
0000
,
0001
0100
0010
1000
,
0010
0000
0100
0010
0100
0000
0010
0000
,
0001
1000
1000
0002
,
0013
0100
1000
0100
,
1000
0100
1000
0000
0010
0000
0100
0000
,
0001
0000
0010
0000
1000
0000
0002
0003
,
1000
0100
1000
0010
0100
0000
0010
0000
,
1000
0000
0100
0000
1000
0010
1000
0000
,
0001
0100
0010
0001
,
1000
0000
0010
0000
1000
0100
1000
0001
,
1000
0001
0010
0001
1000
0001
0100
0000
,
0001
0000
0010
0000
0001
0100
0001
0000
,
0010
0100
0010
1000
,
0010
1000
0100
2000
,
3002
2003
0010
0000
,
0001
3200
0000
0320
,
0001
0031
0010
1000
,
0010
0001
0100
0100
,
0100
2000
0010
0000
,
0010
0010
0000
0001
,
0000
3002
0000
0100
,
1000
0010
0000
1000
,
0000
1003
0000
0110
,
0100
0010
0000
0000
0001
0000
1001
0000
,
0010
0000
0100
0000
0000
0100
1000
0000
,
0010
0100
1000
0000
0001
0100
0001
0100
,
0010
1000
0010
1001
,
0010
1000
0000
0100
,
1000
0020
0000
2030
,
0000
3002
1000
0013
,
0000
0110
0000
0000
;

//---------------dance-single - ----------------
#NOTEDATA:;
#CHARTNAME:;
#STEPSTYPE:dance-single;
#DESCRIPTION:;
#CHARTSTYLE:;
#DIFFICULTY:Easy;
#METER:4;
#RADARVALUES:0.263695,0.353215,0.008626,0.293268,0.000000,214.000000,213.000000,1.000000,34.000000,0.000000,0.000000,0.000000,0.000000,0.000000,0.263695,0.353215,0.008626,0.293268,0.000000,214.000000,213.000000,1.000000,34.000000,0.000000,0.000000,0.000000,0.000000,0.000000;
#CREDIT:;
#NOTES:
0000
0000
0000
0000
,
0000
0000
0000
0000
,
0000
0000
0000
0000
,
0000
0000
0000
0000
,
0000
0000
0000
0000
,
1000
0010
1000
0000
,
0100
0100
0001
0100
,
0002
0000
0013
1000
,
0200
0000
1300
0000
,
1000
0010
1000
0010
,
0200
0000
0301
0000
,
0010
0000
0001
0000
0020
0000
0000
0030
,
1000
0100
2000
3001
,
0000
0010
0001
0010
,
0010
0100
1000
0002
,
0000
0003
1000
0000
0010
0000
1000
0000
,
0100
1000
1000
0020
,
0000
0030
0100
0000
0001
0000
0010
0000
,
0001
1000
0010
1000
,
0100
0002
0000
1003
,
0010
0000
0200
0000
0000
0300
1000
0000
,
0010
0001
0100
0020
,
0000
0000
1030
0100
1000
0000
0001
0000
,
0010
0100
0010
0200
,
0000
0301
1000
1000
,
0001
0010
0100
0020
,
0000
0030
0001
0000
0000
0000
1000
0000
,
0000
0100
1000
0010
,
1000
0010
0000
0001
,
1000
0001
0010
0200
,
0000
0300
1000
0000
0000
0000
0010
0000
,
0000
1000
0100
1000
,
0001
0010
0100
2000
,
3010
0000
0001
0000
0010
0001
0020
0000
,
0100
0000
1030
0010
0001
0000
1000
0000
,
0010
1000
0100
0000
0100
0000
0001
0000
,
0001
2000
3001
0001
,
1000
0010
1000
0100
,
1000
0002
0013
0100
,
0010
0100
0010
1000
,
0010
2000
3010
0100
,
0000
0100
0001
0010
,
0001
0100
1000
0010
,
1000
0002
0000
1003
,
0010
0100
1000
1000
,
0000
0010
0100
0010
,
0001
0200
0000
0301
,
0000
0010
0000
2000
,
0001
0000
0001
0000
0001
3000
0010
0000
,
0000
0100
0000
1000
,
0000
0100
0010
0001
,
0000
0000
0010
0000
0000
0000
1000
0001
,
1000
0010
0200
0000
1000
0000
0000
0000
,
1000
0320
0000
0032
,
0000
0103
0000
1000
,
0010
1000
0002
1000
,
0000
0023
0100
0001
,
0100
2030
0000
3200
,
0000
2300
0000
0010
,
0100
3001
0000
1000
,
0010
0100
1000
0001
,
1000
0010
0100
0001
,
0010
0002
0000
1003
,
0010
1000
0100
0020
,
0000
1030
0100
0100
,
0001
0010
0010
1000
,
0001
0200
0000
0302
,
0000
2003
0000
3010
,
0000
1001
0000
0000
;

//---------------dance-single - ----------------
#NOTEDATA:;
#CHARTNAME:;
#STEPSTYPE:dance-single;
#DESCRIPTION:;
#CHARTSTYLE:;
#DIFFICULTY:Hard;
#METER:9;
#RADARVALUES:0.508906,0.676996,0.138008,0.319144,0.172510,413.000000,397.000000,16.000000,37.000000,0.000000,0.000000,0.000000,0.000000,0.000000,0.508906,0.676996,0.138008,0.319144,0.172510,413.000000,397.000000,16.000000,37.000000,0.000000,0.000000,0.000000,0.000000,0.000000;
#CREDIT:;
#NOTES:
// measure 0
0000
0000
0000
0000
,  // measure 1
0000
0000
0000
0000
,  // measure 2
0000
0000
0000
0000
,  // measure 3
0000
0000
0000
0000
,  // measure 4
0000
0000
0000
0000
,  // measure 5
1000
0010
1000
0001
0100
0000
0001
0000
,  // measure 6
0010
0001
0010
0001
1000
0100
1000
0000
,  // measure 7
0020
0000
1030
0000
0100
0000
1000
0001
,  // measure 8
0020
0031
0100
1000
,  // measure 9
0010
0000
2000
3100
0020
0000
0032
0000
,  // measure 10
0013
0001
0011
0000
1000
0100
1100
0000
,  // measure 11
2000
0000
0010
3000
2000
0000
0001
3000
,  // measure 12
0200
0000
0301
0100
1000
0000
1001
0000
,  // measure 13
0100
1000
0001
0010
0001
1000
0010
0000
,  // measure 14
0100
0000
1000
0100
1000
0000
0001
0000
,  // measure 15
1000
0000
0001
0010
0011
0000
1001
0000
,  // measure 16
0100
1000
0100
1000
0010
0000
1000
0000
,  // measure 17
0001
0000
0100
0010
0100
0000
0010
0000
,  // measure 18
0001
0000
1001
0100
0010
0000
0002
0000
,  // measure 19
1000
2003
0001
3010
,  // measure 20
0100
0001
0010
0000
0000
0000
1000
0001
,  // measure 21
0000
0000
0010
0000
0200
0000
1300
0000
0001
0000
0000
0000
0010
0000
0000
1000
,  // measure 22
0100
1000
0001
0000
0010
0000
2000
0000
3100
0000
0001
0000
0010
0000
0001
0000
,  // measure 23
0100
0000
0001
0000
0100
0000
0000
0000
0010
0000
0000
0000
1000
0000
0000
0001
,  // measure 24
0010
0001
1000
0000
0200
0000
1300
0000
0001
0000
0010
0000
1000
0000
0001
0000
,  // measure 25
0010
0000
1001
0000
0100
0000
1000
0010
,  // measure 26
1000
0100
0001
0000
0010
1000
0010
0000
,  // measure 27
0100
0001
0100
0001
0010
0000
2000
0000
,  // measure 28
3100
0000
0001
0000
0010
0000
1000
0010
,  // measure 29
0100
1000
0100
0000
0010
0000
0100
0000
,  // measure 30
1000
0010
1000
0000
0001
0000
0100
0000
,  // measure 31
1000
0000
0010
1000
0100
0000
0001
0100
,  // measure 32
0010
0000
0000
0100
0000
0000
1000
0000
0000
0100
0000
0000
0010
0000
0000
0001
0000
0000
1000
0000
0001
0000
0100
0000
,  // measure 33
0010
0000
0000
0000
0000
0000
1000
0000
0100
0000
1000
0000
0010
0000
0000
0100
0000
0000
0002
0000
0000
0000
0000
0000
,  // measure 34
0000
0000
0013
0100
2000
0000
0000
0000
3100
0000
0000
0000
1000
0000
0010
0000
,  // measure 35
0001
0001
0100
0000
0010
0000
0200
0000
,  // measure 36
0302
2003
3010
1001
,  // measure 37
0010
0001
1000
0100
1000
0001
0100
0000
,  // measure 38
0010
0000
0001
0010
0001
0000
1000
0000
,  // measure 39
0001
0000
1000
0100
1100
0000
1001
0000
,  // measure 40
0010
0001
0010
0001
0100
0000
0001
0000
,  // measure 41
1000
0000
0010
0100
0010
0000
0100
0001
,  // measure 42
1000
0000
1001
0010
0100
1000
0200
0000
,  // measure 43
0310
0000
0002
0000
1000
0000
0013
0100
,  // measure 44
1000
0001
0010
0001
1000
0100
1000
0001
,  // measure 45
0010
0001
1000
0100
1000
0010
1000
0010
,  // measure 46
0100
0001
0010
0001
0100
0010
1000
0010
,  // measure 47
1000
0000
0001
0010
0001
0000
0100
1000
,  // measure 48
0010
1000
0001
0100
0001
0010
0001
1000
,  // measure 49
0010
1000
0100
1000
0100
0001
0010
0100
,  // measure 50
0010
0100
1000
0010
1000
0010
0001
0000
,  // measure 51
1000
0100
0001
0000
0010
0100
0200
0302
,  // measure 52
2003
0000
0000
3020
0000
0000
1030
0000
0000
0000
0001
0000
0100
0000
0000
0000
0010
0000
1000
0000
0000
0000
0100
0000
,  // measure 53
0010
0000
0001
1000
0000
0100
0000
0010
0000
1000
0000
0001
,  // measure 54
0000
0000
1000
0000
0000
0000
1000
0000
0000
0100
0000
0000
0001
0000
0000
0100
0000
0000
1000
0000
0000
0010
0000
0000
,  // measure 55
0001
0010
0100
0000
0020
0000
0100
0000
,  // measure 56
0130
0000
0000
0000
0000
0000
0001
0000
0000
1000
0000
0000
0001
0000
0000
0000
0000
0000
0000
0000
0000
0000
0000
0000
1000
0000
0000
0000
0001
0000
0000
0000
1000
0000
0000
0000
0001
0000
0000
0000
1000
0000
0000
0000
0001
0000
0000
0000
,  // measure 57
1000
0001
1000
0001
1000
0001
1000
0001
1000
0010
1000
0010
,  // measure 58
0100
0000
0001
0000
0100
0000
0001
0000
0000
0000
0001
0000
0000
0000
0010
0100
0000
0000
0010
0000
0000
1000
0100
0000
,  // measure 59
0010
2000
0100
3200
,  // measure 60
1300
0000
1000
0001
0010
0000
0101
0100
,  // measure 61
0001
0010
1000
0010
0100
0000
1002
0000
,  // measure 62
0013
0000
1000
0100
1000
0001
1000
0010
,  // measure 63
1000
0010
0000
1000
0100
1000
0001
0010
,  // measure 64
0001
1000
0010
1000
0100
0000
1001
0001
,  // measure 65
1000
0010
1000
0100
0010
0000
0110
1000
,  // measure 66
0001
0000
0000
0002
0000
2003
0000
3020
0000
0230
0000
0302
,  // measure 67
0000
2003
0000
3020
0000
0230
0000
0300
0000
0010
0000
0000
,  // measure 68
0000
1001
0000
0000
;
