#VERSION:0.83;
#TITLE:So Hot You're Hurting My Feelings;
#SUBTITLE:;
#ARTIST:Caroline Polachek;
#TITLETRANSLIT:;
#SUBTITLETRANSLIT:;
#ARTISTTRANSLIT:;
#GENRE:;
#ORIGIN:;
#CREDIT:;
#BANNER:so hot banner.png;
#BACKGROUND:shyhmf.png;
#PREVIEWVID:;
#JACKET:;
#CDIMAGE:;
#DISCIMAGE:;
#LYRICSPATH:;
#CDTITLE:;
#MUSIC:So Hot SM.mp3;
#OFFSET:0.000000;
#SAMPLESTART:42.857143;
#SAMPLELENGTH:17.142857;
#SELECTABLE:YES;
#BPMS:0.000=112.000;
#STOPS:;
#DELAYS:;
#WARPS:;
#TIMESIGNATURES:0.000=4=4;
#TICKCOUNTS:0.000=4;
#COMBOS:0.000=1;
#SPEEDS:0.000=1.000=0.000=0;
#SCROLLS:0.000=1.000;
#FAKES:;
#LABELS:0.000=Song Start;
#BGCHANGES:;
#KEYSOUNDS:;
#ATTACKS:
;

//---------------dance-single - ----------------
#NOTEDATA:;
#CHARTNAME:;
#STEPSTYPE:dance-single;
#DESCRIPTION:;
#CHARTSTYLE:;
#DIFFICULTY:Medium;
#METER:5;
#RADARVALUES:0.385524,0.387503,0.051732,0.206927,0.000000,313.000000,307.000000,6.000000,24.000000,0.000000,0.000000,0.000000,0.000000,0.000000,0.385524,0.387503,0.051732,0.206927,0.000000,313.000000,307.000000,6.000000,24.000000,0.000000,0.000000,0.000000,0.000000,0.000000;
#CREDIT:;
#NOTES:
0000
0000
0000
0000
,
0000
0000
0000
0000
,
1000
0100
0001
0000
0010
0001
0000
1000
,
0100
1000
0000
0010
0001
0100
0001
1000
,
0100
1000
0010
0000
0001
0100
0000
0010
,
0100
1000
0100
2000
3000
0010
0001
0001
,
0000
1000
0100
0000
0010
0100
0000
0001
,
1000
0000
0010
0000
1000
0010
0100
0002
,
0003
0010
1000
0000
0100
1000
0000
0010
,
0100
0010
0001
0010
0001
0010
1000
0100
,
0000
1000
0100
0000
0001
0010
0000
2000
,
3000
0100
1000
0010
0001
1000
0010
0200
,
0000
1300
0100
0002
0000
0013
1000
0100
,
0000
1000
0010
0002
0000
0103
0010
0200
,
0000
1300
0010
0200
0000
1300
0000
0010
,
0000
0001
0100
0002
0000
0013
1000
0100
,
0000
1000
0010
0200
0000
1300
0010
0200
,
0000
0310
0010
0002
0000
1003
1000
2000
,
0000
3010
0100
0002
0003
0010
0001
1000
,
0100
0000
0000
0010
0000
0001
0010
0001
,
1000
0000
0100
1000
0000
0000
0001
0000
,
0010
0001
0000
1000
0100
1000
0010
0100
,
0000
0010
0010
0001
0000
0000
1000
0000
,
0000
1000
1000
0100
0001
0010
0001
1000
,
2000
0000
0010
3020
0100
0000
0031
0000
,
1000
0010
1000
0100
0001
0000
0010
0001
,
1000
0010
0001
1000
0000
1000
0010
0100
,
1000
1000
0001
0001
1000
0001
1000
0000
,
1000
0010
1000
0100
0001
1000
1001
0000
,
0001
0010
0001
0100
0001
0100
0000
0000
,
1000
0100
1000
0010
1000
0010
1001
0000
,
0000
0001
0010
0001
0000
0100
1000
0100
,
0010
0100
0010
0000
0100
0010
0011
0000
,
1000
0010
1000
0100
0010
0100
0000
0000
,
1000
0100
0001
0010
1000
0100
1100
0000
,
1000
0001
0001
0001
0001
1000
0010
1000
,
0000
0100
0001
0020
0030
1000
0000
0100
,
0000
0001
0010
0002
0003
1000
0010
1000
,
0000
0100
1000
2000
0000
3010
0000
0001
,
0000
0010
0001
0100
0001
0010
1000
0200
,
0300
1000
0010
0001
0000
0010
0001
0001
,
0000
0100
0001
0100
0000
0010
1000
0100
,
0000
1000
0100
2000
0000
3010
1000
0001
,
0010
0000
0000
2001
0000
3010
1000
0100
,
0001
0000
0010
0001
0100
1000
0100
0001
,
0000
0010
0100
0010
0100
0010
0001
1000
,
0010
1000
0100
0010
0000
1000
0010
0100
,
0000
0010
0001
0100
0001
0010
1000
0010
,
0000
0000
1000
0001
0000
0000
0110
0000
,
0100
0000
1000
0100
0001
0000
0010
0000
,
2000
0000
0000
3200
0000
0000
0301
0000
,
0010
0000
1000
0100
0001
0010
1000
0010
,
1000
0000
0001
1000
0000
0100
1000
0010
;

//---------------dance-single - ----------------
#NOTEDATA:;
#CHARTNAME:;
#STEPSTYPE:dance-single;
#DESCRIPTION:;
#CHARTSTYLE:;
#DIFFICULTY:Easy;
#METER:3;
#RADARVALUES:0.205695,0.250144,0.060354,0.258659,0.000000,167.000000,160.000000,7.000000,30.000000,0.000000,0.000000,0.000000,0.000000,0.000000,0.205695,0.250144,0.060354,0.258659,0.000000,167.000000,160.000000,7.000000,30.000000,0.000000,0.000000,0.000000,0.000000,0.000000;
#CREDIT:;
#NOTES:
0000
0000
0000
0000
,
0000
0000
0000
0000
,
1000
0000
0010
0001
,
0010
0000
0000
0000
,
1000
0000
0100
0001
,
1000
0000
0000
0001
,
1000
0000
0010
0000
,
1000
0100
1000
0100
,
0001
0000
0010
0000
,
0001
0000
1000
1000
,
1000
0000
0010
0200
,
0000
1300
0001
0010
,
0001
0000
1000
0000
,
0100
0000
0001
0010
,
1000
0000
0100
0000
,
1000
0010
0002
2003
,
3100
0000
0010
0000
,
0100
1000
0010
0001
,
2000
3000
0200
0300
,
0001
0000
0120
1030
,
0200
0300
1000
0000
,
0001
1000
0010
0100
,
0002
0000
2003
3000
,
0000
0100
0001
0010
,
1000
0110
1000
0001
,
0010
0001
0200
0302
,
2003
3100
0010
1000
,
0001
0001
1000
0010
,
2000
0100
3100
0001
,
0110
0010
0001
0100
,
0200
0001
0301
1001
,
1000
0010
0100
1000
,
0200
0010
0310
0110
,
1000
0010
0001
0100
,
0001
0100
0001
0101
,
1000
1000
1000
1000
,
0020
0000
0032
0000
,
2003
0000
3100
0001
,
0020
0000
2030
0000
,
3100
0001
0010
0001
,
2000
0000
3200
0000
,
0001
0010
0001
1300
,
0002
0000
0000
0000
,
0000
0003
0000
1010
,
1000
0100
1000
0100
,
0001
0010
0001
0100
,
0002
1003
1000
0010
,
0100
0010
1000
0100
,
2000
0000
3002
0000
,
0013
1000
0100
1000
,
2000
3010
0002
0013
,
1000
0100
0010
0001
,
0002
0013
2000
3100
;

//---------------dance-single - ----------------
#NOTEDATA:;
#CHARTNAME:;
#STEPSTYPE:dance-single;
#DESCRIPTION:;
#CHARTSTYLE:;
#DIFFICULTY:Hard;
#METER:7;
#RADARVALUES:0.456964,0.478680,0.043110,0.353500,0.099152,371.000000,366.000000,5.000000,41.000000,0.000000,0.000000,0.000000,0.000000,0.000000,0.456964,0.478680,0.043110,0.353500,0.099152,371.000000,366.000000,5.000000,41.000000,0.000000,0.000000,0.000000,0.000000,0.000000;
#CREDIT:;
#NOTES:
0000
0000
0000
0000
,
0000
0000
0000
0000
,
1000
0001
0010
0000
1000
0100
0000
1000
,
0010
1000
0001
0001
0001
0010
0010
1000
,
0100
0001
0020
0030
1000
0100
0001
1000
,
0010
1000
0100
0002
0000
1003
0010
1000
,
0100
0001
0010
0000
1000
0100
0000
1000
,
0100
0001
0010
0001
1000
0100
0010
2000
,
0000
3001
0010
1000
0100
0001
0000
1000
,
0010
1000
0100
1000
0100
1000
0001
0010
,
0000
0001
2000
3000
0010
2000
3200
0000
,
0301
0100
1000
0000
0010
0000
1000
0000
0001
0000
1000
0000
0010
0000
0200
0000
,
0000
1300
0100
0002
1003
0010
0100
2000
,
0000
3000
0010
0000
0001
0000
0200
0000
0000
0000
1300
0000
0100
0000
0010
0000
,
0001
0000
1000
0000
0010
0000
0200
0000
0000
0300
2000
0000
3020
0000
0032
0000
,
0000
1003
0010
0200
0001
1300
0010
0200
,
0000
0301
1000
0020
0000
0130
0001
0020
,
0000
1030
0010
0100
0000
0001
1000
0002
,
0000
0003
0010
0000
0100
0000
2000
0000
0000
3000
0100
0000
0001
0000
0010
0000
,
1000
0000
0000
0000
0000
0000
0001
0000
0000
0000
1000
0100
1000
0100
1000
0000
,
0000
0001
1000
0010
0000
0000
0100
1000
,
0001
0000
1000
0000
1000
0000
0010
1000
0010
1000
0010
0000
0000
0000
0002
0000
,
0100
0003
1000
0000
1000
0000
0100
0000
0000
0000
0000
0000
0010
0000
0001
0000
,
0100
0000
1000
0000
0100
0000
0001
0010
0001
0010
1000
0000
0100
0000
0010
0000
,
2000
0001
0000
0000
0010
0000
3000
0000
0020
0000
0000
0000
0001
0000
0000
0000
,
1030
0000
0001
0000
0010
0000
1000
0000
0100
0000
1000
0100
0000
1000
0001
0000
,
0010
1000
0100
0001
0000
1000
0001
0010
,
0000
0100
0010
0100
0010
0001
0010
0001
,
2000
3010
1000
0001
1000
0100
1001
0000
,
1000
0010
0001
0100
0001
0100
0001
0010
,
0001
1000
0001
1000
0100
0001
0101
0000
,
1000
0010
1000
0100
0010
0001
0010
0100
,
1000
0001
0010
0001
0100
0001
0110
0000
,
0001
0100
0001
1000
0010
1000
0100
0001
,
0010
0001
0100
0001
1000
0100
1100
0000
,
1000
0001
0001
0001
0001
1000
0010
2000
,
0000
0100
0001
3020
0000
1000
0000
1000
,
0030
0100
1000
0001
0000
0010
1000
0200
,
0010
0001
1000
0320
0000
1030
0100
0001
,
0000
0010
0001
1000
0100
0010
1000
0200
,
0000
0001
1000
0320
0000
1030
0001
0002
,
0000
0010
1003
0100
0000
1000
0010
0200
,
0000
0001
0001
2000
3000
0010
0010
0001
,
1000
0000
0000
0300
0000
0000
2002
0000
3003
0000
0001
0010
0001
1000
0100
0000
,
1000
0001
1000
0010
1000
0100
0001
0010
,
0001
0000
0100
0000
1000
0000
0010
1000
0010
1000
0100
0000
1000
0000
0001
0000
,
0010
1000
0020
0130
0001
1000
0010
0100
,
0001
0000
1000
0000
0010
0000
0001
0000
0100
0001
0100
0000
0001
0000
1000
0000
,
0010
1000
0000
0000
0200
0000
0300
0001
2000
0000
3000
0100
0002
0000
0003
1000
,
0010
0000
1000
0000
0100
0000
0001
0000
0010
0000
0001
1000
0000
0100
0001
0000
,
0001
0000
0010
0000
1000
0000
0200
0000
0000
0300
1000
0000
0001
0000
0010
0000
,
1000
0000
0100
0000
0001
0000
0010
0000
0001
0000
1000
0100
0000
1000
0010
0000
,
0001
1000
0100
1000
0010
0001
0200
1300
;

//---------------dance-single - ----------------
#NOTEDATA:;
#CHARTNAME:;
#STEPSTYPE:dance-single;
#DESCRIPTION:;
#CHARTSTYLE:;
#DIFFICULTY:Beginner;
#METER:2;
#RADARVALUES:0.169976,0.204664,0.000000,0.189683,0.000000,138.000000,138.000000,0.000000,22.000000,0.000000,0.000000,0.000000,0.000000,0.000000,0.169976,0.204664,0.000000,0.189683,0.000000,138.000000,138.000000,0.000000,22.000000,0.000000,0.000000,0.000000,0.000000,0.000000;
#CREDIT:;
#NOTES:
// measure 0
0000
0000
0000
0000
,  // measure 1
0000
0000
0000
0000
,  // measure 2
1000
0000
0001
0000
,  // measure 3
0010
0000
0000
0010
,  // measure 4
1000
0000
0100
0000
,  // measure 5
1000
0000
0000
0001
,  // measure 6
0010
0000
0100
0000
,  // measure 7
0100
0000
1000
1000
,  // measure 8
0001
0000
0010
0000
,  // measure 9
0100
0000
0001
0010
,  // measure 10
1000
0000
0100
0000
,  // measure 11
0002
0003
1000
0100
,  // measure 12
2000
3000
0010
0000
,  // measure 13
0001
0010
0001
0100
,  // measure 14
0020
0000
0130
0000
,  // measure 15
0100
0001
0010
0100
,  // measure 16
2000
3000
0010
0000
,  // measure 17
0100
1000
0010
0100
,  // measure 18
0002
0000
2003
0000
,  // measure 19
3010
0000
0001
1000
,  // measure 20
2000
3000
0010
0000
,  // measure 21
0000
0000
0000
0001
,  // measure 22
0020
0000
1030
0000
,  // measure 23
0100
0001
0000
0001
,  // measure 24
1000
0100
0010
0001
,  // measure 25
0000
0010
1000
0100
,  // measure 26
2000
0001
3010
0100
,  // measure 27
1000
0001
0001
0010
,  // measure 28
0002
0000
0013
1000
,  // measure 29
0200
1300
0010
0001
,  // measure 30
2000
0000
3010
0100
,  // measure 31
1000
0010
0100
0001
,  // measure 32
0020
0000
0031
1000
,  // measure 33
0100
0010
0100
1000
,  // measure 34
0020
1030
0010
0100
,  // measure 35
0000
0001
0001
1000
,  // measure 36
1000
0000
0010
0000
,  // measure 37
0000
0000
0000
0100
,  // measure 38
1000
0000
0001
0000
,  // measure 39
0000
0000
0010
1000
,  // measure 40
0200
0000
2300
0000
,  // measure 41
0010
0000
0000
0000
,  // measure 42
3002
0000
0000
0000
,  // measure 43
0003
0000
0002
1003
,  // measure 44
0100
0010
1000
0100
,  // measure 45
0000
0001
0010
0001
,  // measure 46
2000
3010
0100
0000
,  // measure 47
0000
0000
0001
0100
,  // measure 48
0002
0000
1003
1000
,  // measure 49
1000
0000
0010
0100
,  // measure 50
0020
0031
0000
1000
,  // measure 51
0100
0010
1000
0010
,  // measure 52
0200
1300
0000
0001
;
