#TITLE:シムルグの目醒め;
#SUBTITLE:(Dawn of Simurgh);
#ARTIST:DJ TOTTO feat. rionos;
#TITLETRANSLIT:Simurgh no mezame;
#SUBTITLETRANSLIT:;
#ARTISTTRANSLIT:;
#GENRE:;
#CREDIT:;
#BANNER:Dawn of Simurgh-bn.png;
#BACKGROUND:Dawn of Simurgh-bg.png;
#LYRICSPATH:;
#CDTITLE:;
#MUSIC:Dawn of Simurgh.ogg;
#OFFSET:-0.631690;
#SAMPLESTART:76.421478;
#SAMPLELENGTH:12.631577;
#SELECTABLE:YES;
#DISPLAYBPM:95.000000:380.000000;
#BPMS:0.000000=190.000000
,64.000000=380.000000
,128.000000=47.500000
,129.000000=95.000000
,145.000000=190.000000
,199.000000=380.000000
,264.000000=95.000000
,271.000000=190.000000
,277.000000=95.000000
,278.000000=190.000000
,342.000000=95.000000
,354.000000=190.000000
;
#STOPS:199.000000=0.474000
;
#BGCHANGES:;
#KEYSOUNDS:;
#ATTACKS:;

//---------------dance-single - ----------------
#NOTES:
     dance-single:
     :
     Beginner:
     3:
     0.268890,0.369437,0.080095,0.368436,0.000000,235.000000,225.000000,10.000000,46.000000,0.000000,0.000000,0.268890,0.369437,0.080095,0.368436,0.000000,235.000000,225.000000,10.000000,46.000000,0.000000,0.000000:
0000
0000
0000
0000
,
0000
0000
0000
0000
,
0000
0000
0000
0000
,
0000
0000
0000
0000
,
2000
0000
3001
0000
,
0000
0000
0000
0000
,
0020
0000
0031
0000
,
0000
0000
0100
0000
,
2000
0000
3010
0000
,
0100
0000
0001
0010
,
0001
0000
0020
0000
,
0130
0000
0100
0000
,
1000
0100
1000
0000
,
1000
0000
0001
0000
,
0010
0001
0010
0000
,
0100
0000
0000
0000
,
1001
0000
0000
0000
,
1001
0000
0000
0000
,
0020
0000
0000
0000
,
0130
0000
0000
0000
,
1001
0000
0000
0000
,
1001
0000
0000
0000
,
0200
0000
0000
0000
,
0310
0000
0000
0000
,
1001
0000
0000
0000
,
1001
0000
0000
0000
,
0020
0000
0000
0000
,
0130
0000
0000
0000
,
1001
0000
0000
0000
,
0110
0000
0000
0000
,
0200
0000
0000
0000
,
0320
0000
0000
0000
,
0032
1003
0010
0200
,
0301
0001
1000
0200
,
1300
1000
0010
0100
,
0001
2000
3001
0010
,
0100
1000
1000
0001
,
0010
0100
0000
0100
,
0010
2000
0000
3001
,
0000
0002
0000
1003
,
0000
1000
0000
0100
,
0010
0001
0000
0100
,
0000
0001
0000
0000
,
1000
0000
0000
0000
,
0100
0020
0000
0130
,
0001
0000
0000
1010
,
0000
0020
0000
1030
,
0000
1000
0000
0100
,
0001
0020
0000
0030
,
0001
1000
0010
0200
,
1300
0000
0000
0000
,
1000
0000
0001
0000
,
0010
0000
0100
0000
,
0010
0000
0001
0000
,
0002
0000
0000
0000
,
0013
0000
0100
0000
,
1000
0000
0010
0000
,
1000
0000
0100
0000
,
2000
0000
0000
0000
,
3001
0000
0010
0000
,
0100
0000
0010
0000
,
0100
0000
1000
0000
,
0020
0000
0000
0000
,
1030
0000
0100
0000
,
1000
0000
0001
0000
,
0010
0000
0001
0000
,
0100
0001
0010
0100
,
1000
0010
2000
3100
,
0000
0010
0000
0010
,
0001
0100
1001
1000
,
0010
0000
0100
0000
,
0001
0010
0002
1003
,
2000
3010
0100
0000
,
0100
0010
0002
0013
,
0100
0000
0010
1000
,
0100
1000
0020
0030
,
2000
3001
0010
0001
,
0100
0000
0020
1030
,
0200
1300
0010
0100
,
0010
0000
0100
0001
,
0010
0001
1000
0010
,
1000
0100
0020
0030
,
0000
0010
0200
0300
,
0001
0010
0001
0000
,
1000
0000
0001
1000
,
0100
0000
2000
3001
,
0010
0100
2000
0000
,
3010
0100
0002
0013
,
0100
1000
2000
0000
,
0000
3000
0001
0010
,
0100
0000
1000
0001
,
1000
0001
0010
0100
,
0010
0001
2000
0000
,
3200
0000
0320
0000
,
0032
0000
2003
3001
,
0002
1003
0010
0100
,
0010
0100
2000
3010
,
0200
0301
0010
0001
,
1000
0010
2000
0000
,
0000
0000
0002
0000
,
0000
0000
0000
0000
,
0000
0000
0000
0000
,
0000
0000
3003
0000
;

//---------------dance-single - ----------------
#NOTES:
     dance-single:
     :
     Easy:
     5:
     0.368436,0.492583,0.152180,0.344408,0.000000,322.000000,303.000000,19.000000,43.000000,0.000000,0.000000,0.368436,0.492583,0.152180,0.344408,0.000000,322.000000,303.000000,19.000000,43.000000,0.000000,0.000000:
0000
0000
0000
0000
,
0000
0000
0000
0000
,
0000
0000
0000
0000
,
0000
0000
0000
0000
,
0002
1003
1000
0000
,
0010
0000
0100
0000
,
0200
0310
0010
0000
,
0100
0000
0001
1000
,
0020
0000
1030
0000
,
0100
1000
0100
0010
,
0002
0000
1003
0000
,
0010
0000
1000
0100
,
0010
0001
1000
0000
,
0001
0000
1000
0001
,
0010
0100
0100
0000
,
1000
0000
0002
0003
,
1001
0000
0010
0000
,
0110
0000
0100
0000
,
0001
0000
0010
0000
,
0001
0000
1000
0000
,
0110
0000
1000
0000
,
1001
0000
0001
0000
,
0010
0000
1000
0000
,
0001
0000
1000
0000
,
1001
0000
0100
0000
,
0110
0000
0010
0000
,
0100
0000
0000
0000
,
0001
0000
0010
0000
,
0110
0000
0001
0000
,
1001
0000
1000
0000
,
0100
0000
1000
0000
,
0001
0000
0010
0000
,
2000
0001
3010
0000
0001
0100
0010
0000
,
1000
0001
0020
0000
0130
0000
1000
0000
,
0001
0000
0010
0000
0100
0010
0100
0000
,
1000
0020
1030
0001
,
0100
0001
1000
0010
,
1000
0100
0000
1000
,
0010
1000
0100
0001
,
0100
1000
0010
0100
,
0000
0000
0002
0000
0000
0003
0010
0000
,
0100
1000
0000
0010
,
1000
0200
0000
2300
,
3100
0020
0000
0031
,
0100
2000
0000
3010
,
2000
3002
0000
0013
,
0100
0200
0000
0310
,
1000
0100
0000
1000
,
0001
0020
0000
0031
,
1000
0010
0000
0100
,
1001
0000
0100
0000
,
1001
0000
0010
0000
,
1000
0000
0010
0000
,
1000
0000
0001
0000
,
0110
0000
1000
0000
,
0110
0000
0001
0000
,
0010
0000
1000
0000
,
0010
0000
0100
0000
,
1001
0000
0010
0000
,
1001
0000
0100
0000
,
2000
0000
3010
0000
,
1000
0000
0100
0000
,
0002
0000
1003
0000
,
0020
0000
1030
0000
,
0100
0000
0010
0000
,
0100
0000
0001
0000
,
2000
3001
0010
0100
,
1000
0010
0100
0001
,
0000
1000
0010
1000
,
0100
2000
3001
0010
,
0001
1000
0100
1000
,
0010
1000
0002
1003
,
2000
3001
0010
0100
,
0010
0100
0100
0001
,
0010
0001
0100
0010
,
1000
0100
2000
3001
,
0002
1003
0010
0100
,
0010
1000
0002
1003
,
1000
0010
0100
0010
,
1000
0100
2000
3010
,
1000
0001
0010
0100
,
0010
0001
1001
1000
,
0010
0100
0110
0100
,
0010
1000
0002
1003
,
0020
1030
0100
1000
,
0001
0010
2000
3001
,
0010
0000
0100
1000
0100
0000
0010
0000
,
0001
0000
1000
0001
2000
0000
3010
0000
,
0100
0010
0001
1000
,
0010
0100
0002
0010
,
1003
0100
2000
3001
,
0002
1003
0010
0100
,
0010
0100
0002
1003
,
0020
1030
0200
1000
,
0310
0001
1000
0001
,
1000
0010
0100
1000
,
0010
1000
1001
0010
,
0100
0010
1001
0010
,
0100
0010
2001
0000
,
3001
0010
0002
0000
,
0103
0010
2000
0000
,
3100
1000
0020
1030
,
0002
0000
0003
0000
;

//---------------dance-single - ----------------
#NOTES:
     dance-single:
     :
     Medium:
     7:
     0.533203,0.694422,0.072085,0.296351,0.024028,466.000000,457.000000,9.000000,37.000000,0.000000,0.000000,0.533203,0.694422,0.072085,0.296351,0.024028,466.000000,457.000000,9.000000,37.000000,0.000000,0.000000:
0000
0000
0000
0000
,
0000
0000
0000
0000
,
0000
0000
0000
0000
,
0000
0000
0000
0000
,
2000
3001
0001
0000
,
0010
0000
0100
0010
,
0200
1300
0010
0000
,
1000
0000
0100
1000
,
0002
0000
0000
0000
0003
0010
0100
0000
,
2000
3010
0100
1000
,
0200
0000
0000
0000
0301
0010
0001
0100
,
0010
0000
1000
0100
,
1000
0010
2000
0000
,
3001
0000
0010
0001
,
0200
0301
0001
0000
,
1000
0000
0020
0000
,
1030
0001
0000
1000
,
0010
0000
1000
0100
,
1000
0010
1000
0001
,
0010
0100
1000
0000
,
0001
0100
0000
0001
,
0010
0000
0001
1000
,
0010
1000
0100
1000
,
0010
1000
0010
0100
,
0001
0010
0000
0001
,
0010
0000
0001
0100
,
1000
0100
0010
0100
,
0001
0010
0001
0100
,
0001
0010
0000
1000
,
0010
0000
1000
0100
,
0000
1000
0001
0000
,
1000
0010
1000
0100
,
0002
0010
1003
0010
0100
0001
1000
0000
,
1000
0000
0001
0000
0010
0000
0100
0010
0100
0000
0000
0000
1000
0000
0000
0000
,
0001
0000
0010
0001
0010
0001
1000
0000
,
0100
0000
1000
0000
0001
0000
0100
0001
1000
0000
0000
0000
0020
0000
0000
0000
,
0030
0000
0100
0010
1000
0000
0001
0000
1000
0000
0010
0000
0100
0000
0001
0000
,
0010
0001
0100
0000
1100
0000
2000
0000
,
3200
0000
0310
0001
0010
0100
0010
0000
,
1000
0100
1000
0000
0001
0010
0001
0100
,
0010
1000
0100
0000
1010
0000
0100
0000
,
0010
1000
0001
0000
0001
0000
0010
0000
,
0001
2000
0000
3001
,
1000
0010
0100
0000
0100
0000
0010
0000
,
0001
0000
0020
0000
0031
0000
1000
0010
,
1000
0100
0001
0100
0010
0000
1001
0000
,
0010
0000
0110
0000
0100
1000
0001
0000
,
0010
0001
0100
0000
1000
0010
0100
0010
,
0001
0000
0010
0000
1000
0010
1000
0100
,
0010
0001
1000
0002
,
1003
1000
0000
0001
,
0100
0000
0001
0010
,
0001
0100
0001
1000
,
0100
0010
0001
0000
,
1000
0010
0000
1000
,
0100
0000
1000
0001
,
0100
0001
0010
0001
,
0100
0001
0100
0010
,
1000
0100
0000
1000
,
0100
0000
1000
0010
,
0001
0010
0100
0010
,
1000
0100
1000
0010
,
1000
0100
0000
0001
,
0100
0000
0001
0010
,
0000
0001
1000
0000
,
0001
0100
0001
0010
,
0001
0000
0000
0010
0001
0000
0010
0000
0100
1000
0100
0000
1000
0000
0010
0000
,
1000
0020
0130
0002
1003
0200
0310
0001
,
0000
1000
0010
1000
0100
1000
0001
0010
,
0100
1000
0100
0010
0001
1000
0010
0000
,
1000
0010
0000
0100
0001
0000
0010
0001
,
0000
0100
0010
1000
0010
1000
0001
0000
,
1000
0010
0000
1000
0100
0000
0200
0000
,
0301
0020
0130
0100
,
0001
0010
0000
0001
0100
0000
0010
1000
,
0010
1000
0100
0001
0100
0000
0010
0010
,
0000
1000
0100
1000
0020
0000
2030
0000
,
3002
0000
0023
0000
0130
1000
0010
0000
,
1000
0100
0000
1000
0010
0000
0100
0001
,
0010
0001
1000
0010
0100
0010
1000
0100
,
1000
0000
0100
1000
0002
0000
0023
0000
,
0032
0000
0103
0010
1001
0000
1000
0000
,
0001
1000
0010
1000
0110
0000
0001
0000
,
0010
0100
1000
0001
0110
0000
1000
0100
,
0000
0100
0001
0010
0000
0100
0000
0010
,
0001
0000
0000
0000
0010
0000
0100
1000
,
0100
1000
0010
0100
0002
0000
1003
0100
,
0001
0100
1000
0001
0020
0000
0130
0000
,
0010
0000
0100
1000
1001
0000
1000
0100
,
0010
0000
0100
0010
0001
0000
0010
0000
,
0002
0000
1000
0000
1003
0001
1000
0010
,
1000
0100
1000
0001
0010
0001
0010
0001
,
0100
0001
1000
0010
2000
0000
3100
0010
,
0002
0000
0103
0010
2000
0000
3010
0000
,
0100
0000
0000
0001
0000
0000
0010
0000
0001
0000
1000
0000
0001
0000
1000
0000
,
0010
1000
0100
0000
0010
0001
0100
0001
,
0010
1000
0010
0001
0100
0000
0001
1000
,
0010
0000
1000
0010
0100
0000
0001
0010
,
0100
1000
0010
0000
1002
0000
0000
0000
,
0100
0000
2000
0003
,
0100
0000
3002
0000
,
0010
0000
2003
0000
,
3010
0000
0000
0000
;

//---------------dance-single - ----------------
#NOTES:
     dance-single:
     :
     Hard:
     10:
     0.754036,1.187506,0.288341,0.280332,0.196232,659.000000,623.000000,36.000000,35.000000,0.000000,0.000000,0.754036,1.187506,0.288341,0.280332,0.196232,659.000000,623.000000,36.000000,35.000000,0.000000,0.000000:
// measure 0
0000
0000
0000
0000
,  // measure 1
0000
0000
0000
0000
,  // measure 2
0000
0000
0000
0000
,  // measure 3
0000
0000
0000
0000
,  // measure 4
1000
0100
0200
0300
,  // measure 5
0010
0000
0011
0100
,  // measure 6
1000
0001
2000
0000
,  // measure 7
3010
0000
0000
0000
1000
0100
1000
0100
,  // measure 8
0010
0001
0010
0001
1000
0001
0100
0010
,  // measure 9
1000
0001
0010
0100
,  // measure 10
1000
0000
0100
0000
1000
0000
0100
1000
0100
0000
0010
0000
0001
0000
0010
0000
,  // measure 11
0001
0000
0010
0000
1001
0000
0100
1000
,  // measure 12
0200
0310
0120
1030
,  // measure 13
0001
0010
0001
0100
0020
0000
1030
0000
,  // measure 14
0200
2300
3002
0000
,  // measure 15
1003
0000
0000
0000
0000
0000
0000
0000
0110
0000
0000
0000
0000
0000
0001
1000
,  // measure 16
0001
0000
0010
0000
0100
0000
1000
0100
,  // measure 17
1000
0001
0010
0100
,  // measure 18
1000
0000
0010
0000
1000
0000
0001
1000
,  // measure 19
0001
1000
0001
0000
0010
0000
0100
0000
,  // measure 20
1001
0010
0100
0010
,  // measure 21
1001
0010
1000
0001
,  // measure 22
1000
0001
1000
0001
1000
0000
0001
1000
,  // measure 23
0001
0010
0100
1000
,  // measure 24
1001
0100
0010
0000
,  // measure 25
1001
0010
0100
0010
,  // measure 26
1000
0100
1000
0100
0000
0000
0010
0001
,  // measure 27
0010
0001
0010
0000
0100
0000
1000
0000
,  // measure 28
0100
0000
0200
0000
0310
0000
1000
0001
,  // measure 29
1000
0000
0010
0001
0010
0000
1000
0000
,  // measure 30
0100
1000
0100
1000
0100
0000
0010
0001
,  // measure 31
0010
0001
0000
1000
0100
0000
0010
0000
,  // measure 32
0001
0000
1000
0100
0010
0000
0100
0000
0010
0000
0001
0000
1000
0000
0000
0000
,  // measure 33
0100
0000
0010
0000
0100
0000
1000
0001
2000
0000
0000
0000
3100
0000
0000
0000
,  // measure 34
0010
0000
0001
0010
0001
0010
0100
0000
,  // measure 35
1000
0000
0100
0000
0100
0000
0010
1000
0001
0000
0000
0000
0100
0000
0000
0000
,  // measure 36
0010
0000
0000
1000
0100
0000
1000
0000
0001
0000
0000
0000
1000
0000
0000
0000
0001
0000
0000
0000
0100
0000
0000
0000
0001
0000
0000
0000
0010
0000
0000
0000
,  // measure 37
0001
1000
0100
0010
0001
0000
0020
0000
,  // measure 38
0230
0000
0000
0000
1300
0100
1000
0000
0100
0000
0010
0000
0001
0010
0001
0000
,  // measure 39
0010
0100
1000
0010
0100
0001
1000
0100
,  // measure 40
0010
0001
0100
0000
0020
0000
2030
0000
,  // measure 41
3002
0000
0000
0000
0203
0000
0000
0000
1300
0000
0000
0100
1000
0100
0000
0001
,  // measure 42
0100
0010
1000
0000
0100
1000
0100
0000
,  // measure 43
0010
0000
0001
0000
0010
0000
0000
0001
1000
0000
0100
0000
0010
0000
0001
0000
,  // measure 44
0010
0001
1000
0000
0020
0000
2030
0100
,  // measure 45
3100
0010
0002
0000
2000
3003
0110
0000
,  // measure 46
1000
0100
1001
0000
0001
0010
0100
0000
,  // measure 47
0010
0000
0100
0000
1000
0000
1000
0100
1000
0000
0010
0000
0100
0000
0001
0000
,  // measure 48
0010
0001
0100
0000
0010
0001
0010
0000
,  // measure 49
0100
0000
0001
0000
0100
0000
1000
0000
0100
1000
0001
0010
0002
0000
0000
0000
,  // measure 50
1003
0000
0100
0000
0010
0000
0001
0010
,  // measure 51
0001
1000
0100
0010
,  // measure 52
0001
0000
0100
0000
0001
0000
1000
0001
,  // measure 53
1000
0001
1000
0000
0100
0000
0010
0000
,  // measure 54
1001
0100
0010
0100
,  // measure 55
1001
0100
0001
1000
,  // measure 56
0001
1000
0001
1000
0001
0000
1000
0001
,  // measure 57
1000
0100
0010
0001
,  // measure 58
1001
0010
0100
0000
,  // measure 59
1001
0100
0010
0100
,  // measure 60
0001
0010
0001
0010
0000
0000
0100
1000
,  // measure 61
0100
1000
0100
0000
0010
0000
0001
0000
,  // measure 62
0010
0000
0020
0000
0130
0000
0001
1000
,  // measure 63
0001
0000
1000
0100
1000
0000
0001
0000
,  // measure 64
0010
0001
0010
0001
0010
0000
0100
1000
,  // measure 65
0100
1000
0000
0001
0010
0000
0100
0000
,  // measure 66
2000
0000
0000
0000
0000
0000
3001
0010
0001
0000
0010
0000
0100
0000
0010
0000
0001
0000
1000
0000
0001
0000
1000
0000
0100
0000
1000
0100
1000
0000
0100
0000
,  // measure 67
1000
0000
0000
0000
0001
0000
1000
0000
0001
0000
0000
0000
0100
0000
0010
0000
0100
0000
0000
0000
0010
0100
0010
0000
1001
0000
0000
0000
0000
0000
0000
0000
,  // measure 68
1000
0100
1000
0010
1000
0001
0100
0001
,  // measure 69
0010
0001
0100
0010
1001
0001
0010
0001
,  // measure 70
0100
0010
1000
0100
1000
0001
0100
0010
,  // measure 71
0100
0001
0020
0000
0031
0000
1001
0000
,  // measure 72
1000
0000
0100
0010
0100
1000
0001
0100
,  // measure 73
0001
0100
0010
1000
0001
0010
0100
1000
,  // measure 74
0001
0100
0010
1000
0001
0010
1000
0010
,  // measure 75
0100
1000
0002
0000
1003
0000
0110
0000
,  // measure 76
1001
0000
0000
0000
1000
0000
0001
0000
0010
0000
0100
0000
1000
0000
0100
1000
,  // measure 77
0100
0020
0001
0031
1001
0010
0100
0100
,  // measure 78
1000
0010
0100
0001
0100
1000
0100
0010
,  // measure 79
1000
0010
1010
0000
1000
0010
0001
0010
,  // measure 80
0100
0001
1000
0100
0100
0001
0010
0001
,  // measure 81
1000
0000
0001
0100
0001
0000
0000
0000
0110
0000
0000
0000
0010
0000
0100
0000
,  // measure 82
0001
0010
0100
1000
1001
0000
1000
0100
,  // measure 83
0100
0010
0001
0000
0010
0000
1000
0000
1001
0000
0000
0000
0001
0000
0110
0000
,  // measure 84
0000
0100
1001
0010
0000
0110
1000
0100
,  // measure 85
1000
0001
1000
0000
0002
0000
0000
0000
1003
0000
0001
0000
0010
0000
0200
0000
,  // measure 86
0010
0000
0000
0000
1300
0000
0010
1000
0001
0000
0100
0000
0001
0000
0010
0001
,  // measure 87
0010
0000
0100
0000
0010
0001
1000
0100
1000
0001
1000
0000
0010
0000
0100
0000
,  // measure 88
0001
0000
0000
0000
0010
0000
0000
0000
0001
0000
0000
0000
0100
0000
0001
1000
0001
0000
0000
0000
1000
0000
0000
0000
0010
0000
0000
0000
1000
0000
0000
0000
,  // measure 89
0100
1000
0010
0001
0010
1000
0001
0100
,  // measure 90
0120
0000
0000
0000
0000
0000
1030
0000
0100
0000
1000
0000
1100
0000
0000
0010
0000
0000
0001
0000
0000
1000
0000
0000
,  // measure 91
0010
0100
0001
0010
0001
1000
0010
0100
,  // measure 92
1000
0100
0001
0000
1001
0000
1000
0010
,  // measure 93
0110
0000
0100
0001
1010
0000
0100
0001
,  // measure 94
0101
0000
0000
1000
0010
0000
1000
0000
2001
0000
3001
0000
0010
0000
0200
0000
,  // measure 95
0310
0001
1000
0010
0100
0010
1000
0100
,  // measure 96
1000
0000
0001
0000
0010
0000
0100
0010
0100
0000
0010
0000
0000
0000
1001
0000
,  // measure 97
0000
0000
0110
0000
0000
0000
0001
1000
0010
0000
0100
0000
0010
0000
0100
0000
,  // measure 98
0001
1000
0001
1000
0001
1000
0001
1000
0002
0000
0000
0000
0013
0000
0000
0000
,  // measure 99
0200
1300
0010
1000
,  // measure 100
0010
0100
0010
0100
1000
0000
0100
0000
,  // measure 101
0020
0031
1000
0001
,  // measure 102
2000
3010
0000
0000
;
