#TITLE:SAD GIRLZ LUV MONEY (Remix);
#SUBTITLE:;
#ARTIST:Amaarae & Moliy feat. Kali Uchis;
#TITLETRANSLIT:;
#SUBTITLETRANSLIT:;
#ARTISTTRANSLIT:;
#GENRE:;
#CREDIT:;
#BANNER:Sad Girlz-bn.png;
#BACKGROUND:Sad Girlz-bg.png;
#LYRICSPATH:;
#CDTITLE:;
#MUSIC:SAD GIRLZ LUV MONEY REMIX.ogg;
#OFFSET:0.000000;
#SAMPLESTART:52.349358;
#SAMPLELENGTH:19.631012;
#SELECTABLE:YES;
#BPMS:0.000000=110.029999
;
#STOPS:
;
#BGCHANGES:;
#KEYSOUNDS:;
#ATTACKS:;

//---------------dance-single - ----------------
#NOTES:
     dance-single:
     :
     Beginner:
     1:
     0.121275,0.169785,0.000000,0.165643,0.000000,82.000000,82.000000,0.000000,16.000000,0.000000,0.000000,0.121275,0.169785,0.000000,0.165643,0.000000,82.000000,82.000000,0.000000,16.000000,0.000000,0.000000:
0000
0000
0000
0000
,
0000
0000
0000
0000
,
0000
0000
0000
0000
,
0000
0000
0000
0000
,
1000
0000
0000
0000
,
0000
0000
0000
0000
,
0010
0000
0000
0000
,
0000
0000
0000
0000
,
2000
0000
3001
0001
,
0010
0000
0100
0010
,
0020
0000
0030
0100
,
1000
1000
0001
0010
,
0100
0000
0001
0000
,
0010
1000
0010
0100
,
1000
0000
0001
0000
,
0020
0000
0031
0000
,
1000
0000
0200
1300
,
0000
0000
0020
1030
,
1000
0000
0001
0000
,
0100
0000
0200
0310
,
0010
0000
1000
0000
,
0000
1000
0002
0003
,
0010
0000
0100
0000
,
0000
0100
0010
0000
,
0002
1003
1000
0010
,
0200
0000
0300
0000
,
2000
0000
3000
0000
,
0001
0010
0010
0100
,
0002
0000
0013
1000
,
1000
0200
0000
0300
,
0010
0020
0030
0000
,
0001
0010
0001
0000
,
2000
0000
0000
0000
,
3002
0000
0000
0000
,
0013
0000
0100
0010
,
0100
0000
1000
1000
,
0001
0000
0001
0001
,
1000
0000
0100
0010
,
0100
0000
0010
1000
,
0001
0000
0001
0000
,
0020
0000
0000
0000
,
0030
0000
0000
0000
;

//---------------dance-single - ----------------
#NOTES:
     dance-single:
     :
     Hard:
     6:
     0.309103,0.382015,0.000000,0.300229,0.093174,209.000000,209.000000,0.000000,29.000000,0.000000,0.000000,0.309103,0.382015,0.000000,0.300229,0.093174,209.000000,209.000000,0.000000,29.000000,0.000000,0.000000:
// measure 0
0000
0000
0000
0000
,  // measure 1
0000
0000
0000
0000
,  // measure 2
0000
0000
0000
0000
,  // measure 3
0000
0000
0000
0000
,  // measure 4
2000
0000
0000
0000
,  // measure 5
0000
0000
0001
0001
,  // measure 6
3020
0000
0000
0000
,  // measure 7
0030
0000
1000
0100
,  // measure 8
1000
0000
0001
0010
0001
1000
0100
0000
,  // measure 9
1000
0000
0000
0010
0000
0000
1000
0000
0100
0000
1000
0000
0002
0000
0013
0000
,  // measure 10
0001
0000
1000
0100
1000
0010
0010
0000
,  // measure 11
0100
0000
0000
0001
0100
0000
0001
0000
0010
0000
0001
0000
0100
0000
0010
0000
,  // measure 12
1000
0000
0000
1000
0000
0000
0010
0000
0100
0000
1000
0000
0001
0000
0200
0000
,  // measure 13
0301
0000
0000
0010
0000
0000
1000
0000
0000
0000
0010
0000
0100
0000
0000
0000
,  // measure 14
0001
0000
0000
1000
0000
0000
0010
0000
0100
0000
0001
0000
0010
0000
0000
0000
,  // measure 15
0001
0000
0000
0100
0000
0000
0001
0000
1000
0000
0010
0000
1000
0000
0010
0000
,  // measure 16
2000
0000
3001
0010
0002
0000
0103
0000
,  // measure 17
1000
0000
0100
1000
0100
0000
1000
0000
0020
0000
0000
0000
1030
0000
0000
0000
,  // measure 18
1000
0000
0000
0000
0001
0000
0010
0000
0001
0000
0100
0000
0002
0000
0000
0003
,  // measure 19
1000
0010
1000
0010
0200
0000
0301
0000
,  // measure 20
1000
0000
0010
1000
0010
0100
0020
0030
,  // measure 21
0100
0000
0001
0100
0010
0000
1000
0000
0002
0000
0000
0000
0013
0000
0000
0000
,  // measure 22
1000
0000
0000
0000
0100
0000
1000
0000
0100
0000
1000
0000
0020
0000
0000
0030
,  // measure 23
1000
0001
0010
0001
0200
0000
0301
0000
,  // measure 24
1000
0000
0010
0000
1000
0100
1000
0000
0001
0000
0010
0000
0001
0000
1000
0000
,  // measure 25
2000
0000
3010
0000
0100
0001
0010
0001
,  // measure 26
0200
0000
0301
0000
0010
0001
1000
0100
,  // measure 27
2000
0000
3010
0010
1000
0001
0100
0001
,  // measure 28
0010
0000
0001
0000
0100
0001
0100
0000
1000
0000
0010
0000
1000
0010
1000
0000
,  // measure 29
0200
0000
2300
0000
3000
0000
0010
0100
,  // measure 30
0002
0203
0300
1000
,  // measure 31
0010
0000
1000
0100
1000
0000
0001
0010
,  // measure 32
0002
0000
1003
0000
0000
0000
1000
0010
,  // measure 33
2000
0000
0000
0000
3100
0000
0000
0000
0010
0000
0001
0010
0001
0000
1000
0000
,  // measure 34
0200
0000
0000
1300
0000
0000
1000
0000
0010
0000
1000
0000
0001
0000
0010
0000
,  // measure 35
0002
0000
0000
0103
0000
0000
0100
0000
1000
0000
0100
0000
1000
0000
0010
0000
,  // measure 36
2000
0000
0000
3100
0000
0000
0010
0000
0001
0000
0100
0000
0001
0000
0100
0000
,  // measure 37
0020
0000
0000
1030
0000
0000
0100
0000
0001
0000
0100
0000
0010
0000
0001
0000
,  // measure 38
0002
0000
0000
0103
0000
0000
1000
0000
0010
0000
0100
0000
0100
0000
1000
0000
,  // measure 39
0020
0000
0030
1000
0000
0000
0000
0000
0001
0000
0000
0000
1000
0000
0000
0000
,  // measure 40
0002
0000
0000
0000
,  // measure 41
0003
0000
0000
0000
;

//---------------dance-single - ----------------
#NOTES:
     dance-single:
     :
     Easy:
     2:
     0.153812,0.191008,0.000000,0.227760,0.000000,104.000000,104.000000,0.000000,22.000000,0.000000,0.000000,0.153812,0.191008,0.000000,0.227760,0.000000,104.000000,104.000000,0.000000,22.000000,0.000000,0.000000:
0000
0000
0000
0000
,
0000
0000
0000
0000
,
0000
0000
0000
0000
,
0000
0000
0000
0000
,
2000
0000
0000
0000
,
0000
0000
0000
0000
,
3020
0000
0000
0000
,
0000
0000
0000
0000
,
0130
0000
1000
0001
,
0010
0001
0010
0100
,
2000
0000
0000
3010
,
0100
0001
0100
0002
,
0013
0100
0000
1000
,
2000
3010
0002
0013
,
0200
0000
1300
1000
,
0020
0000
0000
0030
,
0001
0010
0002
0103
,
1000
0100
2000
3010
,
0100
0001
0020
1030
,
1000
0100
1000
0100
,
1000
0000
0010
0000
0000
0001
0000
0000
,
1000
0010
2000
3100
,
1000
0000
0001
0010
,
0200
0301
0001
0000
,
1000
0020
1030
0100
,
0002
0000
0003
0010
,
2000
0000
3000
0001
,
0010
0000
0000
0100
0000
0000
1000
0000
,
2000
0000
3010
0100
,
0002
0013
0000
1000
,
0020
0130
0000
1000
,
0010
0000
0000
0100
0000
0000
1000
0000
,
0002
0000
0000
0000
,
0023
0000
0000
0000
,
1030
0000
1000
0000
0001
0000
0000
0001
,
0010
0100
0100
1000
,
1000
0000
0010
0000
0000
1000
0100
0000
,
0001
0100
0100
0010
,
1000
0000
0010
0000
0000
0100
1000
0000
,
0001
0010
0000
0100
,
2000
0000
0000
0000
,
3000
0000
0000
0000
;

//---------------dance-single - ----------------
#NOTES:
     dance-single:
     :
     Medium:
     5:
     0.218886,0.254677,0.000000,0.207054,0.010353,148.000000,148.000000,0.000000,20.000000,0.000000,0.000000,0.218886,0.254677,0.000000,0.207054,0.010353,148.000000,148.000000,0.000000,20.000000,0.000000,0.000000:
0000
0000
0000
0000
,
0000
0000
0000
0000
,
0000
0000
0000
0000
,
0000
0000
0000
0000
,
2000
0000
0000
0000
,
0010
0000
0001
0000
,
3200
0000
0000
0000
,
0010
0000
1000
0000
,
0301
0000
0010
0001
,
1000
0100
1000
0000
0010
0000
0010
0000
,
0100
0000
0001
0100
,
0001
0010
0001
0000
1000
0000
0010
0000
,
2000
3100
0000
0001
,
0010
0001
0100
0000
1000
0000
0020
0000
,
1030
0100
1000
0010
,
0001
0000
0100
0000
0001
0010
0001
0000
,
1000
0010
2000
3100
,
0001
0010
0001
0000
0200
0000
0310
0000
,
1000
0000
0100
1000
0010
1000
0001
0000
,
0010
0002
2003
3200
,
0310
0000
0100
0000
0010
1000
0010
0000
,
0100
0000
0001
0010
0002
0000
1003
0000
,
1000
0000
0010
0100
0010
0000
1000
0000
,
0001
0001
2000
0000
,
3010
0001
0010
0100
,
1000
0100
1000
0000
0010
0000
0001
0000
,
0001
0010
0001
0000
1000
0000
0100
0000
,
2000
0000
3100
0010
0001
0000
0100
0001
,
0000
1000
0010
0000
0100
0000
1000
0000
,
2000
0000
3010
0000
0000
0100
0100
0000
,
0001
0020
0030
1000
,
0100
0000
1000
0001
1000
0000
0020
0000
,
0130
1000
0000
0100
,
0002
0013
0000
0100
,
0001
0000
0000
1000
0000
0000
0010
0000
1000
0000
0000
0000
0100
0000
0000
0000
,
0010
0000
0000
0100
0000
0000
0010
0000
2000
0000
0000
0000
3001
0000
0000
0000
,
0001
0000
0010
0000
0100
1000
0010
0000
,
0001
0000
0010
0000
0100
1000
0100
0000
,
2000
0000
3001
0000
0001
0010
0001
0000
,
0200
1300
0010
0001
,
2000
0000
0000
0000
,
3000
0000
0000
0000
;
