#VERSION:0.83;
#TITLE:SRS;
#SUBTITLE:;
#ARTIST:Chase Icon;
#TITLETRANSLIT:SRS;
#SUBTITLETRANSLIT:;
#ARTISTTRANSLIT:;
#GENRE:;
#ORIGIN:;
#CREDIT:;
#BANNER:SRS-bn.png;
#BACKGROUND:SRS-bg.png;
#PREVIEWVID:;
#JACKET:SRS-jacket.png;
#CDIMAGE:;
#DISCIMAGE:;
#LYRICSPATH:;
#CDTITLE:;
#MUSIC:SRS.ogg;
#OFFSET:0.000000;
#SAMPLESTART:46.289391;
#SAMPLELENGTH:17.349400;
#SELECTABLE:YES;
#BPMS:0.000=83.000,
16.000=166.000,
207.000=664.000,
219.000=166.000,
220.000=664.000,
232.000=166.000,
233.000=664.000,
245.000=166.000,
246.000=664.000,
258.000=166.000,
259.000=664.000,
271.000=166.000,
272.000=664.000,
284.000=166.000,
285.000=664.000,
297.000=166.000,
298.000=664.000,
310.000=166.000;
#STOPS:206.000=0.361,
325.000=0.361;
#DELAYS:;
#WARPS:;
#TIMESIGNATURES:0.000=4=4;
#TICKCOUNTS:0.000=4;
#COMBOS:0.000=1;
#SPEEDS:0.000=1.000=0.000=0;
#SCROLLS:0.000=1.000;
#FAKES:;
#LABELS:0.000=Song Start;
#BGCHANGES:;
#KEYSOUNDS:;
#ATTACKS:
;

//---------------dance-single - ----------------
#NOTEDATA:;
#CHARTNAME:;
#STEPSTYPE:dance-single;
#DESCRIPTION:;
#CHARTSTYLE:;
#DIFFICULTY:Medium;
#METER:6;
#RADARVALUES:0.404658,0.682741,0.156952,0.246639,0.007474,379.000000,358.000000,21.000000,33.000000,0.000000,0.000000,0.000000,0.000000,0.000000,0.404658,0.682741,0.156952,0.246639,0.007474,379.000000,358.000000,21.000000,33.000000,0.000000,0.000000,0.000000,0.000000,0.000000;
#CREDIT:;
#NOTES:
0000
0000
0000
0000
,
0000
0000
0000
0000
,
1000
0000
0000
0000
0000
0000
0000
0001
0000
0000
0010
0000
0000
0000
0000
0000
,
0100
0000
0000
0000
0000
0000
0000
0010
0000
0000
1000
0000
0002
0000
0000
0000
,
1003
0000
0000
0000
,
0100
0000
0000
0010
,
0001
0000
0000
1000
,
0100
0000
1000
0000
,
0010
0001
0100
0001
,
1000
0000
0010
0000
1000
0000
0100
1000
,
0001
0010
0001
0100
,
2000
0000
0000
0000
3001
0010
0001
0000
,
1000
0000
0100
0000
1000
0001
1000
0010
,
1000
0000
0100
0001
0100
0001
0010
0000
,
1000
0010
1000
0000
0100
0001
0100
0000
,
0001
0000
0001
1000
0010
1000
0100
0000
,
0100
0000
0000
1000
0000
0010
1000
0100
,
0001
1000
0001
0010
,
0001
0000
0000
0100
0000
1000
0100
0000
,
1000
0010
1000
0001
0100
0000
1000
0001
,
0010
0000
1000
0100
1000
0100
0001
0000
,
0010
0001
1000
0000
0010
1000
0100
0000
,
0100
0010
0100
0010
0100
0000
0001
1000
,
0010
1000
0100
0000
1000
0001
0010
0000
,
0001
1000
0001
1000
0010
0000
1000
0000
,
0100
1000
0100
0001
2000
0000
3001
0000
,
0010
0000
0100
0000
2000
0000
0000
3000
,
0001
0010
1000
0200
,
0301
0000
1000
0010
1000
0100
0001
0000
,
1000
0010
1000
0100
1000
0100
0001
0000
,
0010
0001
0100
0000
1000
0010
0100
0000
,
1000
0100
1000
0010
1000
0001
1000
0000
,
1000
0000
0010
1000
0001
0100
0001
0000
,
1000
0000
0010
0001
0100
0001
0100
0000
,
0010
0000
0110
0000
0010
0001
0100
0000
,
1000
0010
1000
0100
0001
1000
0000
0000
,
0001
0000
1000
0000
0010
1000
0100
0000
,
1000
0000
0001
0010
1000
0100
0002
0000
,
1003
0000
0010
0000
1000
0100
0001
0000
,
0010
0000
0001
0100
1000
0010
1000
0000
,
2000
3010
1000
0100
,
0001
0000
0100
0000
1000
0010
1000
0100
,
2000
3001
1000
0010
,
0100
0000
1000
0001
1000
0000
0020
0000
,
1030
0000
0100
1000
,
0001
0000
0000
0010
0000
0000
0100
0000
,
2000
0000
0000
0000
3100
0000
0000
0001
,
0000
0010
0000
0001
0000
0000
1000
0000
,
0020
0000
0000
0030
1000
0000
0100
0000
,
0001
0000
0010
0001
0000
1000
0100
0000
,
2000
0000
0000
3000
0010
0000
0000
0000
,
0001
1000
0100
2002
,
0000
0000
0000
0000
,
0000
0000
0000
0000
,
0000
0000
0000
3003
,
2200
0000
0000
0000
,
0000
0000
0000
0000
,
0000
0000
0000
0000
,
3300
0220
0000
0000
,
0000
0000
0000
0000
,
0000
0000
0000
0000
,
0000
0330
0022
0000
,
0000
0000
0000
0000
,
0000
0000
0000
0000
,
0000
0000
0033
2020
,
0000
0000
0000
0000
,
0000
0000
0000
0000
,
0000
0000
0000
3030
,
0202
0000
0000
0000
,
0000
0000
0000
0000
,
0000
0000
0000
0000
,
0303
0022
0000
0000
,
0000
0000
0000
0000
,
0000
0000
0000
0000
,
0000
0033
2020
0000
,
0000
0000
0000
0000
,
0000
0000
0000
0000
,
0000
0000
3030
1100
,
0100
0001
1000
0010
,
1000
0000
0100
0001
0010
0000
0001
0000
,
1000
0010
1000
0100
,
1000
0010
2000
3010
,
1000
0000
0001
0000
0020
0100
0030
0001
,
0100
1000
0020
1030
,
0100
0001
0200
1300
,
0000
0000
0001
0000
,
0000
0000
0010
0000
1000
0100
1000
0001
,
1000
0010
1001
0000
0100
1000
1010
0000
,
0001
0100
0101
0000
1000
0010
1000
0100
,
0001
0010
0110
0000
0001
0000
1000
0010
,
1000
0100
1001
0000
0001
0000
0010
0001
,
0100
0001
1001
0000
0010
1000
1100
0000
,
0010
1000
0110
0000
1000
0000
0001
0000
,
0010
0001
0100
0000
1000
0000
0000
0000
,
0010
0000
2000
0000
,
3000
0000
1001
0000
0001
0010
0001
0000
,
0100
1000
0010
0000
1000
0100
1000
0100
,
0001
0010
0001
0000
1000
0000
0010
1000
,
0010
1000
0100
0000
0010
0100
0010
0100
,
0010
0001
0010
0000
1000
0000
0001
0000
,
1000
0010
1000
0000
0100
0001
0000
0110
,
0000
1000
1001
0000
;

//---------------dance-single - ----------------
#NOTEDATA:;
#CHARTNAME:;
#STEPSTYPE:dance-single;
#DESCRIPTION:;
#CHARTSTYLE:;
#DIFFICULTY:Easy;
#METER:4;
#RADARVALUES:0.302159,0.531020,0.254113,0.291482,0.000000,283.000000,249.000000,34.000000,39.000000,0.000000,0.000000,0.000000,0.000000,0.000000,0.302159,0.531020,0.254113,0.291482,0.000000,283.000000,249.000000,34.000000,39.000000,0.000000,0.000000,0.000000,0.000000,0.000000;
#CREDIT:;
#NOTES:
0000
0000
0000
0000
,
0000
0000
0000
0000
,
0100
0000
0010
1000
,
0001
0000
0000
0001
,
1000
0000
0000
0000
,
0010
0000
0000
0000
,
0100
0000
0000
0000
,
1000
0000
0001
0000
,
0010
0000
0100
0000
,
1000
0000
0010
0000
,
1000
0100
1000
0100
,
0001
1000
0002
0000
,
1003
1000
0010
1000
,
0100
0001
0010
1001
,
1000
0010
1000
0110
,
0001
0010
0001
0100
,
1000
0001
1000
0010
,
2000
3000
0001
0010
,
0002
0003
0100
1000
,
0010
1000
0100
0002
,
1003
0010
1000
0100
,
1000
0010
0100
0010
,
0200
1300
0020
0130
,
0100
0010
0100
0001
,
1000
0001
0010
0100
,
1000
0100
0010
1000
,
0001
1000
1001
0000
,
0001
0010
0100
2000
,
3001
0010
0001
0101
,
1000
0010
1000
1100
,
1000
0010
0100
0110
,
0010
0001
0100
0001
,
1000
0000
0010
1000
,
0100
0000
0001
0100
,
0010
0000
0100
0000
,
0010
0100
0010
0002
,
1003
1000
0010
0100
,
2000
3100
0002
0013
,
1000
0010
0100
0001
,
0010
0001
1000
0010
,
1000
0000
0100
1000
,
0020
0031
0100
0001
,
1000
0000
0010
0000
,
1000
0100
0001
0000
,
0010
0000
0000
0000
,
1000
0000
0010
0000
,
0200
0000
0301
0000
,
1000
0010
1000
0100
,
0002
0000
1003
0000
,
0020
0030
1000
0100
,
2000
0000
3100
0000
,
1000
0010
0001
2002
,
0000
0000
0000
0000
,
0000
0000
0000
0000
,
0000
0000
0000
3003
,
2200
0000
0000
0000
,
0000
0000
0000
0000
,
0000
0000
0000
0000
,
3300
0022
0000
0000
,
0000
0000
0000
0000
,
0000
0000
0000
0000
,
0000
0033
2020
0000
,
0000
0000
0000
0000
,
0000
0000
0000
0000
,
0000
0000
3030
0220
,
0000
0000
0000
0000
,
0000
0000
0000
0000
,
0000
0000
0000
0330
,
0202
0000
0000
0000
,
0000
0000
0000
0000
,
0000
0000
0000
0000
,
0303
0022
0000
0000
,
0000
0000
0000
0000
,
0000
0000
0000
0000
,
0000
0033
0220
0000
,
0000
0000
0000
0000
,
0000
0000
0000
0000
,
0000
0000
0330
2000
,
0010
0000
3100
0002
,
1000
1000
0013
0200
,
0000
1000
0310
2000
,
0000
3001
0010
0100
,
1000
0010
2000
0000
,
3001
0010
0001
0100
,
0001
0010
0001
1000
,
0000
0000
0010
0000
,
0000
0100
1001
0001
,
1000
1010
1100
0001
,
0010
0101
0001
0010
,
1000
0110
1000
1010
,
1000
1001
0001
0101
,
0100
0010
1000
0110
,
0010
0100
0001
0010
,
0002
1003
2000
0000
,
3020
0000
0031
0000
,
0000
1000
1100
0001
,
0010
0101
1000
0010
,
1000
0110
0001
1001
,
0100
1100
0010
0011
,
0001
0101
0010
0110
,
1000
1010
1000
1100
,
0010
0001
1001
0000
;

//---------------dance-single - ----------------
#NOTEDATA:;
#CHARTNAME:;
#STEPSTYPE:dance-single;
#DESCRIPTION:;
#CHARTSTYLE:;
#DIFFICULTY:Beginner;
#METER:3;
#RADARVALUES:0.219946,0.455160,0.089687,0.224217,0.000000,206.000000,194.000000,12.000000,30.000000,0.000000,0.000000,0.000000,0.000000,0.000000,0.219946,0.455160,0.089687,0.224217,0.000000,206.000000,194.000000,12.000000,30.000000,0.000000,0.000000,0.000000,0.000000,0.000000;
#CREDIT:;
#NOTES:
0000
0000
0000
0000
,
0000
0000
0000
0000
,
0000
0000
0001
1000
,
0100
0000
0010
0001
,
1000
0000
0000
0000
,
1000
0000
0000
0000
,
0100
0000
0000
0000
,
0010
0000
0001
0000
,
0001
0000
1000
0000
,
0001
0000
1000
0000
,
0100
0000
0010
0000
,
0001
0000
1000
0000
,
0010
1000
0100
0000
,
0100
0001
0100
0000
,
0010
0010
0100
0010
,
1000
0000
0001
0000
,
0002
0000
1003
0000
,
2000
0000
3100
0000
,
0010
0000
0100
0000
,
0010
0100
0010
1000
,
0001
0000
1000
0000
,
0010
0100
0010
0001
,
0100
0000
0001
0000
,
1000
0001
1000
0010
,
2000
3100
0002
0013
,
0100
0100
1000
0000
,
0010
0000
0001
0000
,
1000
0000
0100
0000
,
0001
1000
0010
1000
,
0200
0300
0002
0003
,
1000
0010
1000
0100
,
0020
0031
1000
0100
,
1000
0000
0001
0010
,
0002
0003
0100
0000
,
1000
0010
1000
0100
,
0010
0100
0001
0000
,
1000
0000
1000
0010
,
0001
0000
0100
0000
,
0101
0000
0001
0000
,
0010
1000
0100
1000
,
1001
0000
0010
0000
,
1000
0100
1000
0200
,
1300
0000
0010
0000
,
0001
1000
0010
0000
,
2000
0000
0000
0000
,
3002
0000
0000
0000
,
0023
0000
2030
0000
,
0000
0000
3200
0000
,
0302
0000
0000
0000
,
2003
0000
0000
0000
,
3020
0000
0230
0000
,
0000
0000
1300
0200
,
0000
0000
0000
0000
,
0000
0000
0000
0000
,
0000
0000
0000
0300
,
0002
0000
0000
0000
,
0000
0000
0000
0000
,
0000
0000
0000
0000
,
0003
0020
0000
0000
,
0000
0000
0000
0000
,
0000
0000
0000
0000
,
0000
0030
2000
0000
,
0000
0000
0000
0000
,
0000
0000
0000
0000
,
0000
0000
3000
0200
,
0000
0000
0000
0000
,
0000
0000
0000
0000
,
0000
0000
0000
0300
,
0020
0000
0000
0000
,
0000
0000
0000
0000
,
0000
0000
0000
0000
,
0030
0002
0000
0000
,
0000
0000
0000
0000
,
0000
0000
0000
0000
,
0000
0003
2000
0000
,
0000
0000
0000
0000
,
0000
0000
0000
0000
,
0000
0000
3000
0020
,
0000
0000
0030
0002
,
0000
0000
0003
0210
,
0000
0000
0300
2000
,
0000
3000
0001
1000
,
0010
0000
0100
1000
,
0100
0000
0001
0010
,
0100
0000
1000
0010
,
0000
0000
1000
0000
,
0000
0001
1001
1000
,
0010
0100
1000
1100
,
1000
1010
1000
0001
,
0010
0001
0100
0000
,
1000
0000
0010
0001
,
0010
1001
1000
0000
,
0010
0000
0100
0010
,
0001
1000
1000
0000
,
0010
0000
0100
0000
,
0000
0000
0001
1000
,
0010
1000
0100
0010
,
0001
0101
0100
0000
,
1000
0010
0110
0000
,
0100
1000
1010
0000
,
1001
0000
0001
0010
,
0100
0001
1001
0000
;

//---------------dance-single - ----------------
#NOTEDATA:;
#CHARTNAME:;
#STEPSTYPE:dance-single;
#DESCRIPTION:;
#CHARTSTYLE:;
#DIFFICULTY:Challenge;
#METER:10;
#RADARVALUES:0.650229,1.137901,0.313904,0.321378,0.358747,609.000000,567.000000,42.000000,43.000000,0.000000,1.000000,18.000000,0.000000,0.000000,0.650229,1.137901,0.313904,0.321378,0.358747,609.000000,567.000000,42.000000,43.000000,0.000000,1.000000,18.000000,0.000000,0.000000;
#CREDIT:;
#NOTES:
0000
0000
0000
0000
,
0000
0000
0000
0000
,
1000
0000
0000
0000
0100
0000
1000
0010
0000
0000
0001
0000
0010
0000
0000
0000
,
1000
0000
0000
0100
0001
0000
0100
0000
0010
0000
0000
0000
0000
0000
1000
0000
0000
0000
0000
0000
0100
0000
0000
0000
0010
0000
0000
0000
0001
0000
1000
0000
,
0100
0000
0000
1000
0000
0000
0010
0000
0000
0000
1000
0000
0000
0000
0001
0000
,
0010
0000
0000
0001
0000
0000
0100
0000
0000
0000
1000
0000
0000
0000
0010
0000
,
1000
0000
0000
0100
0000
0000
0001
0000
0000
0000
0010
0000
0000
0000
0100
0000
,
1000
0000
0000
0010
0000
0000
1000
0000
0001
0000
0100
0000
1000
0000
0100
0000
,
1000
0000
0000
0001
0000
0000
0010
0000
0000
0000
0100
0000
1000
0000
0100
0000
,
1000
0000
0000
0010
0001
0000
0001
0000
0100
0000
1000
0000
0100
0000
0010
0000
,
1000
0000
0000
0100
0000
0000
0001
0000
0000
0000
0010
0000
0000
0000
0001
0000
,
1000
0000
0000
0100
0000
0000
1000
0000
0020
0000
0000
0000
0030
0000
0000
0000
,
1001
0001
1000
0100
0001
0010
0100
0010
,
1000
0000
0100
0000
0001
1000
0001
0010
0001
0000
0100
0000
0020
0000
0000
0000
,
1030
0100
1000
0000
0010
0000
0100
0001
0010
0000
0001
0000
0010
0000
0000
0000
,
1000
0000
0200
0000
1300
0000
0010
0000
0002
0000
0013
0000
0010
0001
0100
0000
,
1000
0000
0100
0001
0100
0000
0010
0000
0000
0001
1000
0000
0100
0000
1000
0000
,
0100
0000
1000
0001
0010
0000
0001
0000
0100
0000
0010
0000
0100
0001
0100
0000
,
1010
0000
1000
0000
0001
0000
0010
0000
0000
0000
0010
0000
0100
0000
1000
0100
,
2000
0000
3100
0000
0002
0000
0013
0000
0110
0000
0000
0000
1000
0100
0001
0000
,
1000
1000
0010
0020
0130
1000
0100
0001
,
1000
0000
0000
0100
0010
0000
0100
0000
0000
1000
0000
0000
0002
0000
0000
0013
0000
0000
0001
0000
0000
0010
0000
0000
,
1000
0000
0000
0100
1000
0000
0001
0000
0000
0010
0000
0000
0102
0000
0000
0100
0000
0000
1003
0000
0000
0100
0000
0000
,
1000
0000
0000
0001
0100
0000
0001
0000
0000
1000
0000
0000
0100
0000
0000
0010
0000
0000
0002
0000
0000
0010
0000
0000
,
1003
0100
2000
3010
0001
0100
0010
1000
,
0100
1000
0001
0010
0100
0010
0001
1000
,
1000
0000
0000
0100
0001
0000
0000
0000
0000
0020
0000
0000
0030
0000
0000
0010
0000
0000
0100
0000
0000
0000
0000
0000
,
0001
0000
0000
0001
0010
0000
2000
0000
3000
0100
0000
0000
0000
0000
0000
0000
0000
0000
1001
0000
0000
0000
0000
0000
,
0110
0000
0010
0000
1000
0000
0001
0000
1000
0100
0000
0000
0010
0000
0000
0000
,
0101
0001
0010
0010
1000
0100
0002
0000
,
1003
0000
0100
1000
0010
0000
1000
0000
0001
0000
0010
0000
0200
0000
0301
0000
,
0010
1000
0001
0000
0100
0000
0010
1000
0001
0000
1000
0000
1002
0000
0000
0000
,
1003
0000
0000
0000
1000
0000
0100
0000
1000
0001
1000
0000
0110
0000
0000
0000
,
1000
0100
0100
0010
0010
0001
0011
0000
,
1000
0100
1000
0010
0001
0100
0011
0000
,
0001
0100
1000
0000
0010
0000
0001
0010
0100
0000
0000
0000
1000
0100
0001
0000
,
1000
0000
0001
0010
1000
0000
0100
0000
0010
0001
0100
0000
1100
0000
1000
0000
,
1000
0000
0010
0000
1000
0000
0001
1000
0010
0000
1000
0000
0100
0000
0001
0000
,
0010
0000
0001
0000
1000
0000
0100
0000
1000
0100
0001
0000
1001
0000
0010
0000
,
1000
0000
0010
0000
1000
0000
0100
0000
0010
0000
0001
0000
0010
1000
0200
0000
,
1300
0000
0001
0010
0000
0000
0001
0000
1000
0010
1000
0000
0001
0000
0001
0000
,
0110
0001
4040
3030
0001
1000
0100
1000
,
0010
0100
0000
0100
0001
0100
1000
1000
,
0010
0000
1001
0000
0000
0000
0101
0000
0000
0000
0000
0000
1000
0100
0001
0000
,
0020
0000
0000
0000
1000
0030
0100
0000
,
1000
0010
0000
1002
0000
0010
1003
0000
,
0200
0000
2300
0000
,
3010
0001
0000
0100
0000
0000
1000
0000
,
0010
1000
0001
1000
0010
0100
0002
0000
,
2003
0000
3010
1000
0100
1000
0001
0000
,
0020
0000
2030
0000
,
3000
0100
0000
0001
1000
0000
4004
0000
,
0000
0000
0000
0000
,
0000
0000
0000
0000
,
0000
0000
0000
3003
,
0440
0000
0000
0000
,
0000
0000
0000
0000
,
0000
0000
0000
0000
,
0330
4400
0000
0000
,
0000
0000
0000
0000
,
0000
0000
0000
0000
,
0000
3300
0044
0000
,
0000
0000
0000
0000
,
0000
0000
0000
0000
,
0000
0000
0033
0404
,
0000
0000
0000
0000
,
0000
0000
0000
0000
,
0000
0000
0000
0303
,
4040
0000
0000
0000
,
0000
0000
0000
0000
,
0000
0000
0000
0000
,
3030
4004
0000
0000
,
0000
0000
0000
0000
,
0000
0000
0000
0000
,
0000
3003
0440
0000
,
0000
0000
0000
0000
,
0000
0000
0000
0000
,
0000
0000
0000
0000
0000
0000
0000
0000
0330
0000
0000
0000
1001
0000
0000
0100
,
0000
0000
1000
0000
0000
0000
0100
0000
0000
0000
0010
0000
0001
0000
0000
0100
,
0000
0000
0010
0000
0000
0000
0001
0000
0000
0000
0001
0000
1000
0000
0000
0010
,
0000
0000
1000
0000
0000
0100
0100
0000
0010
0000
0100
0000
0001
0000
0000
0010
,
0000
0000
0100
0000
1000
0000
0000
0000
1001
0000
0000
0010
0100
0000
0100
0000
,
0001
0000
0010
0000
1000
0000
1000
0000
0100
0000
0000
0010
0001
0000
1000
0000
,
0010
0000
1000
0000
0100
0000
0001
0000
0010
0000
0000
0100
1000
0000
0010
0000
,
1000
0001
1000
0001
1000
0100
0010
0002
,
0000
0000
1003
0000
,
0000
0000
0000
0000
1001
0010
1000
0100
,
1000
0000
0010
0000
1001
0000
0100
0000
0100
0010
1000
0000
0001
0000
0100
1000
,
0000
0010
0100
0000
0010
0000
0001
1000
0200
0000
1300
0000
2000
0000
3010
0000
,
0020
0031
0102
0000
1003
0100
1000
0100
,
0010
0100
0002
0000
1003
0100
1000
0010
,
0100
0001
1001
0000
0010
1000
0100
1000
,
0001
0010
0001
1000
0100
1000
0010
1000
,
1001
0000
0001
0000
1010
0000
0000
0000
1000
0100
0010
0001
0100
0010
0001
0010
,
0100
1000
0001
0000
1000
0100
0010
0001
1001
0100
1000
0100
1000
0100
0001
0010
,
0002
0000
0023
0000
2030
0000
0010
0000
3101
0000
1000
0100
0010
0001
0100
0001
,
1000
0000
0010
0100
1000
0010
1000
0010
0001
0100
0010
1000
0002
0000
1003
0000
,
0100
1000
0010
0001
1001
0000
0010
0100
2000
0100
3010
0000
0010
0001
0010
0001
,
1000
0100
1000
0000
1002
0000
0013
0000
1000
0000
0100
0001
0010
1000
0010
0100
,
0001
0000
0001
0000
1000
0001
0100
1000
0001
0000
0010
0001
0100
0010
1000
0100
,
1000
0001
1000
0001
0100
0010
0100
0010
1000
0000
2200
0000
0000
3300
0000
0220
,
0000
0000
0330
0000
0022
0000
0000
0033
1001
0000
0000
0000
0000
0000
0000
0000
;

//---------------dance-single - ----------------
#NOTEDATA:;
#CHARTNAME:;
#STEPSTYPE:dance-single;
#DESCRIPTION:;
#CHARTSTYLE:;
#DIFFICULTY:Hard;
#METER:9;
#RADARVALUES:0.571219,0.834461,0.149478,0.194321,0.179374,535.000000,515.000000,20.000000,26.000000,0.000000,0.000000,0.000000,0.000000,0.000000,0.571219,0.834461,0.149478,0.194321,0.179374,535.000000,515.000000,20.000000,26.000000,0.000000,0.000000,0.000000,0.000000,0.000000;
#CREDIT:;
#NOTES:
// measure 0
0000
0000
0000
0000
,  // measure 1
0000
0000
0000
0000
,  // measure 2
1000
0000
0000
0000
0000
0000
1000
0001
0000
0000
0010
0000
1000
0000
0000
0000
,  // measure 3
1000
0000
0000
0000
0010
0000
1000
0001
0000
0000
0010
0000
1000
0000
0000
0000
,  // measure 4
1000
0000
0000
0100
0000
0000
1000
0000
0000
0000
0010
0000
0000
0000
0001
0000
,  // measure 5
1000
0000
0000
0010
0000
0000
1000
0000
0000
0000
0100
0000
0000
0000
0100
0000
,  // measure 6
0001
0000
0000
0010
0000
0000
0001
0000
0000
0000
1000
0000
0000
0000
0010
0000
,  // measure 7
1000
0000
0000
0100
0000
0000
0001
0000
0010
0000
0001
0000
1000
0000
0010
0000
,  // measure 8
1000
0000
0000
1000
0000
0000
0100
0000
1000
0000
0001
0000
0010
0000
0000
0000
,  // measure 9
0100
0000
0000
1000
0000
0000
0100
0000
0001
0000
0010
0000
0001
0000
0000
0000
,  // measure 10
1000
0000
0000
0010
0000
0000
1000
0000
0000
0000
0100
0000
0001
0000
0010
0000
,  // measure 11
0001
0000
0000
1000
0000
0000
0010
0000
2000
0000
0000
0000
0000
0000
0000
0000
,  // measure 12
3001
1000
0001
1000
0010
1000
0100
0001
,  // measure 13
0100
0001
0010
0001
1000
0100
1000
0000
,  // measure 14
1000
0010
1001
0010
0010
1000
0102
0000
,  // measure 15
0013
0000
1000
0000
0010
0000
1000
0000
0100
0000
1000
0000
0001
0010
0001
0000
,  // measure 16
1000
0000
0000
1000
0100
0000
1000
0000
0000
0000
1000
0000
0010
0000
1000
0000
,  // measure 17
0001
0000
0100
0001
0100
0000
1000
0000
0010
0000
0010
0000
1000
0000
0000
0000
,  // measure 18
0100
0000
1000
0001
0010
0000
0001
0000
0000
0000
1000
0000
0010
0000
1000
0000
,  // measure 19
0100
1000
0001
0010
1000
0000
1000
0000
,  // measure 20
0001
0000
0010
1000
0100
1000
0001
0010
,  // measure 21
0001
0100
0001
0010
0001
1000
0100
1000
,  // measure 22
1000
0010
1000
0001
0010
1000
0100
0000
,  // measure 23
1000
0000
0100
0000
0001
0000
0010
0000
0002
0000
0000
0000
1000
0003
0000
0000
,  // measure 24
0010
1000
0100
1000
0010
1000
0100
0001
,  // measure 25
0010
0000
0001
0010
0000
0000
0001
0000
1000
0000
0100
0000
1000
0000
0010
0000
,  // measure 26
1000
0100
0001
0010
0001
1000
0100
1000
,  // measure 27
0010
0000
0001
0000
0000
0001
1000
0000
0010
0000
0100
0000
1000
0001
1000
0000
,  // measure 28
0010
0000
1000
0000
0100
0000
1000
0000
0001
0010
0000
0000
1000
0000
0100
0000
,  // measure 29
1000
0001
1000
0010
1000
0001
0100
0000
,  // measure 30
0001
0010
0001
1000
0010
1000
0001
0100
,  // measure 31
1000
0001
0010
0000
1000
0000
0001
0100
1000
0000
0010
0000
1000
0001
1000
0000
,  // measure 32
0010
0000
0000
0000
0100
0000
1000
0000
0001
0010
0000
0000
0002
0000
0000
0000
,  // measure 33
1003
0000
0100
1000
0010
1000
0100
0000
,  // measure 34
1000
0001
0010
0001
1000
0010
2000
0000
,  // measure 35
3100
1000
0001
0000
0010
0000
0001
1000
0010
0000
1000
0000
0100
0001
0100
0000
,  // measure 36
1000
0000
0000
0000
1010
0000
0000
0000
1000
0010
0100
0000
0200
0000
0301
0000
,  // measure 37
1000
0010
0000
1000
0100
0001
0010
0001
,  // measure 38
1000
0100
0010
0000
1000
0100
1000
0001
,  // measure 39
0010
0001
1000
0010
1000
0100
0001
0000
,  // measure 40
1000
0000
0000
0000
0010
0000
1000
0000
0100
1000
0001
0000
0010
0000
0001
0000
,  // measure 41
1000
0010
1000
0100
0001
0010
0001
0000
,  // measure 42
1000
0000
0100
1000
0010
1000
0001
1000
,  // measure 43
0010
0000
1000
0000
0000
0000
0002
0000
0000
0000
0000
0000
1003
0100
1000
0000
,  // measure 44
0100
0000
0000
0000
0000
0000
0000
0000
1000
0010
0000
0000
0010
0000
0000
0000
,  // measure 45
1000
0000
0001
0010
0000
0001
1000
0000
,  // measure 46
0020
0000
0000
0000
1030
0000
0000
1000
,  // measure 47
0000
0100
0000
0010
0000
0000
0001
0000
,  // measure 48
1000
0000
0000
0000
1000
0010
0001
0000
,  // measure 49
0100
0000
1000
0100
1000
0001
0010
0000
,  // measure 50
1000
0000
0010
1000
0000
0001
0010
0000
,  // measure 51
0000
0100
1000
0010
1000
0000
2002
0000
,  // measure 52
0000
0000
0000
0000
,  // measure 53
0000
0000
0000
0000
,  // measure 54
0000
0000
0000
3003
,  // measure 55
0220
0000
0000
0000
,  // measure 56
0000
0000
0000
0000
,  // measure 57
0000
0000
0000
0000
,  // measure 58
0330
2020
0000
0000
,  // measure 59
0000
0000
0000
0000
,  // measure 60
0000
0000
0000
0000
,  // measure 61
0000
3030
0202
0000
,  // measure 62
0000
0000
0000
0000
,  // measure 63
0000
0000
0000
0000
,  // measure 64
0000
0000
0303
2200
,  // measure 65
0000
0000
0000
0000
,  // measure 66
0000
0000
0000
0000
,  // measure 67
0000
0000
0000
3300
,  // measure 68
0022
0000
0000
0000
,  // measure 69
0000
0000
0000
0000
,  // measure 70
0000
0000
0000
0000
,  // measure 71
0033
2002
0000
0000
,  // measure 72
0000
0000
0000
0000
,  // measure 73
0000
0000
0000
0000
,  // measure 74
0000
3003
0220
0000
,  // measure 75
0000
0000
0000
0000
,  // measure 76
0000
0000
0000
0000
,  // measure 77
0000
0000
0000
0000
0000
0000
0000
0000
0330
0000
0000
0000
1000
0000
0000
1000
,  // measure 78
0000
0000
1000
0000
0010
0000
0001
0000
0000
0000
0001
0000
1000
0000
0000
1000
,  // measure 79
0000
0000
0010
0000
0000
0000
0100
0000
0000
0000
0100
0000
0001
0000
0000
0010
,  // measure 80
0000
0000
0001
0000
1000
0000
1000
0000
0010
0000
0010
0000
1000
0000
0000
0010
,  // measure 81
0000
1000
0001
0000
0010
1000
0100
1000
,  // measure 82
0000
0000
0001
0000
0010
0000
0000
0000
1000
0000
1000
0100
0000
0000
0001
0000
,  // measure 83
0010
0000
0001
0000
1000
0000
0000
0000
0010
0000
1000
0010
1000
0000
0001
0000
,  // measure 84
0100
1000
0100
0000
0001
0010
0001
2000
,  // measure 85
0000
0000
0000
0000
3001
0000
1000
0010
,  // measure 86
1000
0100
0001
0010
1001
0000
0010
1000
,  // measure 87
0100
0000
1000
0000
0011
0000
0000
0000
1000
0000
0010
0000
1000
0000
0100
0001
,  // measure 88
0100
1000
0010
1000
0100
1000
0001
0010
,  // measure 89
0001
1000
1001
0000
1000
0010
1000
0100
,  // measure 90
0001
0010
0011
0000
1000
0100
1000
0010
,  // measure 91
1000
0001
1000
0000
1000
0100
0001
0010
,  // measure 92
0001
1000
0010
1000
0100
0001
0010
0001
,  // measure 93
1000
0000
1010
0000
1000
0100
1000
0001
,  // measure 94
1000
0000
0010
0000
1000
0000
0001
0000
1000
0100
1000
0001
0010
0001
0010
0000
,  // measure 95
1000
0000
0100
0000
0002
0000
0000
0000
0013
0000
1000
0001
1000
0000
0100
0000
,  // measure 96
0100
0000
0001
1000
0010
0000
1000
0000
1000
0000
0010
0100
1000
0000
0001
0000
,  // measure 97
0001
0000
0100
0001
1000
0000
0010
0000
1000
0000
0010
0000
1000
0000
0100
0000
,  // measure 98
1001
0000
0010
0000
0001
0000
1000
0000
0010
0000
1000
0000
0010
1000
0100
0000
,  // measure 99
0001
0000
0010
0000
0001
0010
0001
0000
0100
1000
0100
0000
1000
0010
1000
0000
,  // measure 100
0001
0000
1000
0010
1000
0000
0010
0000
0100
0000
0001
0000
0010
0000
0101
0000
,  // measure 101
0000
1001
1010
0000
;
