#TITLE:Roll With Me;
#SUBTITLE:;
#ARTIST:Charli XCX;
#TITLETRANSLIT:Roll With Me;
#SUBTITLETRANSLIT:;
#ARTISTTRANSLIT:Charli XCX;
#GENRE:;
#CREDIT:;
#BANNER:xcxroll.png;
#BACKGROUND:Screen Shot 2017-07-16 at 1.40.50 PM.png;
#LYRICSPATH:;
#CDTITLE:;
#MUSIC:Roll With Me.mp3;
#OFFSET:0.000000;
#SAMPLESTART:41.716000;
#SAMPLELENGTH:13.912000;
#SELECTABLE:YES;
#BPMS:0.000000=138.000000
,224.000000=69.000000
;
#STOPS:
;
#BGCHANGES:;
#KEYSOUNDS:;
#ATTACKS:;
#MENUCOLOR:#FFFFFF;

//---------------dance-single - ----------------
#NOTES:
     dance-single:
     :
     Easy:
     4:
     0.274043,0.324083,0.194365,0.177464,0.000000,227.000000,204.000000,23.000000,21.000000,0.000000,0.000000,0.274043,0.324083,0.194365,0.177464,0.000000,227.000000,204.000000,23.000000,21.000000,0.000000,0.000000:
0000
0001
0000
0010
,
0000
0100
0000
1000
,
0000
0010
0000
0100
,
0000
0001
1000
0001
,
2000
3010
0002
0103
,
2000
3100
0020
0031
,
0002
0013
0002
0103
,
2000
3100
2000
3010
,
1001
0000
0100
0010
,
1000
0010
1000
0000
,
0100
0001
1000
1000
,
0010
0100
0010
0001
,
1010
0000
0100
0100
,
0010
0010
0010
1000
,
0100
1000
0001
0000
,
0010
0100
1000
0100
,
1001
0010
1000
0010
,
0001
0000
1000
0000
,
0110
0110
0010
0100
,
1000
0000
0100
0000
,
1001
1010
0001
1000
,
0010
0000
1000
0100
,
0100
0010
0010
0000
,
0100
1000
0100
0010
,
0001
0100
1000
0010
,
0100
0100
0100
0001
,
0010
1000
0001
1000
,
1000
0110
1000
0010
,
1001
0000
1000
0010
,
0100
0010
0100
0000
,
0001
1000
0001
0000
,
0100
0010
0100
0100
,
1000
0000
0100
0010
,
0001
0000
0001
0010
,
1000
0100
0010
1000
,
0001
0100
0010
0000
,
1000
0100
0001
1000
,
0010
0100
0010
0010
,
0001
0010
0100
1000
,
0100
0010
0100
0110
,
1001
0010
0100
2000
,
0100
0000
0010
3000
0002
0000
0100
0003
,
0200
0000
1000
0300
0010
0000
0200
0000
,
2300
0100
0010
3001
,
0200
0000
0001
0300
0010
0000
2000
0000
,
0100
0000
0010
3000
0002
0000
1000
0003
,
0200
0000
0000
0000
,
0000
0000
0000
0000
0020
0000
0000
0330
,
1001
0010
0100
1010
,
0100
0010
0101
1000
,
0110
0010
0100
1010
,
0001
0010
1010
0001
,
1001
0001
1000
0101
,
0010
0100
1100
0001
,
0020
0000
0000
0000
,
0000
0000
0000
0000
2000
3000
0200
0330
,
1001
0000
0000
0010
0000
1100
0010
0000
,
0001
0000
1000
0010
0000
0100
1000
0000
,
1010
0000
0000
0001
0000
1000
0010
0000
,
0100
0000
0000
0000
;

//---------------dance-single - ----------------
#NOTES:
     dance-single:
     :
     Medium:
     6:
     0.359757,0.481687,0.076056,0.000000,0.038028,298.000000,289.000000,9.000000,0.000000,0.000000,0.000000,0.359757,0.481687,0.076056,0.000000,0.038028,298.000000,289.000000,9.000000,0.000000,0.000000,0.000000:
1000
0010
1000
0100
,
0001
0000
1000
0000
0010
1000
0010
0000
,
1000
0000
0001
0000
0010
1000
0100
0000
,
0010
0010
0001
1000
,
0010
0000
0100
0000
1000
0100
1000
0000
,
0010
0001
1000
0001
,
0010
0000
1000
0100
1000
0000
0010
0000
,
0001
1000
0010
0100
,
1001
0000
0010
1000
0010
0000
0100
0000
,
1000
0000
0100
0000
0010
0000
0001
1000
,
0000
0010
0100
1000
,
0100
1000
0100
1000
0010
0000
0001
0000
,
1000
0000
0001
0010
1000
0000
0100
0000
,
0010
0000
0001
0000
1000
0000
0010
1000
,
1000
0010
0000
0001
1000
0000
0010
0000
,
0100
1000
0010
0001
,
1001
0000
0010
0000
1000
0100
1000
0000
,
0010
0001
1000
0010
,
0100
0000
1000
0010
1000
0001
1000
0000
,
0010
1000
0100
0010
,
1001
0010
1000
0100
,
0010
0100
0001
0000
1000
0000
0010
0000
,
0100
1001
0010
1000
,
0100
0010
0001
1000
,
0001
0010
1000
0001
,
1000
0000
0100
0000
0010
0000
0001
1000
,
1000
0010
0001
1000
,
0010
1000
0010
1000
0010
0000
0001
0000
,
1000
0000
0010
1000
0100
0000
0001
0000
,
0010
1000
0100
0001
,
1000
0000
0010
1000
0010
1000
0001
0000
,
1000
0010
0100
1000
,
0010
0001
1000
0001
,
0010
0100
1000
0010
,
1000
0001
0010
1000
,
0001
1000
0001
1000
0001
1000
0001
0000
,
1000
0010
0100
1000
,
0010
1000
0001
1000
,
0100
0100
0010
0001
,
1000
0010
0100
1000
,
0010
0000
0001
0000
1000
0000
0010
1000
,
0010
0001
1000
0010
,
1000
0000
0100
1000
0001
0000
0010
0000
,
1000
0010
1000
0000
0001
0000
0010
0000
,
1000
0000
0100
1000
0100
0001
0010
0000
,
1000
0001
1000
0000
0010
0000
0100
0000
,
1000
0000
0001
0010
1000
0010
1000
0000
,
0001
1000
0000
0000
0100
0000
0010
0000
,
1001
0000
0010
0000
1000
0000
0010
1000
,
0010
1000
0001
0000
0010
0000
1000
0000
,
0100
0000
1000
0000
0001
0010
0001
0010
,
0001
1000
0010
0100
,
0001
0000
1000
0001
1000
0001
1000
0001
,
1000
0010
0100
1000
,
1010
0000
0001
0010
,
0000
0000
1000
0010
,
1001
0000
0000
0000
0000
0000
0010
0000
0000
0100
1000
0000
0010
0000
0000
0000
,
1001
0000
0000
0010
1000
0000
0100
0000
0000
0010
0001
0000
1000
0000
0000
0000
,
1010
0000
0000
0000
0000
0000
0100
0000
0000
0001
0010
0000
1000
0000
0000
0000
,
0100
0000
0000
0010
1000
0000
0100
0000
0001
0010
1000
0010
0001
1000
0001
1000
,
0001
0000
0000
0000
;

//---------------dance-single - ----------------
#NOTES:
     dance-single:
     :
     Hard:
     8:
     0.523941,0.861967,0.185914,0.211266,0.384505,434.000000,412.000000,22.000000,25.000000,0.000000,0.000000,0.523941,0.861967,0.185914,0.211266,0.384505,434.000000,412.000000,22.000000,25.000000,0.000000,0.000000:
// measure 0
1000
0000
0000
0000
0010
0000
0000
0000
1000
0000
0000
0001
0000
0000
0100
0000
,  // measure 1
0000
1000
0000
0000
0010
0000
0000
0000
0001
0000
0000
1000
0000
0000
0010
0000
,  // measure 2
1000
0000
0000
0000
0100
0000
0001
0100
0001
0000
0000
0010
0000
0000
1000
0000
,  // measure 3
0000
0001
0000
0000
0010
0000
0000
0000
1000
0000
0000
0100
0000
0000
0010
0000
,  // measure 4
0001
0000
0000
0000
1000
0000
0000
0000
0010
0000
0000
1000
0000
0000
0001
0000
,  // measure 5
0000
0100
0000
0000
1000
0000
0000
0000
0010
0000
0000
1000
0000
0000
0010
0000
,  // measure 6
0001
0000
0000
0000
1000
0000
0100
1000
0100
0000
0000
0001
0000
0000
1000
0000
,  // measure 7
0000
0010
0000
0000
1000
0000
0000
0000
0001
0000
0000
1000
0000
0000
0010
0000
,  // measure 8
1001
0000
0000
0000
0010
0000
0000
0000
0100
0000
0000
1000
0000
0000
0010
0000
,  // measure 9
0000
0001
0000
0000
1000
0000
0000
0000
0010
0000
0000
1000
0000
0000
0100
0000
,  // measure 10
0001
0000
0000
0000
1000
0000
0010
1000
0001
0000
0000
1000
0000
0000
0010
0000
,  // measure 11
0000
0100
0000
0000
1000
0000
0000
0000
0010
0000
0000
0000
0001
0000
0000
0000
,  // measure 12
1000
0000
0000
0000
0001
0000
0010
1000
0010
0000
0000
0001
0000
0000
1000
0000
,  // measure 13
0000
0001
0000
0000
1000
0000
0000
0000
0010
0000
0000
0000
0100
0000
1000
0000
,  // measure 14
0000
0010
0001
1000
,  // measure 15
0001
0010
1000
0010
0001
0000
0010
0000
,  // measure 16
1000
0000
0001
0000
0010
1000
0100
0001
,  // measure 17
0010
0000
1000
0000
0010
0000
0001
0000
1000
0001
0000
0000
1000
0000
0000
0000
,  // measure 18
0010
0100
1000
0110
,  // measure 19
0001
0010
1000
0010
1000
0001
1000
0010
,  // measure 20
0001
0000
1000
0000
0100
0001
0010
1000
,  // measure 21
0010
1000
0001
0100
1000
0100
0001
0000
,  // measure 22
1000
0010
1000
0001
,  // measure 23
0010
0100
0000
0100
0010
0000
0001
0000
,  // measure 24
1000
0000
0000
0000
0001
1000
0001
1000
0010
0000
1000
0000
0100
0000
0000
0000
,  // measure 25
0001
1000
0010
1000
0001
0000
1000
0000
0100
0000
0000
0000
0001
0000
1000
0000
,  // measure 26
0010
0000
0000
0000
0001
1000
0001
1000
0001
0000
0010
0000
1000
0000
0000
0000
,  // measure 27
1000
0001
1000
0001
1000
0000
0001
0000
1000
0000
0000
0000
0010
0100
0000
0000
,  // measure 28
1001
0000
0000
0000
0001
1000
0100
1000
0001
0000
1000
0000
0010
0000
0000
0000
,  // measure 29
1000
0001
1000
0001
0100
0000
0010
0000
0100
0000
0000
0000
1000
0000
0010
0000
,  // measure 30
1000
0000
0000
0000
0001
0100
0001
1000
0010
0000
1000
0000
0100
0000
0000
0000
,  // measure 31
0001
1000
0100
0010
1000
0000
0001
0000
1000
0000
0000
0000
0001
0000
0000
0000
,  // measure 32
1000
0000
0000
0000
0010
0000
1000
0000
0010
0000
0001
1000
0010
0000
0100
0000
,  // measure 33
1000
0100
1000
0000
0100
0000
1000
0000
0010
0000
0001
0000
0001
0010
0001
0010
,  // measure 34
0001
1000
0000
0000
1000
0000
0100
0000
0010
0000
0100
0000
0010
0000
0100
0000
,  // measure 35
0000
0010
0000
0000
1000
0000
0100
0000
0010
0000
0000
0100
0010
0000
0001
0000
,  // measure 36
1000
0000
0000
0000
1000
0010
0000
0100
0010
0000
0000
1000
0001
0000
0100
0000
,  // measure 37
0010
0100
0000
0000
0100
0000
0010
0000
1000
0000
0100
0010
0100
0000
0010
0000
,  // measure 38
1000
0000
0000
0000
1000
0100
1000
0100
0020
0000
0030
0002
0000
0000
0003
0000
,  // measure 39
1000
0100
0000
0000
0010
0000
0000
0000
0010
0000
0000
1000
0000
0000
0010
0000
,  // measure 40
1001
0000
0000
0000
0110
0000
0000
0000
1001
0000
0000
0000
0001
1000
0001
2000
,  // measure 41
3001
0100
0020
1000
0230
0000
0002
0303
,  // measure 42
2001
0000
0000
0000
0010
0000
0000
0000
0001
0000
3000
0000
0100
0001
0100
0002
,  // measure 43
1003
0000
0000
0000
0100
0000
0001
0000
0100
0001
0100
0000
0001
0000
1000
0000
,  // measure 44
1001
0000
0000
0000
0010
0000
0100
0000
0001
0000
0010
0000
1001
0100
1000
0100
,  // measure 45
1000
0000
0100
0000
0010
0000
0001
0000
0010
0100
0010
0000
1000
0000
0001
0000
,  // measure 46
2002
0000
0000
3000
0200
0300
0020
0000
,  // measure 47
0000
0000
0000
0030
2000
3000
0200
0303
,  // measure 48
1001
0000
0000
0000
0110
0000
0000
0000
1001
0000
0000
0000
0001
1000
0001
0100
,  // measure 49
0010
0000
1001
0001
1001
1000
0110
0000
,  // measure 50
1001
0000
0000
0000
0110
0000
1000
0000
1100
0000
0001
0000
1000
0100
1000
0001
,  // measure 51
1000
0010
0110
0000
0001
0000
0110
0000
,  // measure 52
1000
0000
0000
0000
0100
0000
0000
0000
0001
0000
1000
0000
0001
1000
0001
1000
,  // measure 53
0001
0010
1000
0100
0001
1000
1000
0000
,  // measure 54
0002
0000
0100
1003
0200
1300
0020
0030
,  // measure 55
0100
0010
0100
0010
0002
0203
0020
0330
,  // measure 56
1001
0000
0000
0000
0100
0000
0010
0000
0100
0000
0010
0000
1000
0000
0000
0000
0010
0000
0000
0000
0000
0000
0000
0000
1000
0000
0010
1000
0010
1000
0010
1000
,  // measure 57
0001
0000
0000
0000
0010
0000
0200
0000
0320
0000
0000
0000
0032
0000
0000
0000
1003
0000
0100
0000
0010
0000
0000
0000
0001
0000
0010
0000
0100
1000
0100
1000
,  // measure 58
0001
0000
0000
0000
0010
0000
0100
0000
1000
0000
0010
1000
0010
1000
0010
1000
0001
0000
0000
0000
0100
0000
0000
0000
2000
0000
0000
0000
0000
0000
0000
0000
,  // measure 59
0002
0000
0000
0000
,  // measure 60
3003
0000
0000
0000
;
