#TITLE:Rewind;
#SUBTITLE:;
#ARTIST:Kelela;
#TITLETRANSLIT:Rewind;
#SUBTITLETRANSLIT:;
#ARTISTTRANSLIT:;
#GENRE:;
#CREDIT:;
#BANNER:rewind.png;
#BACKGROUND:Rewind-bg.png;
#LYRICSPATH:;
#CDTITLE:;
#MUSIC:Rewind (DDR).mp3;
#OFFSET:-3.660340;
#SAMPLESTART:49.114883;
#SAMPLELENGTH:12.000000;
#SELECTABLE:YES;
#BPMS:0.000000=132.000000
;
#STOPS:
;
#BGCHANGES:;
#KEYSOUNDS:;
#ATTACKS:;

//---------------dance-single - ----------------
#NOTES:
     dance-single:
     :
     Beginner:
     2:
     0.162141,0.223845,0.000000,0.378329,0.000000,162.000000,162.000000,0.000000,54.000000,0.000000,0.000000,0.162141,0.223845,0.000000,0.378329,0.000000,162.000000,162.000000,0.000000,54.000000,0.000000,0.000000:
1000
0000
0000
0000
,
0000
0000
0000
0000
,
1000
0000
0010
0000
,
0001
0000
0100
0000
,
1000
0000
0000
0001
,
0010
0000
1000
0000
,
0100
0000
1000
0000
,
0010
0000
1000
0100
,
0001
0000
0010
0000
,
0100
0000
0001
1000
,
0100
0000
0020
0030
,
0001
0000
2000
3000
,
0100
0000
0020
1030
,
0100
0000
0002
0013
,
0010
0000
1000
0000
,
0200
0302
0000
0003
,
1000
0200
0300
1000
,
0001
0000
0000
0000
,
1000
0100
0000
0001
,
0010
0100
0000
0010
,
0001
1000
0000
1000
,
0200
1300
0002
0013
,
0100
1000
0000
0010
,
0010
0100
0000
0100
,
2000
3000
0002
0003
,
0020
0030
2000
3200
,
0302
0003
0000
0000
,
0010
1000
0000
0100
,
0002
0003
2000
3000
,
0200
0300
0010
0100
,
0020
0030
0000
0000
,
1000
1000
0000
0001
,
0001
0010
0100
0010
,
0002
0003
2000
3000
,
0100
0000
0001
0000
,
0010
0000
1000
0000
,
0200
0300
1000
0000
,
0010
0001
0000
0000
,
2000
0000
3010
0001
,
0010
0000
0001
0100
,
0002
0003
0000
0010
,
1000
0100
0000
1000
,
0002
0003
1000
0000
,
0100
0010
0200
0300
,
1000
0000
0020
0030
,
0100
0010
0100
0001
,
2000
3000
0001
0010
,
0002
0003
0100
0010
,
0200
0000
0000
0300
,
0020
0000
0000
0030
,
1000
0001
0010
0100
,
0020
0030
0001
1000
,
0200
0300
1000
1000
,
2000
3000
0000
0000
,
0002
0000
0000
0000
,
2003
0000
0000
0000
,
3020
0000
0000
0000
,
0230
0000
0000
0000
,
2300
0000
0000
0000
,
3200
0000
0000
0300
,
2000
0000
0000
0000
,
3020
0000
0000
1030
,
0002
0003
2000
3000
,
0100
0020
0030
0100
,
0001
1000
0200
1300
,
0020
0030
0002
0003
,
2000
0000
3000
0100
,
0020
0030
0002
0003
,
1000
0100
2000
3010
,
0002
0103
1000
0010
,
0002
0000
0000
0000
,
0003
0000
0000
0000
;

//---------------dance-single - ----------------
#NOTES:
     dance-single:
     :
     Easy:
     3:
     0.242210,0.318777,0.147128,0.462402,0.000000,242.000000,221.000000,21.000000,66.000000,0.000000,0.000000,0.242210,0.318777,0.147128,0.462402,0.000000,242.000000,221.000000,21.000000,66.000000,0.000000,0.000000:
0000
0000
0000
0000
,
0000
0000
0000
0000
,
1000
0100
1000
0010
,
0002
0103
2000
3100
,
2000
3000
0010
0001
,
0200
1300
0010
0002
,
1003
0100
1000
0010
,
0002
0103
0000
0110
,
2000
0000
3002
0003
,
0010
0100
0000
1000
,
0200
0000
0302
0000
,
1003
0010
0100
1000
,
0002
0003
0200
0300
,
1000
0010
0010
0100
,
2000
3000
0100
0001
,
0020
0000
0031
0010
,
2000
0000
3100
1000
,
0020
0030
1000
0001
,
0002
1003
2000
3010
,
0200
1300
0010
0100
,
0002
0013
2000
3010
,
0200
0310
0010
0100
,
2000
3100
2000
3100
,
0010
0010
0100
0001
,
0002
0013
0020
0130
,
1000
0100
0010
1001
,
1001
0010
0100
1000
,
0200
1300
0020
0031
,
0001
1000
0200
0300
,
0020
0031
1000
1010
,
1100
0002
0013
0100
,
0020
0030
0100
0001
,
0020
0031
0002
0103
,
0010
1000
0010
0110
,
1001
0001
0000
0011
,
0100
1100
0000
1010
,
0002
0103
0000
0010
,
2000
0000
0000
3000
,
0001
0010
0100
0010
,
0002
1003
2000
3100
,
0200
0000
1300
0000
,
0001
0000
0000
1001
,
0020
0130
1000
0100
,
0020
1030
0002
0103
,
0002
0000
0023
0000
,
1030
1000
0000
0100
,
0002
0013
2000
3010
,
0100
0001
0001
1000
,
0000
1010
0000
0101
,
0002
2000
0000
3003
,
0100
1000
0010
0001
,
0200
0300
1000
0010
,
0002
0103
2000
0000
,
3020
0000
0000
0031
,
1000
0000
0000
0000
,
0200
0000
0302
0000
,
0023
0000
0030
1000
,
0200
0000
2300
3000
,
0020
1030
0100
1000
,
0200
0300
0010
0010
,
0002
0003
0100
0100
,
1000
0000
0011
1100
,
1010
0000
0002
0003
,
0100
1000
0000
1010
,
0002
0103
0001
0010
,
0101
0100
1010
1010
,
0200
0300
0001
0010
,
0002
0103
2000
3100
,
1000
0010
0200
0301
,
1000
0100
0010
0001
,
1001
0000
0000
0000
;

//---------------dance-single - ----------------
#NOTES:
     dance-single:
     :
     Medium:
     6:
     0.330287,0.367820,0.084073,0.490426,0.000000,330.000000,318.000000,12.000000,70.000000,0.000000,0.000000,0.330287,0.367820,0.084073,0.490426,0.000000,330.000000,318.000000,12.000000,70.000000,0.000000,0.000000:
0000
0000
0000
0000
,
0000
0000
0000
0000
,
1000
0100
0002
0013
,
1000
0000
0100
2000
0000
0000
3001
0000
,
0020
0030
1000
0100
,
1000
0000
0001
0010
0000
0000
1100
0000
,
2000
3010
0002
0103
,
0002
0000
0013
0000
0002
0000
0103
2000
,
0100
3010
1000
0001
,
0020
0030
1000
0100
0000
0001
1000
0000
,
1000
0010
0200
0301
,
0010
0000
0001
2000
0000
3100
1000
0002
,
0000
0003
1000
0000
0010
0000
0100
0000
,
1000
0100
0001
0020
0030
0000
1000
1000
,
0002
0000
0000
0003
0020
0000
0030
0100
,
1000
0100
1000
0002
0000
0013
1000
0200
,
0000
0301
0010
0002
0000
0003
1000
0200
,
0000
0300
0000
0000
0010
0001
0010
0001
,
1000
0000
0001
1000
0000
0100
1000
0010
,
0001
0000
1000
0001
1000
0100
0110
0001
,
0000
1000
0100
0002
0000
0013
1000
0200
,
0000
0000
0300
0001
0010
0001
1000
0100
,
1000
1000
0010
2000
3000
0010
0010
0200
,
0000
0300
0000
0000
0001
1000
0001
0020
,
0000
0130
1000
0200
0000
0301
1000
0002
,
0000
0003
0010
0100
1000
0000
1001
0000
,
2002
0000
3003
0000
0010
0000
0100
2000
,
0000
3200
0000
0000
0300
0000
0001
0010
,
1000
0100
1000
0020
0000
0030
0100
0020
,
0000
0030
0100
0100
0001
0000
0001
0000
,
0011
0000
0000
0000
0100
0000
1000
0200
,
0000
0310
0000
0000
0000
0000
1000
0010
,
0100
0010
1000
1000
0000
0000
0100
2000
,
0000
3000
0001
1000
0002
0000
0013
0000
,
0100
0000
1000
0200
0000
0000
0301
0000
,
1000
0000
0010
2000
0000
0000
3001
0000
,
0002
0000
0013
0002
0000
0003
1000
0000
,
0100
0000
0000
1001
,
0001
0010
0100
1000
,
0200
0301
1000
0010
,
0200
0000
0300
1000
0001
0000
1000
0000
,
0100
0000
0000
0000
0000
1000
0001
1000
,
0010
0100
1000
0200
,
0301
0000
1000
0000
0002
0003
0010
2000
,
3100
0000
0001
2000
3000
0100
0001
0000
,
1000
0000
0010
1000
0000
0001
0010
0000
,
1000
0000
0100
0000
1000
0000
0020
0030
,
0100
0000
0001
0010
0001
0000
2000
0000
,
0000
3200
0000
0301
,
0020
0000
0030
1001
,
1000
0100
0100
1000
0010
0000
0001
0000
,
0100
0010
0001
2000
0000
3020
0030
0200
,
0300
1000
0001
0020
0000
1030
0001
0002
,
0000
0000
0003
0000
1000
0100
1000
0001
,
0010
1000
0100
2000
0000
3001
0010
0002
,
0000
0000
0003
0000
1000
0100
1000
0010
,
0000
0100
0001
1000
0000
0001
0010
0002
,
0003
0000
0000
0000
0100
0010
0100
0010
,
0000
0010
0100
0100
0000
0010
0100
2000
,
3000
0000
0000
0001
0010
0001
1000
0002
,
0000
1003
0100
0020
0030
1000
0001
0020
,
0000
0030
1000
0100
1000
0000
1001
0000
,
1001
0000
0010
0001
0100
0000
0001
2000
,
0000
3020
0000
0000
0030
0000
0100
1000
,
0100
0010
0001
0020
0000
0030
0100
2000
,
0000
3000
0010
1000
0100
0000
0110
0000
,
1001
0000
0001
0010
0000
0000
0001
0200
,
0000
1300
0100
0020
0030
0001
1000
0001
,
1000
0100
0010
0200
0300
1000
0000
0010
,
0100
0000
0001
0010
0002
0000
2003
3000
,
1100
0000
0000
0000
;

//---------------dance-single - ----------------
#NOTES:
     dance-single:
     :
     Hard:
     7:
     0.408355,0.497432,0.119103,0.504438,0.227698,408.000000,391.000000,17.000000,72.000000,0.000000,1.000000,0.408355,0.497432,0.119103,0.504438,0.227698,408.000000,391.000000,17.000000,72.000000,0.000000,1.000000:
// measure 0
0000
0000
0000
0000
,  // measure 1
0000
0000
0000
0000
,  // measure 2
2000
0000
3100
0020
0100
0030
0001
0000
,  // measure 3
1000
0000
0000
1000
0100
0000
1000
0000
0000
0000
0000
0000
0011
0000
0000
0000
,  // measure 4
1000
0000
0002
1003
0000
0000
0010
0000
,  // measure 5
0100
0000
0000
0010
0001
0000
0100
0000
0000
0000
0000
0000
1000
0000
0000
0000
,  // measure 6
0200
0000
0301
2000
0001
3000
0010
0000
,  // measure 7
0100
0000
0000
0000
0000
0000
0000
0000
0000
0100
0000
0000
0001
0000
0000
0000
0000
0000
0100
0000
0000
0000
0000
0000
0000
0000
0000
0000
0000
0000
0000
0000
0000
0000
0000
0000
1000
0000
0000
0000
0000
0000
0000
0000
0010
0000
0000
0000
,  // measure 8
0100
0000
0020
0130
0000
0000
1000
0000
,  // measure 9
0001
0000
0000
1000
0010
0000
0001
0000
0000
0001
0100
0000
0101
0000
0000
0000
,  // measure 10
0002
0000
0000
1000
0013
0000
0200
0000
0010
0000
0300
0000
1000
0000
0000
0000
,  // measure 11
0001
0000
0000
0001
0010
0000
0001
0000
0000
0000
0000
0000
1100
0000
0000
0000
,  // measure 12
0001
0000
0001
0010
2000
0000
3001
0000
0000
0000
0020
0000
0130
0000
0000
0000
,  // measure 13
0010
0000
0000
0100
1000
0000
0010
0000
0000
0000
0000
0000
0001
0100
0001
0000
,  // measure 14
0000
0100
1000
0100
0002
0000
0013
1000
,  // measure 15
0100
0001
0010
0002
0000
1003
0100
2000
,  // measure 16
0000
0010
3001
0002
0000
0000
0013
0200
,  // measure 17
0000
0000
0000
0300
1000
0100
1000
0001
,  // measure 18
0110
0000
0000
0010
0000
0000
1000
0000
0000
0000
0100
0000
1000
0000
0001
0010
,  // measure 19
0001
0000
0000
1000
0000
0000
0100
0000
0000
0000
1000
0000
0010
0000
0000
0000
,  // measure 20
0001
0000
0000
0010
1000
0000
0200
0000
0000
0000
1300
0000
0100
0000
0002
0000
,  // measure 21
0003
0000
0000
0001
0000
0000
1000
0000
0000
0000
0020
0000
0031
0000
0000
0000
,  // measure 22
1001
0000
0000
0001
0000
0000
0010
0000
0000
0000
1000
0000
0010
0000
0100
0001
,  // measure 23
0100
0000
0000
0010
0000
0000
1000
0000
0000
0000
0010
0000
0001
0000
0000
0000
,  // measure 24
0100
0000
0000
0001
0010
0000
2000
0000
0000
0000
3010
0000
1000
0000
0100
0000
,  // measure 25
1000
0100
0000
0010
0001
0010
0001
0000
0100
0000
0100
0001
1000
0000
0000
0000
,  // measure 26
1001
0200
1300
0200
0301
0020
1030
0002
,  // measure 27
0000
0000
2003
0000
3100
0000
0001
0000
0001
0000
0000
0011
0000
0000
0020
0000
,  // measure 28
1030
0000
0100
0000
1000
0000
0002
0000
0000
0000
0013
1000
0010
0000
0200
0000
,  // measure 29
0000
0000
0301
0000
0001
0000
0100
1000
0000
0100
0010
0000
0000
0001
0010
0001
,  // measure 30
1000
0000
0100
0000
1000
0000
0001
0020
,  // measure 31
1000
0000
0130
1000
0100
0000
0001
0000
0010
0000
0000
0011
0000
0000
0001
0000
,  // measure 32
2000
0100
0010
3002
0000
0000
0103
0020
,  // measure 33
1030
0000
0000
0100
0000
0000
0010
0000
0000
0001
0100
0000
0001
0000
1000
0000
,  // measure 34
2000
0000
0010
3002
0010
0000
0103
0000
,  // measure 35
2000
0000
0000
3200
0010
0000
0302
0000
0010
0000
0000
0000
1003
0000
0000
0000
,  // measure 36
0100
0000
0101
0010
0100
0000
1100
0000
,  // measure 37
0010
0000
0000
0010
0100
0000
0020
0000
2000
0000
0000
0000
0000
0000
3030
0000
,  // measure 38
1000
0000
0000
0001
0010
0000
1000
0000
0001
0000
0000
0000
0100
0000
0000
0000
,  // measure 39
1000
0000
0000
0010
1000
0000
0001
0000
0100
0000
0000
0000
1010
0000
0000
0000
,  // measure 40
0001
0000
0000
1000
0010
0000
1000
0000
0000
0000
0000
0000
0001
0000
0000
0000
,  // measure 41
1000
0000
0000
0010
0000
0000
1000
0100
0000
0001
1000
0010
1000
0000
0000
0000
,  // measure 42
0002
0000
0103
2000
0010
3000
0001
0000
,  // measure 43
1000
0000
0000
0010
0100
0000
0010
0000
1000
0000
0000
0000
0010
0000
0200
0000
,  // measure 44
1300
0000
1000
1000
0000
0000
0001
0000
,  // measure 45
0100
0000
0000
0010
0100
0000
0010
0000
0000
0010
0100
0000
0101
0000
0000
0000
,  // measure 46
1000
0000
0010
1000
0100
0000
0001
0000
,  // measure 47
1000
0000
0000
0010
1000
0000
0001
0000
1000
0000
0000
0000
2000
0000
0000
0000
,  // measure 48
0000
3200
0000
0320
,  // measure 49
0000
0032
0000
1003
,  // measure 50
1000
0100
1000
0010
0002
0000
1003
0100
,  // measure 51
1000
0010
0100
0002
0000
2003
0000
0020
,  // measure 52
3100
1030
0100
0200
0000
1300
0001
0020
,  // measure 53
0000
0000
0000
1030
0100
1000
0001
0010
,  // measure 54
1000
0000
0000
0100
0000
0000
2000
0000
0000
0000
0000
3000
0000
0000
0010
0000
,  // measure 55
0001
0000
0000
0100
0000
0000
0002
0000
0000
0000
0000
0000
0000
0000
0003
0000
,  // measure 56
1000
0000
0000
0010
0000
0000
2000
0000
0000
0000
0000
0000
0000
0000
3000
0000
,  // measure 57
0100
0000
0000
0010
0000
0000
0200
0000
0000
0000
0000
0000
0000
0000
0300
0000
,  // measure 58
0010
0000
0000
0100
0000
0000
0020
0000
0000
0000
0000
0000
0000
0000
0030
0000
,  // measure 59
0001
0000
0000
0100
0000
0000
0002
0000
0000
0000
0000
0000
0000
0000
0003
0000
,  // measure 60
0010
0000
0000
0001
0000
0000
0200
0000
0000
0000
0000
0000
0000
0000
0300
0000
,  // measure 61
1000
0000
0000
0010
0000
0000
0100
0000
0001
0000
0000
0000
1001
0000
0000
0000
,  // measure 62
0110
0002
1003
0002
0013
0200
1300
0020
,  // measure 63
0000
0000
2030
0000
3001
0000
0010
0000
0010
0000
0000
0110
0000
0000
0200
0000
,  // measure 64
1300
0000
0001
0000
1000
0000
0020
0000
0000
0000
0130
1000
0100
0000
0002
0000
,  // measure 65
0000
0000
0013
0000
0010
0000
0001
1000
0000
0001
0100
0000
0000
0010
0100
0010
,  // measure 66
1000
0000
0001
0000
1000
0000
0010
0200
,  // measure 67
1000
0000
0301
1000
0001
0000
0010
0000
0100
0000
0000
0110
0000
0000
0010
0000
,  // measure 68
2000
0001
0100
3020
0000
0000
0031
0200
,  // measure 69
1300
0000
0000
0001
0000
0000
0100
0000
0000
0010
0001
0000
0010
0000
1000
0000
,  // measure 70
2002
0000
0000
0000
,  // measure 71
3003
0000
0000
0000
;
