#VERSION:0.83;
#TITLE:Reverie;
#SUBTITLE:(Nizzle Remix);
#ARTIST:Daav One, Side B, & Q'Aila;
#TITLETRANSLIT:;
#SUBTITLETRANSLIT:;
#ARTISTTRANSLIT:;
#GENRE:;
#ORIGIN:;
#CREDIT:;
#BANNER:artworks-000120137835-whcqjy-t500x500-1.png;
#BACKGROUND:828x0w.png;
#PREVIEWVID:;
#JACKET:;
#CDIMAGE:;
#DISCIMAGE:;
#LYRICSPATH:;
#CDTITLE:;
#MUSIC:REVERIE.mp3;
#OFFSET:0.000000;
#SAMPLESTART:34.285713;
#SAMPLELENGTH:12.000000;
#SELECTABLE:YES;
#BPMS:0.000=175.000,
124.000=43.750,
125.000=175.000;
#STOPS:;
#DELAYS:;
#WARPS:;
#TIMESIGNATURES:0.000=4=4;
#TICKCOUNTS:0.000=4;
#COMBOS:0.000=1;
#SPEEDS:0.000=1.000=0.000=0;
#SCROLLS:0.000=1.000;
#FAKES:;
#LABELS:0.000=Song Start;
#BGCHANGES:;
#KEYSOUNDS:;
#ATTACKS:
;

//---------------dance-single - ----------------
#NOTEDATA:;
#CHARTNAME:;
#STEPSTYPE:dance-single;
#DESCRIPTION:;
#CHARTSTYLE:;
#DIFFICULTY:Easy;
#METER:5;
#RADARVALUES:0.370909,0.612912,0.434146,0.144715,0.000000,305.000000,254.000000,51.000000,17.000000,0.000000,0.000000,0.000000,0.000000,0.000000,0.370909,0.612912,0.434146,0.144715,0.000000,305.000000,254.000000,51.000000,17.000000,0.000000,0.000000,0.000000,0.000000,0.000000;
#CREDIT:;
#NOTES:
1000
0000
0000
0000
,
0000
0000
0000
0010
,
0100
0000
0000
0000
,
0000
0000
1000
0001
,
1000
0000
0000
0000
,
0000
0000
0001
0001
,
0001
0000
0000
0000
,
0000
0000
0000
1000
,
1000
0000
0000
0000
,
0000
0000
0000
0010
,
0100
1000
0000
0000
,
0001
0000
1000
0000
,
0001
0000
0000
0000
,
0100
0000
1000
0100
,
0010
0000
0000
0000
,
0001
1000
0001
0000
,
1000
0000
0001
0000
,
1000
0001
0010
0100
,
1000
0000
0100
0000
,
0010
0000
0001
0000
,
1000
0000
0100
0000
,
0010
0000
0001
0010
,
0001
0000
1000
0001
,
1000
0000
0010
0000
,
0100
0000
0100
0000
,
0100
0000
0010
0000
,
0010
0000
0010
0000
,
0010
0000
0010
0000
,
0001
0001
0001
0001
,
1000
1000
1000
1000
,
1001
1001
1001
1001
,
1001
1010
1001
0110
,
1001
0110
0001
0001
,
0001
1000
1000
1001
,
1001
1000
0010
0001
,
0010
2000
3002
1003
,
0001
0020
0230
0310
,
0100
0001
0001
0001
,
0000
1000
1000
1000
,
0012
1003
0100
0010
,
0100
0010
1000
0100
,
0001
0100
0001
1000
,
0100
0001
0010
0100
,
0001
1000
0001
0100
,
0010
1000
0001
0010
,
0100
0001
1000
0001
,
1000
0000
0000
1001
0000
1001
0000
0220
,
0330
1000
0100
0010
,
0001
0100
0001
0100
,
1000
0001
1000
0001
,
0100
0010
0001
0010
,
0001
0100
0010
1000
,
0001
0100
0010
1000
,
0010
1000
0001
0100
,
0010
0100
0010
0001
,
0100
0010
1000
0001
,
0100
0010
1002
1003
,
0210
0310
0001
0100
,
1000
0200
1300
0002
,
0013
1000
0010
0001
,
0010
0100
0010
0100
,
1000
0100
1000
0100
,
0010
0100
0000
0000
,
1000
0002
0103
2000
,
3010
0002
0013
0200
,
1300
1000
1000
0001
,
0001
0100
0100
0001
,
0001
0010
0010
1000
,
1000
1000
0001
0001
,
0001
1000
0100
0010
,
0100
0010
0100
0001
,
1000
1001
1001
1001
,
1001
0110
0110
0110
,
0110
0011
0011
0011
,
0011
1100
1100
1100
,
1100
0101
0101
0101
,
0101
1010
1010
1010
,
1010
1001
0110
1001
,
0110
1001
0110
1001
,
0110
2002
0000
0000
,
3003
0000
0000
0000
;

//---------------dance-single - ----------------
#NOTEDATA:;
#CHARTNAME:;
#STEPSTYPE:dance-single;
#DESCRIPTION:;
#CHARTSTYLE:;
#DIFFICULTY:Medium;
#METER:7;
#RADARVALUES:0.439010,0.619616,0.161741,0.076614,0.000000,361.000000,342.000000,19.000000,9.000000,0.000000,0.000000,0.000000,0.000000,0.000000,0.439010,0.619616,0.161741,0.076614,0.000000,361.000000,342.000000,19.000000,9.000000,0.000000,0.000000,0.000000,0.000000,0.000000;
#CREDIT:;
#NOTES:
2002
0000
0000
3003
,
0000
0000
0000
0000
0000
0020
0000
0000
,
0230
0000
0000
0000
0000
0000
0000
0300
,
0000
0000
0000
0000
2000
0000
0000
3000
,
0002
0000
0000
0003
,
0000
0000
0000
0010
0001
0000
0100
0000
,
1000
0000
0000
0000
,
0000
0000
0000
0000
0000
0001
0000
0000
,
0010
0000
0100
0000
,
1000
0000
0000
0000
0100
0001
0000
0000
,
0100
0000
0000
1000
0100
0000
1000
0000
,
0001
0000
0000
1000
0000
0000
0010
0000
,
0100
0000
0000
0000
0001
0000
0010
0100
,
0000
1000
0100
0001
,
1000
0000
0001
0000
,
0010
1000
0010
0000
0000
1000
0000
0000
,
0001
0000
1000
0000
,
0010
0000
0100
1000
0000
0100
0000
0001
,
0000
0000
0000
1000
0001
0000
0010
0000
,
0100
0000
1000
0100
0000
0001
0000
0010
,
0000
0000
0000
0100
1000
0000
0100
0000
,
0001
0000
0010
1000
0000
0010
0000
0001
,
1000
0000
0000
1000
0010
0000
0001
0000
,
0100
0000
0000
1000
0000
0000
0001
0000
,
1000
0001
0010
0100
,
1000
0001
1000
0001
,
1000
0010
1000
0001
,
1000
0001
1000
0010
,
1000
0001
1000
0001
1000
0001
1000
0001
,
1000
0001
1000
0001
1000
0001
1000
0001
,
1001
1001
1001
1001
,
2000
3000
0010
0000
0100
0000
1000
0000
,
0110
0000
0001
1000
0001
1000
0001
1000
,
0010
0100
1000
0100
,
0001
0000
1000
0100
1000
0100
1000
0100
,
1000
0001
1000
0010
,
0100
0000
1000
0000
0100
0000
0001
1000
,
0001
1000
0010
0000
0100
0000
1000
0000
,
0100
0000
1000
0001
0010
1000
0010
1000
,
0001
1000
0100
0001
,
1000
0000
0010
0000
1000
0000
0100
1000
,
0100
1000
0001
0000
0010
0000
0100
0000
,
1000
0000
0001
0010
0001
0010
0001
0010
,
0001
1000
0100
1000
,
0010
0001
1000
0010
,
0100
1000
0100
0001
,
1000
0000
0000
1001
0000
1001
0000
1001
,
0000
0000
0010
0000
0100
0000
1000
0100
,
0001
1000
0001
0000
1000
0000
0010
1000
,
0100
0001
0100
0000
1000
0000
0010
0000
,
0001
0000
1000
0000
0000
0100
0000
0000
,
0010
0000
0001
1000
0001
1000
0010
0000
,
0100
1000
0000
0100
1000
0000
0001
0000
,
0010
0000
1000
0000
0100
0000
0001
0010
,
1000
0010
1000
0001
1000
0000
0100
1000
,
0100
0000
0001
0000
1000
0000
0010
1000
,
0100
0000
0001
0000
1000
0010
1000
0100
,
1000
0000
0001
0000
1000
0010
0100
0000
,
1000
0100
1000
0000
0001
0010
0000
1000
,
0000
0100
0000
0000
0000
1000
0001
0010
,
1000
0010
1000
0001
1000
0100
0000
0001
,
0000
0010
1000
0100
0000
0001
0010
0000
,
1000
0000
0100
0000
0000
0001
0000
0000
,
0010
1000
0000
1000
,
0000
1000
0000
1000
,
0000
0000
0000
0001
0000
0001
0000
0001
,
0000
0001
0000
1000
0000
1000
0000
1000
,
0000
1000
0000
0010
0000
0100
0000
0010
,
0000
0100
0000
1001
0000
0110
0000
1001
,
0000
0110
0000
0001
0000
0010
0000
1000
,
0000
0100
1000
0000
0001
0000
1000
0000
,
0010
0000
0100
0000
1000
0000
0100
1000
,
0100
0000
0001
0000
1000
0010
1000
0001
,
1000
0100
1000
0000
0001
0000
1000
0000
,
0010
0000
1000
0000
0100
0000
0001
0010
,
0001
1000
0001
1000
0001
1000
0001
1000
,
0001
1000
0001
1000
0001
1000
0001
1000
,
0001
1000
1001
0000
1001
0000
1001
0000
,
1001
0000
1000
0010
0100
1000
0001
0100
,
1001
2002
0000
0000
,
0000
0000
0000
0000
0000
0000
0000
3003
;

//---------------dance-single - ----------------
#NOTEDATA:;
#CHARTNAME:;
#STEPSTYPE:dance-single;
#DESCRIPTION:;
#CHARTSTYLE:;
#DIFFICULTY:Hard;
#METER:9;
#RADARVALUES:0.631153,0.856587,0.442659,0.536298,0.085127,519.000000,467.000000,52.000000,63.000000,0.000000,0.000000,4.000000,0.000000,0.000000,0.631153,0.856587,0.442659,0.536298,0.085127,519.000000,467.000000,52.000000,63.000000,0.000000,0.000000,4.000000,0.000000,0.000000;
#CREDIT:;
#NOTES:
// measure 0
2002
0000
0000
0000
0000
3003
0100
0000
,  // measure 1
2000
0000
0000
0000
0000
0000
0000
0000
0000
0000
0020
3000
0000
0000
0000
0000
,  // measure 2
0032
0000
0000
0000
0000
0000
0000
0000
0000
0000
0000
0000
0000
0000
0000
0003
,  // measure 3
1000
0000
0000
0000
0100
0010
0000
0001
,  // measure 4
1000
0000
0000
0000
0001
0000
2000
0000
0000
3000
0000
0000
0000
0000
0000
0000
,  // measure 5
0000
0000
0000
0010
0100
0000
1000
0000
,  // measure 6
0002
0000
0000
0000
,  // measure 7
0000
0000
0000
0000
0003
0020
0000
0030
,  // measure 8
2000
0000
0000
0000
0010
0001
0000
0000
,  // measure 9
3200
0000
0000
0000
0010
0001
0000
0000
,  // measure 10
0302
0000
0000
0010
1000
0000
0100
0000
,  // measure 11
0023
0000
0000
1000
0000
0000
0001
0000
,  // measure 12
2030
0000
0200
0300
0010
0000
0001
0020
,  // measure 13
0030
0200
3300
0000
2000
0002
0000
3003
,  // measure 14
0020
0000
0000
0000
0002
0000
0000
0003
,  // measure 15
1000
0001
1000
0000
0000
0200
0030
0300
,  // measure 16
2002
0000
3000
0100
0010
0000
0000
0000
,  // measure 17
2000
3000
0100
0020
0033
2000
0000
0200
,  // measure 18
3000
0000
0000
0310
0002
0000
2003
0000
,  // measure 19
3010
0000
0010
0200
0000
0302
0000
0203
,  // measure 20
0300
0000
0000
0002
2003
3000
0200
0300
,  // measure 21
0002
0003
0010
0100
1000
0100
0010
1000
,  // measure 22
0010
0000
1000
0000
0001
1000
0000
0001
,  // measure 23
2000
0000
0000
3200
0000
0000
0320
0030
,  // measure 24
1001
0110
0011
1010
,  // measure 25
0101
0011
1001
0110
,  // measure 26
1010
0101
0110
1001
,  // measure 27
1010
0101
1100
0011
,  // measure 28
1000
0100
0001
0010
0100
0001
1000
0000
,  // measure 29
0001
0100
0010
0001
1000
0100
0010
0001
,  // measure 30
1000
0001
1000
0001
1000
0001
1000
0001
1000
0001
1000
0001
1000
0001
1000
0004
,  // measure 31
4000
3003
1001
0000
0100
0010
1001
0000
,  // measure 32
0110
0000
0010
0001
0010
1000
0101
0000
,  // measure 33
0010
0100
1001
0001
1000
0001
0010
0100
,  // measure 34
0010
1000
0001
0100
0010
1000
0001
0100
,  // measure 35
0010
1000
0110
0010
0100
0001
1000
0010
,  // measure 36
0100
0010
0001
0010
0001
1000
0100
1000
,  // measure 37
0001
0100
0010
1000
0001
0100
0010
0001
,  // measure 38
1000
0000
0100
0000
0100
0001
0010
0000
1000
0000
1000
0000
0100
0000
0010
0000
,  // measure 39
0001
1000
0000
0000
1001
0000
0000
0000
0110
0000
0000
0000
1000
0000
0001
0000
,  // measure 40
1000
0100
1010
0000
0101
0000
0010
0100
,  // measure 41
0010
1000
0011
0000
1100
0000
0010
0001
,  // measure 42
0010
0001
1000
0100
0010
0100
0010
0001
,  // measure 43
1000
0001
1000
0000
1001
0000
0001
0010
,  // measure 44
0100
0010
1000
0001
1000
0010
0100
0001
,  // measure 45
1000
0001
1001
0010
0100
0001
0100
0010
,  // measure 46
0001
0100
1000
0220
0330
0022
0033
2020
,  // measure 47
0000
3030
1000
0001
0100
0010
0002
0023
,  // measure 48
1000
0130
0002
0100
1000
0100
1003
0200
,  // measure 49
0010
1300
2000
0001
3010
0100
2000
0000
,  // measure 50
3002
0000
0203
0000
0300
0020
0030
0000
,  // measure 51
2000
0000
3000
0002
0000
0003
2000
0000
,  // measure 52
0100
3010
0001
1000
0010
0100
0001
0100
,  // measure 53
0010
1000
0001
0100
0001
0010
0001
1000
,  // measure 54
0001
0000
0000
0000
1000
0000
0001
0000
0000
0001
0000
0000
1000
0000
0100
0000
,  // measure 55
0010
0001
1001
0100
1001
0010
1001
0100
,  // measure 56
1001
0010
0110
1000
0110
0001
1000
0100
,  // measure 57
0010
0001
1000
1000
0001
0001
0010
0100
,  // measure 58
0010
0100
0001
0000
0100
0020
0000
2030
,  // measure 59
0000
3002
1003
0000
0010
0100
0010
1000
,  // measure 60
0001
0100
0010
0100
0010
0001
0010
0001
,  // measure 61
1000
0100
0010
0001
0010
0100
1000
0001
,  // measure 62
1000
0010
0404
0000
0000
0000
0000
0000
,  // measure 63
0000
0303
1001
0000
1000
0100
1000
0100
,  // measure 64
0010
0100
0010
0100
0010
0001
0010
0001
,  // measure 65
1000
0001
0100
0010
1000
0010
0001
0100
,  // measure 66
0001
0100
0010
1000
0100
0010
0001
1000
,  // measure 67
0001
0100
1000
0100
1000
0100
0010
0001
,  // measure 68
1000
1000
1001
0000
0110
0000
1001
0011
,  // measure 69
1001
0000
1000
0100
0010
1000
1000
0010
,  // measure 70
0001
0100
1000
0001
0000
1000
0000
0001
,  // measure 71
1001
0000
1001
0001
1000
0100
0010
0000
,  // measure 72
1002
0100
0000
0010
0000
0010
0000
0000
,  // measure 73
0010
0100
1003
0001
1000
0001
0100
0010
,  // measure 74
0100
0010
1000
0100
1000
0100
0001
0010
,  // measure 75
0001
0010
1000
1000
0001
0001
1000
1000
,  // measure 76
0001
0000
0001
0000
1000
0100
1000
0000
0001
1000
0001
0000
1000
0100
1000
0000
,  // measure 77
0001
1000
0001
0000
1000
0000
0100
0000
0010
0000
0001
0000
0010
0000
0100
0000
,  // measure 78
1000
0000
0100
0000
1000
0001
1000
0000
0010
1000
0010
1000
0000
0001
0010
0000
,  // measure 79
0001
0010
0000
0000
2002
0000
0000
0000
0000
0000
0000
0000
0000
0000
0000
0000
,  // measure 80
0000
0000
3003
0000
;
