#TITLE:Puppy;
#SUBTITLE:;
#ARTIST:Doss;
#TITLETRANSLIT:;
#SUBTITLETRANSLIT:;
#ARTISTTRANSLIT:;
#GENRE:;
#CREDIT:;
#BANNER:Puppy-bn.png;
#BACKGROUND:Puppy-bg.png;
#LYRICSPATH:;
#CDTITLE:;
#MUSIC:Puppy.mp3;
#OFFSET:0.000000;
#SAMPLESTART:20.571430;
#SAMPLELENGTH:13.714287;
#SELECTABLE:YES;
#BPMS:0.000000=140.000000
,80.000000=70.000000
,111.000000=140.000000
;
#STOPS:111.000000=0.107000,
111.250000=0.107000,
111.500000=0.107000,
111.750000=0.107000
;
#BGCHANGES:;
#KEYSOUNDS:;
#ATTACKS:;

//---------------dance-single - ----------------
#NOTES:
     dance-single:
     :
     Beginner:
     2:
     0.213469,0.218538,0.000000,0.149428,0.000000,160.000000,160.000000,0.000000,16.000000,0.000000,0.000000,0.213469,0.218538,0.000000,0.149428,0.000000,160.000000,160.000000,0.000000,16.000000,0.000000,0.000000:
// measure 0
0000
0000
0000
0000
,  // measure 1
0000
0000
0000
0000
,  // measure 2
1000
0000
0001
0000
,  // measure 3
0000
0000
0010
0000
,  // measure 4
1000
0100
1000
0010
,  // measure 5
0000
0001
1000
0010
,  // measure 6
0100
0001
1000
0010
,  // measure 7
0000
0100
1000
0010
,  // measure 8
0001
0000
1000
0010
,  // measure 9
0000
0100
1000
0010
,  // measure 10
0001
0000
1000
0010
,  // measure 11
0000
0100
1000
0100
,  // measure 12
0001
0000
1000
0010
,  // measure 13
1000
0000
1000
0100
,  // measure 14
0001
0000
0001
0100
,  // measure 15
0001
0000
0010
0001
,  // measure 16
1000
0000
1000
1000
,  // measure 17
1000
0000
0010
0100
,  // measure 18
0001
0000
0010
0100
,  // measure 19
0010
0000
0100
0010
,  // measure 20
0002
1000
0010
0000
,  // measure 21
0203
0000
0000
0000
,  // measure 22
2300
0000
0000
0000
,  // measure 23
3002
0000
0000
0000
,  // measure 24
2003
0000
3200
0000
,  // measure 25
0302
0000
0010
0000
,  // measure 26
2003
0000
3200
0000
,  // measure 27
0302
0010
1000
0000
,  // measure 28
1003
0100
0010
0001
,  // measure 29
1000
0010
1000
0100
,  // measure 30
0001
0010
0001
0100
,  // measure 31
1000
0100
1000
0010
,  // measure 32
0001
0100
1000
0010
,  // measure 33
1000
0010
0100
0010
,  // measure 34
0001
1000
0010
0100
,  // measure 35
1000
0010
0001
0000
,  // measure 36
1000
0100
0010
1000
,  // measure 37
0001
0010
0100
0001
,  // measure 38
0100
0010
0100
1000
,  // measure 39
0010
0100
0010
0001
,  // measure 40
1000
0010
0001
0100
,  // measure 41
1000
0100
0001
0010
,  // measure 42
1000
1000
0010
0010
,  // measure 43
0001
0001
0100
0100
,  // measure 44
2000
3001
0010
0010
,  // measure 45
0002
0103
0100
0100
,  // measure 46
0010
0100
1000
0000
,  // measure 47
0010
1000
0001
0000
,  // measure 48
0020
0031
1000
0100
,  // measure 49
2000
3010
0100
1000
,  // measure 50
0001
0010
0001
0100
,  // measure 51
2000
0000
3020
0000
,  // measure 52
0031
0000
0000
0000
;

//---------------dance-single - ----------------
#NOTES:
     dance-single:
     :
     Easy:
     3:
     0.233481,0.339949,0.102732,0.102732,0.000000,175.000000,164.000000,11.000000,11.000000,0.000000,0.000000,0.233481,0.339949,0.102732,0.102732,0.000000,175.000000,164.000000,11.000000,11.000000,0.000000,0.000000:
0000
0000
0000
0000
,
0000
0000
0000
0000
,
1000
0000
0001
0000
,
0000
0000
0010
0000
,
1000
0000
0000
0100
0000
0000
0001
0000
,
0000
0000
0010
0000
,
1000
0000
0000
0100
0000
0000
1000
0000
,
0000
0000
0010
0000
,
0001
0000
0000
0100
0000
0000
0001
0000
,
0000
0010
0000
0000
1000
0000
0000
0000
,
0100
0000
0000
0010
0000
0000
0100
0000
,
0000
1000
0000
0000
0001
0000
0000
0000
,
1000
1000
0010
0000
,
0001
0100
0001
0100
,
0010
1000
0100
0000
,
0001
1000
1000
0010
,
1000
0100
0001
0010
,
0100
0010
0100
0000
,
1000
0010
1000
0100
,
1000
0001
0010
0000
,
2000
0001
0010
0000
,
3200
1000
0010
0000
,
0302
1000
0100
0000
,
0023
1000
0100
0000
,
2030
0100
0001
0000
,
3020
0100
0001
0000
,
0032
1000
0010
0000
,
0203
0000
0000
0000
0000
0000
0001
0301
,
1000
1000
0010
1000
,
0100
1000
0010
1001
,
0001
0010
0001
0100
,
0010
1000
0100
0110
,
1000
0010
1000
0100
,
0010
0001
0100
0011
,
1000
0100
1000
0010
,
0100
0001
0010
2000
,
3001
0010
1000
0100
,
1000
0001
0010
1000
,
0100
0001
0010
0101
,
1000
0010
1000
0110
,
0100
0010
1000
0100
,
0001
0100
0001
0010
,
1000
1001
0001
1001
,
0010
0110
0100
0110
,
1001
0000
1000
0100
,
0001
0000
0010
0100
,
1000
0000
0010
0100
,
0001
0000
0010
1000
,
2000
3100
0001
0000
,
0010
0100
0001
0000
,
0010
0001
1000
0100
,
2000
0001
0001
3001
,
1001
0000
0000
0000
;

//---------------dance-single - ----------------
#NOTES:
     dance-single:
     :
     Medium:
     6:
     0.366899,0.388513,0.018678,0.121410,0.079384,275.000000,273.000000,2.000000,13.000000,0.000000,2.000000,0.366899,0.388513,0.018678,0.121410,0.079384,275.000000,273.000000,2.000000,13.000000,0.000000,2.000000:
0000
0000
0000
0000
,
0000
0000
0000
0000
,
1000
0000
0010
0000
,
0000
0000
0100
0000
,
1000
0000
0010
1000
0000
0000
0001
0000
,
0100
0000
0010
0000
0001
0100
0001
0000
,
1000
0000
0010
1000
0000
0000
0100
0000
,
0010
0000
0100
0000
0001
0010
0001
0000
,
1000
0000
0100
1000
0000
0000
0010
0000
,
0000
1000
0000
0001
1000
0000
0010
0000
,
0100
0000
1000
0100
0000
1000
0010
0000
,
0100
0001
0000
1000
0010
0000
0100
0000
,
1000
0100
1000
0001
0010
0000
0001
1000
,
0100
1000
0010
0100
0001
0000
0010
0000
,
1000
0010
1000
0100
0001
0000
0010
0001
,
0100
1000
0010
1000
0100
0000
1000
0000
,
0010
0001
0100
0000
0010
1000
0100
0000
,
0100
1000
0001
0000
0010
0001
0100
0000
,
1000
0010
1000
0100
0001
0000
0010
1000
,
0000
0100
1000
0000
0001
0000
0010
0000
,
2000
0100
0000
0001
0000
0010
0000
0000
0000
0000
0000
0000
0000
0000
0000
0000
,
3002
0000
0000
0000
0010
0000
0000
0000
0100
1000
0000
0200
0000
0310
0000
0010
,
2003
0000
0100
0000
,
3002
0000
0000
0010
0000
0000
1000
0000
0000
0000
0000
0000
1000
0000
0000
0100
,
2003
0100
0000
0010
0000
0001
0000
0001
0000
0000
0000
0000
0000
0000
0000
0000
,
3002
0000
0000
0000
0000
0000
0000
0000
0100
0010
0100
0020
0000
0130
0000
0100
,
2003
0001
0010
0000
,
3020
0230
2300
3002
0013
0001
1000
1100
,
0001
0000
0010
0000
1000
0000
0100
1000
,
0001
1000
0010
1000
0100
0000
0001
0000
,
0010
0000
0001
0000
0010
0000
0100
0001
,
0100
0001
0010
1000
0100
0000
0010
0000
,
1000
0000
0100
0000
1000
0100
0010
0000
,
0010
0001
0100
1000
0010
0000
1000
0000
,
0001
1000
0100
0010
0001
0100
1000
0010
,
1000
0001
1000
0010
0100
0000
1000
0001
,
0010
0000
0100
1000
0100
0001
0010
1000
,
0001
0000
1000
0000
0001
1000
0010
1000
,
0100
0000
0001
0000
0100
0001
0010
0001
,
0100
0000
1000
0000
0010
0100
0010
0100
,
1000
0000
0010
0000
1000
0001
0001
1000
,
0100
0000
0100
0000
0100
0000
1000
1000
,
0001
0000
0010
0000
0100
0000
1000
0100
,
0010
0000
0001
0000
0100
0010
0100
0010
,
0001
0000
1000
0001
1000
0000
0010
1000
,
0100
0000
0001
0010
0001
0000
0100
1000
,
0010
0000
1000
0001
1000
0000
0010
0100
,
0001
0000
0010
0001
0100
0000
1000
0010
,
1000
0100
1000
0001
1000
0000
0010
0000
,
0100
0000
0001
1000
0001
0010
0001
0000
,
0100
0000
1000
0000
0010
1000
0100
0001
,
0010
0000
0001
0000
1000
0001
0010
1000
,
1001
0000
0000
0000
;

//---------------dance-single - ----------------
#NOTES:
     dance-single:
     :
     Hard:
     9:
     0.539008,0.655615,0.028018,0.214803,0.508989,404.000000,401.000000,3.000000,23.000000,0.000000,0.000000,0.539008,0.655615,0.028018,0.214803,0.508989,404.000000,401.000000,3.000000,23.000000,0.000000,0.000000:
0000
0000
0000
0000
,
0000
0000
0000
0000
,
1000
0000
0000
0001
0010
0000
1000
0000
0100
0000
0000
0000
0000
0000
0000
0000
,
0000
0000
0010
0000
,
1000
0000
0000
0100
1000
0000
0001
0000
0000
0000
0010
0000
1000
0000
0000
0000
,
0100
0000
0100
1000
0001
0000
0010
0000
0001
0000
0100
0000
1000
0000
0000
0000
,
0010
0000
0000
1000
0100
0000
0001
0000
0000
0000
1000
0000
0010
0000
0000
0001
,
1000
0000
0001
0100
0001
0000
0010
0000
1000
0000
0100
0000
0001
0000
0020
0000
,
1000
0000
0031
1000
0000
0100
0010
0000
,
0001
0000
0000
1000
0100
0000
1000
0000
0001
0000
0010
0000
1000
0000
0100
0000
,
0001
0010
0001
2000
0000
3010
0100
0000
,
0001
1000
0000
0010
0100
0000
0001
0000
,
1001
0000
0010
0001
1000
0000
0100
0000
0001
0000
0010
0001
0010
0000
1000
0000
,
0100
0000
1000
0100
1000
0000
1000
0000
0010
0100
0010
0000
0001
0000
1000
0000
,
1000
0000
0020
0000
1030
0000
0200
0000
0301
0000
1000
0100
0001
0000
0001
0000
,
1000
0000
0010
0000
1000
0000
0100
0000
0001
0000
0010
0001
0010
0000
0100
0000
,
1000
0000
0010
0000
1000
0000
0100
0000
0001
0000
1000
0010
1000
0000
0010
0000
,
1000
0000
1000
0100
0010
0000
0001
0000
0010
0000
1000
0000
0100
0000
1000
0000
,
0010
0100
0001
0010
0001
1000
0100
0000
,
1000
0000
0002
0010
1003
0000
0100
0000
0010
1000
0010
1000
0200
0000
0010
0000
,
2300
0100
0000
0010
0000
0001
0000
0000
0000
0000
0000
0000
0000
0000
0000
0000
,
3002
0000
0000
0000
0000
0000
0200
0000
0000
0000
0000
0000
0000
0000
0300
0000
0103
0000
1000
0100
1000
0000
0200
0000
0320
0000
0031
0000
0000
0000
1000
0000
,
0002
0000
0000
0000
0000
0000
0000
0000
0000
0000
0000
0000
2000
0000
0000
3003
,
1200
0000
0000
0010
0000
0000
1000
0000
0002
0000
0000
0000
0000
0000
0303
1000
,
0020
0100
0000
0100
0000
1000
0000
1000
0000
0000
0000
0000
0000
0000
0000
0000
,
2030
0000
0000
0000
0000
0000
0000
0000
0000
0000
0000
0000
0000
0000
0000
0000
0001
0000
0010
0001
0000
0000
0010
0000
0000
0000
0100
0000
0000
0000
0100
0000
,
3020
0000
0000
0000
,
1030
0001
1000
0001
0100
0010
0100
0010
1000
0001
1000
0001
0010
0010
0100
0100
,
1000
0000
0100
0001
0100
0000
0001
0000
0001
0000
0010
1000
0010
0000
0100
0000
,
1000
0000
0100
0010
0100
0000
0010
0000
0001
0000
1000
0001
1000
0000
0001
0000
,
1000
0000
0010
0001
1000
0000
0010
0000
0001
0000
0100
0010
0001
0000
0100
0000
,
1000
0000
0100
1000
0001
0000
0010
0000
0001
0000
0100
0010
0001
0000
0010
0000
,
0100
0000
1000
0010
1000
0000
0010
0000
0010
0000
0001
0100
0001
0000
1000
0000
,
0100
0000
1000
0001
1000
0000
0001
0000
0010
0000
0100
0010
0100
0000
0010
0000
,
0100
0000
0001
0010
0100
0000
0001
0000
0010
0000
1000
0001
0010
0000
1000
0000
,
0100
0000
1000
0100
0010
0000
0001
0000
0010
0000
1000
0001
0020
0000
0031
0000
,
1000
0100
0000
0001
0010
0000
0001
0010
0000
1000
0100
0000
0020
0000
0230
0000
,
1300
0010
0000
0001
0100
0000
0010
1000
0000
0100
0010
0000
0002
0000
2003
0000
,
3001
0010
0000
0001
1000
0000
0100
1000
0000
1000
0010
0000
0100
0000
0001
0000
,
1000
0010
0000
1000
0010
0000
1000
0100
0000
0001
0100
0000
0001
0000
1000
0000
,
0010
1000
0000
1000
0010
0000
0100
0001
0000
0100
0001
0000
0010
0000
0100
0000
,
0010
0100
0000
0010
0001
0000
1000
0001
0000
1000
0100
0000
0010
0000
1000
0000
,
0001
0010
0000
0010
1000
0000
0100
0010
0000
1000
0001
0000
0001
0000
1000
0000
,
0010
1000
0000
1000
0001
0000
1000
0010
0000
1000
0100
0000
0001
0000
1000
0000
,
1000
0000
0000
0001
0000
0000
0010
0000
1000
0000
0000
0100
0000
0000
0001
0000
,
1000
0000
0000
0010
0000
0000
1000
0000
0100
0000
0000
0001
0000
0000
0010
0000
,
0001
0000
0000
0100
0000
0000
1000
0000
0010
0000
0000
0000
1000
0000
0100
0000
,
0001
0000
0000
0010
0000
0000
0001
0000
0100
0000
0000
1000
0000
0000
0010
0000
,
1000
0000
0000
0100
0000
0000
1000
0000
0010
0000
0000
1000
0001
0000
1000
0000
,
0010
0000
0000
1000
0100
0000
0001
0000
0010
0000
0000
0001
0100
0000
1000
0000
,
0010
0000
0000
1000
0010
0000
1000
0000
0001
0000
0000
0100
0001
0000
1000
0000
,
0010
0000
0000
1000
0100
0000
0001
1000
0100
0000
0010
0000
0010
0000
0100
0000
,
1001
0000
0000
0000
;
