#VERSION:0.83;
#TITLE:Professional Widow (Armand's Star Trunk Funkin' Mix);
#SUBTITLE:;
#ARTIST:Tori Amos;
#TITLETRANSLIT:;
#SUBTITLETRANSLIT:;
#ARTISTTRANSLIT:;
#GENRE:;
#ORIGIN:;
#CREDIT:;
#BANNER:Professional Widow-bn.png;
#BACKGROUND:Professional Widow-bg.png;
#PREVIEWVID:;
#JACKET:Professional Widow-jacket.png;
#CDIMAGE:;
#DISCIMAGE:;
#LYRICSPATH:;
#CDTITLE:;
#MUSIC:Professional Widow.ogg;
#OFFSET:0.000000;
#SAMPLESTART:14.995316;
#SAMPLELENGTH:14.995316;
#SELECTABLE:YES;
#BPMS:0.000=128.040,
96.000=43.900,
110.000=64.020,
114.000=128.040;
#STOPS:;
#DELAYS:;
#WARPS:;
#TIMESIGNATURES:0.000=4=4;
#TICKCOUNTS:0.000=4;
#COMBOS:0.000=1;
#SPEEDS:0.000=1.000=0.000=0;
#SCROLLS:0.000=1.000;
#FAKES:;
#LABELS:0.000=Song Start;
#BGCHANGES:;
#KEYSOUNDS:;
#ATTACKS:
;

//---------------dance-single - ----------------
#NOTEDATA:;
#CHARTNAME:;
#STEPSTYPE:dance-single;
#DESCRIPTION:;
#CHARTSTYLE:;
#DIFFICULTY:Beginner;
#METER:1;
#RADARVALUES:0.126844,0.197559,0.019731,0.078925,0.000000,90.000000,88.000000,2.000000,8.000000,0.000000,0.000000,0.000000,0.000000,0.000000,0.126844,0.197559,0.019731,0.078925,0.000000,90.000000,88.000000,2.000000,8.000000,0.000000,0.000000,0.000000,0.000000,0.000000;
#CREDIT:;
#NOTES:
0000
0000
0000
0000
,
0000
0000
0000
0000
,
0000
0000
0000
0000
,
0000
0000
0000
0000
,
1000
0001
0000
0001
,
0010
0100
0000
0100
,
1000
0010
0000
0010
,
1000
0001
0000
0001
,
1000
0000
0010
0100
,
0000
0000
0100
0010
,
0000
0000
0001
1000
,
0000
0000
1000
0100
,
0010
0000
0001
0010
,
0000
0000
0100
1000
,
0000
0000
1000
1000
,
0000
0000
0001
0001
,
1000
0000
0010
0100
,
0020
0000
0000
0000
,
0230
0000
0000
0000
,
2300
0000
0000
0000
,
3002
0000
0000
0000
,
0000
0000
0000
0000
,
0023
0000
0000
0000
,
2030
0000
0000
3000
,
0220
0000
0000
0000
,
0000
0000
0000
0000
,
0000
0000
0000
0000
,
0000
0000
0330
0000
,
0001
1000
0001
0000
,
0000
0010
0100
0000
,
0000
1000
0010
0000
,
0000
0001
1000
0000
,
0000
1000
0001
0000
,
0010
0000
0100
0000
,
1000
0000
0001
0000
,
0010
0000
0100
0001
,
0100
0000
1000
1000
,
1000
0000
0001
0001
,
0001
1000
0010
0010
,
0010
0000
0100
0100
,
0100
0010
1000
0001
,
1000
0000
0010
0001
,
0100
0010
1000
0001
,
1000
0000
0100
1000
,
0100
1000
0110
0000
;

//---------------dance-single - ----------------
#NOTEDATA:;
#CHARTNAME:;
#STEPSTYPE:dance-single;
#DESCRIPTION:;
#CHARTSTYLE:;
#DIFFICULTY:Easy;
#METER:3;
#RADARVALUES:0.208588,0.219510,0.059194,0.118388,0.014798,148.000000,142.000000,6.000000,12.000000,0.000000,0.000000,0.000000,0.000000,0.000000,0.208588,0.219510,0.059194,0.118388,0.014798,148.000000,142.000000,6.000000,12.000000,0.000000,0.000000,0.000000,0.000000,0.000000;
#CREDIT:;
#NOTES:
0000
0000
0000
0000
,
0000
0000
0000
0000
,
0000
0000
0000
0000
,
0000
0000
0000
0000
,
0000
0010
0100
0000
,
0100
0010
0100
0001
,
1000
0010
1000
0000
,
0100
0001
0100
0001
,
1001
1000
0010
0100
,
0000
0100
0001
0010
,
1000
0100
1000
0010
,
0000
0001
0100
0001
,
0011
1000
0100
1000
,
0000
0010
0100
0010
,
0001
1000
0100
1000
,
0000
1000
0010
1000
,
1002
0000
0010
0013
,
0200
0000
1000
2300
,
3020
0000
1000
0130
,
2000
0000
0100
0100
,
3002
0000
0010
0010
,
0203
0000
0001
0310
,
0020
0000
1000
2030
,
0100
0000
0010
3001
,
1001
0000
0000
0000
0010
0000
0000
0100
,
0000
0000
0000
0001
0000
0000
0010
0000
,
0000
0000
0000
0000
0000
0100
0000
0000
0000
0000
0000
0000
0000
0000
0000
0000
0000
0000
0000
0000
0000
0000
0000
1000
0000
0000
0000
0000
0000
0000
0000
0000
0000
0000
0000
0000
0000
0000
0000
0000
0000
0000
0000
0000
0000
0000
0000
1000
,
0000
0000
1000
0001
,
1000
0001
1000
0010
,
0100
0001
1000
0010
,
0100
0001
0001
0010
,
0100
1000
0100
0010
,
0001
1000
0100
0001
,
0100
0010
0100
0010
,
0001
1000
0010
1000
,
0100
1000
0001
0001
,
1000
0010
1001
0100
,
0010
1000
0001
1000
,
0200
0310
0010
0001
,
0010
1000
0100
1000
,
0200
1300
1000
0010
,
0100
0010
0001
0100
,
0002
0013
0001
1000
,
0010
1000
0100
0010
,
0001
0100
1001
0000
;

//---------------dance-single - ----------------
#NOTEDATA:;
#CHARTNAME:;
#STEPSTYPE:dance-single;
#DESCRIPTION:;
#CHARTSTYLE:;
#DIFFICULTY:Medium;
#METER:5;
#RADARVALUES:0.342478,0.373167,0.088791,0.138119,0.034530,243.000000,234.000000,9.000000,14.000000,0.000000,0.000000,0.000000,0.000000,0.000000,0.342478,0.373167,0.088791,0.138119,0.034530,243.000000,234.000000,9.000000,14.000000,0.000000,0.000000,0.000000,0.000000,0.000000;
#CREDIT:;
#NOTES:
0000
0000
0000
0000
,
0000
0000
0000
0000
,
0000
0000
0000
0000
,
0000
0000
0000
0000
,
1000
0100
0000
0000
0010
0001
0000
0000
,
1000
0010
0000
0000
0100
0001
0100
0000
,
0010
1000
0000
0000
0001
0010
0000
0000
,
0010
0100
1000
0100
0001
0100
0001
0000
,
1001
0000
0010
0000
0100
0001
0010
0000
,
0100
0000
0101
0000
0001
0010
0001
0000
,
1000
0100
1000
0010
1000
0100
0010
0000
,
0001
1000
0001
0010
0100
0010
0001
0000
,
1001
0000
0010
0000
1000
0100
0010
0000
,
1000
0000
1100
0000
0100
0010
0001
0000
,
1000
0010
0001
0010
0100
0010
1000
0000
,
0001
0100
0001
0100
0010
1000
1010
0000
,
0210
0001
0000
0310
,
0020
0100
0000
2030
,
3002
0000
0100
0000
0000
1000
0003
0000
,
1000
0100
2000
0000
3000
0002
0010
0000
,
0203
0000
0000
0010
0000
0000
0310
0000
,
2000
0010
0000
0100
0000
0001
3000
0100
,
2000
0010
0000
0100
0000
0000
3200
0000
,
0320
0001
0000
0001
0030
0000
0100
0000
,
1001
0000
0000
0000
0010
1000
0100
0010
,
0000
0000
0000
0001
0010
0100
0010
0000
,
0000
0000
0000
0000
0000
0100
0000
0000
0000
0000
0000
0100
0000
0000
0000
0000
0000
0010
0000
0000
0000
0000
0000
1000
0000
0000
0000
0000
0000
0000
0001
0000
0000
0000
0000
0000
0000
0000
0000
0000
0000
0000
0000
0000
0000
0000
0000
1000
,
0000
0000
0000
0000
0000
0010
0000
0000
0000
0000
0000
0100
0000
0000
0000
0000
0000
0000
1000
0000
0000
0000
0000
0000
0001
0000
0000
0000
0000
0000
0000
0000
0000
0000
0000
0000
1000
0000
0000
0000
0000
0000
0000
0000
0000
0000
0000
0000
,
0001
0000
1000
0001
0110
0010
1000
0001
,
0010
0001
0100
0000
1000
0010
1000
0100
,
0010
0001
1000
0000
0001
0010
0001
1000
,
0100
1000
0010
0000
1000
0100
1000
0010
,
0100
0010
0001
0000
1000
0010
1000
0100
,
1000
0010
0100
0000
0100
0010
0001
0010
,
0100
1000
0001
0000
1000
0010
1000
0100
,
0010
0001
0010
0000
0010
0100
0001
1000
,
0010
1000
0100
0000
1000
0001
1000
0010
,
0100
0001
0000
0000
0100
0010
1000
0100
,
1000
0010
0002
0013
1000
0010
0100
1000
,
0100
0001
0000
0000
0001
0010
0001
0100
,
1000
0010
2000
3001
1000
0001
0010
0100
,
1000
0010
0000
0000
0100
0001
0010
0001
,
0100
0010
1000
0001
1000
1000
0100
0001
,
0010
0001
0000
0000
1000
0100
1000
0010
,
1000
0001
0200
0310
1001
0000
0000
0000
;

//---------------dance-single - ----------------
#NOTEDATA:;
#CHARTNAME:;
#STEPSTYPE:dance-single;
#DESCRIPTION:;
#CHARTSTYLE:;
#DIFFICULTY:Hard;
#METER:8;
#RADARVALUES:0.484825,0.570727,0.098656,0.217044,0.369961,344.000000,334.000000,10.000000,22.000000,0.000000,0.000000,0.000000,0.000000,0.000000,0.484825,0.570727,0.098656,0.217044,0.369961,344.000000,334.000000,10.000000,22.000000,0.000000,0.000000,0.000000,0.000000,0.000000;
#CREDIT:;
#NOTES:
// measure 0
0000
0000
0000
0000
,  // measure 1
0000
0000
0000
0000
,  // measure 2
0000
0000
0000
0000
,  // measure 3
0000
0000
0000
0000
,  // measure 4
1000
0000
0010
0100
0010
0000
0000
0010
1000
0000
0001
0000
1000
0000
0000
0000
,  // measure 5
0001
0000
0100
0010
0100
0000
0000
0100
0001
0000
1000
0000
0001
0000
0010
0000
,  // measure 6
1000
0001
1000
0000
0010
0000
0000
0100
0000
0010
1000
0000
0000
0000
0000
0000
,  // measure 7
0001
1000
0001
0000
0100
0000
0000
0010
0000
0100
0001
0000
0010
0000
0100
0000
,  // measure 8
1001
0001
0100
0001
0010
0100
1000
0000
,  // measure 9
0010
0100
0010
0000
1000
0000
0001
0000
1000
0000
0001
0000
0110
0000
0000
0000
,  // measure 10
1000
0000
0100
0000
0010
0000
0100
0000
0010
0001
0010
0000
0001
0000
0000
0000
,  // measure 11
1000
0000
0100
0000
0001
0000
0100
1000
0010
0000
1000
0000
0001
0000
0000
0000
,  // measure 12
1001
0000
1000
0000
0001
0000
0010
0000
0100
0010
0100
0000
1000
0000
0000
0000
,  // measure 13
0100
0010
0001
0000
1000
0000
0100
0001
0100
0010
0001
0000
1000
0000
0010
0000
,  // measure 14
1000
0000
0001
0000
1000
0000
0100
0000
0010
0100
0010
0000
0001
0000
0000
0000
,  // measure 15
1000
0000
0001
0000
0100
0000
0010
0000
1000
0100
0010
0000
0001
0000
0000
0000
,  // measure 16
0210
0000
0001
0000
0310
1000
0100
0000
,  // measure 17
0020
1000
1000
0000
0130
0010
2000
0001
,  // measure 18
3002
0000
0203
0000
0301
1000
0020
0000
,  // measure 19
1030
0100
2000
0000
3002
0010
0100
0000
,  // measure 20
0103
0020
0000
1000
0000
0130
0010
0000
,  // measure 21
0002
0010
0000
0100
0003
0001
0010
0100
,  // measure 22
2000
0010
0000
0100
0000
0100
3200
0000
,  // measure 23
0320
0001
0000
0001
0000
0130
1000
0010
,  // measure 24
1002
0000
0000
0000
0010
1000
0100
0010
,  // measure 25
0100
0000
0000
1000
0010
0100
1000
0000
,  // measure 26
0003
0000
0000
0000
0000
0000
0000
0000
1000
0000
0000
0000
0000
0000
0000
0000
0000
0000
0000
0000
0200
0000
0000
0000
0000
0000
0000
0000
0000
0000
0000
0000
0000
0000
0000
0000
0000
0000
0000
0000
0000
0000
0000
0000
1000
0000
0000
0000
0000
0000
0000
0000
0000
0000
0000
0000
0000
0000
0000
0000
0000
0000
0000
0000
0000
0000
0000
0000
0010
0000
0000
0000
0000
0000
0000
0000
0000
0000
0000
0000
0000
0000
0000
0000
0000
0000
0000
0000
0000
0000
0000
0000
1000
0000
0000
0000
0000
0000
0000
0000
0000
0000
0000
0000
0000
0000
0000
0000
0000
0000
0000
0000
0000
0000
0000
0000
0000
0000
0000
0000
0001
0000
0000
0000
0000
0000
0000
0000
0000
0000
0000
0000
0000
0000
0000
0000
0000
0000
0000
0000
0000
0000
0000
0000
0000
0000
0000
0000
0000
0000
0000
0000
0000
0000
0000
0000
0000
0000
0000
0000
0000
0000
0000
0000
0000
0010
0000
0000
0300
0000
0000
0000
0000
0000
0000
0000
0000
0000
0000
0000
1000
0000
0000
0000
0000
0000
0000
0000
0010
0000
0000
0000
,  // measure 27
0000
0000
0000
0000
0000
0010
0000
0000
0000
0000
0000
0100
0000
0000
0000
0000
0000
0000
1000
0000
0000
0000
0000
0000
1000
0000
0000
0000
0000
0000
0001
0000
0000
0000
0000
0000
1000
0000
0000
0000
0000
0000
0001
0000
0000
0000
0000
0000
,  // measure 28
1000
0000
0001
0000
1000
0000
0001
0000
0110
0000
1000
0000
0100
0000
0010
0001
,  // measure 29
1000
0000
0001
0000
1000
0000
0000
0000
0010
0100
0001
0000
0010
0000
0100
1000
,  // measure 30
0001
0000
1000
0000
0100
0000
0010
0000
0001
0010
0001
0000
0010
0000
0100
1000
,  // measure 31
0100
0000
1000
0000
0010
0000
0000
0000
1000
0100
1000
0000
0100
0000
0010
0001
,  // measure 32
0010
0000
0001
0000
0002
0000
0000
0000
0013
1000
0100
0000
1000
0000
0001
1000
,  // measure 33
0100
0000
0010
0000
0001
0000
0100
0000
0010
1000
0010
0000
0100
0000
0001
0010
,  // measure 34
0001
0000
0010
0000
0001
0000
1000
0000
0100
0001
0100
0000
1000
0000
0001
1000
,  // measure 35
0010
0000
0100
0000
0001
0000
0010
0000
0100
0010
0001
0000
1000
0000
0100
1000
,  // measure 36
0100
0000
0010
0000
0001
0000
1000
0000
0010
1000
0100
1000
0100
1000
0000
0001
,  // measure 37
0000
0010
0001
0000
0100
0000
0001
0000
0100
0001
0010
0001
0010
0001
1000
0100
,  // measure 38
1000
0100
0010
0000
0200
0000
0310
0000
1001
0000
0110
0000
0001
0010
0000
0100
,  // measure 39
0000
1000
0100
0000
0010
0000
0000
0000
1000
0001
1000
0000
0001
0100
0000
0010
,  // measure 40
0000
1000
0100
0000
0010
0000
0001
0000
1000
0100
0010
0001
1000
0010
0000
0100
,  // measure 41
0001
1000
0001
0000
0010
0000
0100
0000
0001
0010
0100
1000
0001
0100
0000
0010
,  // measure 42
1000
0100
0010
0000
0200
0000
0010
0000
1300
0000
0001
0000
0010
0100
0000
1000
,  // measure 43
0000
0001
1000
0000
0001
0000
0000
0000
0020
0000
0032
0000
2003
0000
3200
0000
,  // measure 44
0310
0001
1000
0000
0100
0000
1001
0000
0110
0000
0000
0000
0000
0000
0000
0000
;
