#TITLE:Palette;
#SUBTITLE:;
#ARTIST:Tielsie;
#TITLETRANSLIT:Palette;
#SUBTITLETRANSLIT:;
#ARTISTTRANSLIT:;
#GENRE:;
#CREDIT:;
#BANNER:palette-bn.png;
#BACKGROUND:palettebg.png;
#LYRICSPATH:;
#CDTITLE:;
#MUSIC:Palette Stepmania.mp3;
#OFFSET:0.000000;
#SAMPLESTART:90.000000;
#SAMPLELENGTH:20.000000;
#SELECTABLE:YES;
#BPMS:0.000000=155.000000
;
#STOPS:191.250000=0.387100,
267.250000=0.096771,
267.750000=0.096771,
268.250000=0.096771,
268.500000=0.096771
;
#BGCHANGES:;
#KEYSOUNDS:;
#ATTACKS:;

//---------------dance-single - ----------------
#NOTES:
     dance-single:
     :
     Hard:
     9:
     0.617377,0.829128,0.920091,0.327608,0.379886,620.000000,488.000000,132.000000,47.000000,0.000000,0.000000,0.617377,0.829128,0.920091,0.327608,0.379886,620.000000,488.000000,132.000000,47.000000,0.000000,0.000000:
0000
0000
0000
0000
,
0000
0000
0000
0000
,
1000
0000
0000
0000
0001
0000
0000
0000
1000
0000
0000
0001
0000
0000
0100
0000
,
1000
0001
1000
0001
,
1000
0000
0000
0000
0010
0000
0000
0000
1000
0000
0000
0100
0000
0000
0001
0000
,
0000
1000
0000
0000
1000
0000
0000
1000
0000
0000
0010
0000
0000
0001
0000
0000
,
0100
0000
0000
0000
0100
0000
0000
0000
0100
0000
0000
1000
0000
0000
0100
0000
,
0000
0010
0000
0000
0010
0000
0000
0010
0000
0000
0100
0000
0000
0001
0000
0000
,
1000
0000
0000
0000
1000
0000
0000
0000
1000
0000
0000
0100
0000
0000
1000
0000
,
0000
0001
0000
0000
0010
0000
0000
0010
0000
0000
0100
0000
0000
0100
0000
0000
,
1000
0000
0000
0000
0100
0000
0000
0000
1000
0000
0000
0010
0000
0000
0001
0000
,
0000
0100
0000
0000
0100
0000
0000
1000
0000
0000
0010
0000
0000
0002
0000
0000
,
0000
0000
0000
0003
1000
0000
0000
0000
0100
0000
0000
0000
1000
0000
0000
0000
,
0020
0000
0002
0030
0103
0000
1000
0100
,
1000
0010
0001
0000
1000
0100
0001
0000
,
0010
1000
0100
0000
0100
1000
0100
0001
,
0010
0020
0230
1300
,
0001
0000
0010
0000
1000
0000
0001
0100
,
1000
0001
0010
0000
1000
1000
0100
0000
,
0001
0010
0000
0000
1000
0100
0002
0010
,
1003
1001
0001
1010
,
0100
0000
1000
0000
0100
0000
0001
0010
,
2000
3010
0001
0000
2000
3100
0100
0000
,
0002
0013
0100
0000
1010
0000
1001
0010
,
1000
0000
0002
0003
0002
0003
0020
0130
,
1000
0100
0001
0010
1000
0000
0001
0010
,
0100
1000
1000
0000
1000
0100
0001
0000
,
1000
0001
0010
0000
0100
1000
0100
0001
,
2000
0000
0000
0000
,
0000
0000
0000
0000
,
0000
0000
0000
0000
,
0000
0000
0000
0000
0000
0000
0000
0000
0000
0000
0000
0000
0000
0000
0000
3000
,
0110
0000
0000
0000
1001
0000
0000
0000
1001
0000
0000
1010
0000
0000
1100
0000
,
0000
1001
0000
0000
0101
0000
0000
1001
0000
0000
0101
0000
0000
1001
0000
0000
,
0101
0000
0000
0000
0101
0000
0000
0000
0101
0000
0000
1001
0000
0000
0101
0000
,
0000
0011
0000
0000
0011
0000
0000
0011
0000
0000
0011
0000
0000
0011
0000
0000
,
1100
0000
0000
0000
1100
0000
0000
0000
1010
0000
0000
1010
0000
0000
0011
0000
,
0000
0101
0000
0000
0101
0000
0000
0101
0000
0000
0101
0000
0000
0101
0000
0000
,
1100
0000
0000
0000
1010
0000
0000
0000
1001
0000
0000
1010
0000
0000
1100
0000
,
0000
0101
0000
0000
0110
0000
0000
1100
0000
0000
1010
0000
0000
0201
0000
0000
,
0000
0000
0300
0000
0011
0000
0000
0000
1100
0000
0000
1010
0000
0000
1010
0000
,
0000
0101
0000
0000
0101
0000
0000
0110
0000
0000
1010
0000
0000
1010
0000
0000
,
1010
0000
0000
0000
1001
0000
0000
0000
1001
0000
0000
1010
0000
0000
1100
0000
,
0000
0110
0000
0000
0110
0000
0000
0101
0000
0000
0011
0000
0000
1100
0000
0000
,
1010
0000
0000
0000
0110
0000
0000
0000
0110
0000
0000
1100
0000
0000
1100
0000
,
0000
0110
0000
0000
0011
0000
0000
0011
0000
0000
1100
0000
0000
1100
0000
0000
,
1001
0000
0000
0000
0011
0000
0000
0000
0011
0000
0000
0101
0000
0000
0101
0000
,
0000
0110
0000
0000
0110
0000
0000
1001
0000
0000
1001
0000
0000
1001
0000
0000
,
0210
0000
0320
0000
0230
0010
0320
0000
,
0032
0000
0023
0100
1030
0100
2000
3100
,
0010
0000
0002
0013
0100
0010
0020
0130
,
1000
0000
0001
0010
2000
3100
0001
0000
,
2000
0000
3200
0000
0320
0001
2030
0000
,
3002
0000
0023
1000
0130
1000
0200
0301
,
0001
0000
0200
1300
0000
0010
0200
0301
,
0010
0000
0000
0000
0000
0000
2000
0000
0000
3100
0000
0001
0100
0000
0001
0100
0000
0001
1000
0000
0000
0000
0000
0000
,
1100
0000
0000
0000
1010
0000
0000
0100
1000
0000
0010
0000
0100
0000
0000
0000
,
1001
0000
0000
0000
0001
0000
0000
0100
1000
0000
0100
0000
0001
0000
0000
0000
,
0101
0000
0000
0000
1100
0000
0000
0010
1000
0000
0100
0000
0001
0000
0000
1000
,
0001
0000
0010
0000
0001
0010
0001
0000
1000
0000
0100
1000
0001
0000
0010
0000
,
0100
0000
1000
0000
0001
0000
0100
0000
0010
0000
0001
0000
0001
0000
0000
0100
,
0010
1000
0001
0010
0100
1000
0100
0001
,
0100
0000
0001
0000
1000
0000
0010
0001
0010
0000
1000
0000
0001
0010
0001
0000
,
0100
0000
0010
0001
0010
0000
0100
0000
1000
0000
0001
0000
0010
0000
0100
0001
,
1000
0000
0100
0000
0010
0001
0010
0001
0010
0000
1000
0000
1000
0000
0000
0100
,
1000
0000
0010
0000
0001
0000
1000
0000
0001
0000
0100
1000
0010
0000
0000
0001
,
1000
0100
0000
0010
1000
0000
0100
0000
0001
0100
0001
0100
1001
0000
1001
0000
,
1001
0011
0100
1000
1001
0000
1001
0000
,
1001
0000
0000
0001
0010
0000
0100
0000
0001
0100
0000
0000
1010
0000
0000
0100
,
0001
0000
0100
0000
0100
0001
0000
0000
0101
0000
0000
0000
0110
0000
0000
0000
,
1100
0000
0000
0100
0001
0000
0010
0000
0010
0001
0000
0000
0110
0000
0000
1000
,
0010
0000
1000
0000
0100
0001
0000
0000
0011
0000
0000
0000
0001
0000
0000
0000
,
1001
0000
0000
0001
0010
0000
0100
0000
0001
0100
0000
0000
1001
0000
0000
0100
,
1000
0000
0100
0000
0100
0010
0000
0000
1001
0000
0000
0000
0101
0000
0000
0000
,
0011
0000
0000
0011
1000
0000
0100
0000
0010
0001
0000
0001
0010
0000
0010
1000
,
0000
0001
0100
0000
0010
1000
0000
0000
0000
0000
0020
0000
0130
0000
0000
0000
,
1001
0000
0000
0010
1000
0000
0001
0000
0100
0001
0000
0000
1010
0000
0000
0100
,
0010
0000
0010
0000
1000
0100
0000
0000
0101
0000
0000
0000
1010
0000
0000
0000
,
1001
0000
0000
1000
0100
0000
0010
0000
1000
1000
0000
0000
0110
0000
0000
0001
,
1000
0000
0100
0000
1000
0010
0000
0000
0101
0000
0000
0000
1010
0000
0000
0000
,
0101
0000
0000
0100
0100
0000
0010
0000
1000
0001
0000
0000
1010
0000
0000
0100
,
0010
0000
1000
0000
1000
0100
0000
0000
1001
0000
0000
0000
1001
0000
0000
0000
,
1001
0000
0000
0101
0000
0000
0101
0000
0000
0011
0000
0000
0011
0000
0000
0011
,
0000
0000
0110
0000
0000
1100
0000
0000
2002
0000
0000
0000
0000
0000
0000
0000
,
0000
0000
0000
0000
,
0000
0000
0000
0000
0000
0000
0000
3003
0202
0000
0000
0000
0000
0000
0000
0000
,
0000
0000
0000
0000
0000
0000
0000
0303
2020
0000
0000
0000
0000
0000
0000
3030
,
2000
0200
0000
0000
0000
0000
0000
0000
0000
0000
0000
0000
0000
0000
0000
0000
,
0000
0000
0000
0000
0000
0000
0000
0000
0000
0000
0000
0000
0000
0000
0000
3300
,
0200
0020
0000
0000
0000
0000
0000
0330
0002
0020
0000
0000
0000
0000
0000
0000
,
0000
0000
0000
0000
,
0000
0000
0000
0000
0000
0000
0000
0033
1001
0000
0000
0000
0000
0000
0000
0000
;

//---------------dance-single - ----------------
#NOTES:
     dance-single:
     :
     Medium:
     7:
     0.466020,0.637791,0.634305,0.257904,0.000000,468.000000,377.000000,91.000000,37.000000,0.000000,1.000000,0.466020,0.637791,0.634305,0.257904,0.000000,468.000000,377.000000,91.000000,37.000000,0.000000,1.000000:
0000
0000
0000
0000
,
0000
0000
0000
0000
,
0000
0000
0000
0000
,
1000
1001
0001
1001
,
1000
1100
0100
1010
,
0001
1001
0001
0011
,
0001
0101
1100
1010
,
0110
1000
1100
1000
,
1010
0001
0101
0001
,
0011
1100
1000
1010
,
0101
1001
0001
1000
,
0010
1000
0100
0002
,
0000
1003
0100
1000
,
0020
0000
0031
0000
0200
0000
1300
0100
,
1000
0001
0000
0000
0010
1000
0000
0000
,
0100
1000
0000
0000
0001
0010
0001
1000
,
0000
1000
0100
0001
,
0020
0000
2030
0000
3100
0000
0001
0010
,
0001
1000
0000
0000
1000
0100
0000
0000
,
0010
0100
0000
0000
0010
1000
0020
0000
,
0031
0101
1000
0100
,
0002
0000
0023
0000
0032
0000
0103
0010
,
1000
0010
1000
0000
0100
1000
0001
0000
,
0010
0100
0001
0000
0010
0100
0010
1000
,
0100
0110
0100
1000
,
0020
0000
0230
0000
1300
0000
1000
0010
,
1000
0100
0000
0000
0001
0010
0000
0000
,
1000
0100
0000
0000
1000
0010
2000
0000
,
0000
0000
0000
0000
,
0000
0000
0000
0000
,
0000
0000
0000
0000
,
0000
0000
0000
3000
,
1001
0011
0101
0001
,
0100
0101
0001
0010
,
1010
1010
1100
1000
,
0001
0101
0100
1000
,
1100
1010
0101
1000
,
0100
0110
0001
1000
,
1010
0110
0011
1100
,
1000
0010
0001
0100
,
0000
0000
1001
0000
1001
0000
1000
0010
,
1000
0000
1100
0000
0001
1000
0001
0000
,
0101
0000
0101
0000
1100
0000
1000
0010
,
0100
0000
0001
0000
0001
0100
0001
0000
,
0110
0000
0110
0000
1100
0000
1000
0010
,
0001
0000
0110
0000
0100
0001
1000
0000
,
1100
0000
1100
0000
0011
0000
0000
0101
,
0000
0000
1001
0000
0000
0110
0000
0000
,
1100
0001
0010
0100
,
2000
0000
3100
0000
0001
0010
1000
0100
,
0000
0000
0001
0010
0100
0000
0010
1000
,
0000
0000
0100
0010
0001
0010
0000
0000
,
2000
3200
0302
0023
,
2030
0000
3200
0000
1300
0100
0001
0010
,
0000
0000
0001
0100
0000
0000
0001
0010
,
0000
0000
1000
0010
0200
0000
1300
0000
,
1001
0001
0010
0011
,
1000
0000
1100
0000
0001
0010
0002
0000
,
1003
0000
1000
0100
1000
0010
0202
0000
,
0303
0000
0100
1000
0010
0001
0101
0000
,
0010
0000
1000
0100
0001
0000
0012
0000
,
0013
0000
0100
0000
1000
0100
0010
1000
,
0100
0000
0002
0010
1003
0000
0110
1000
,
0010
0000
0001
1000
0010
0000
1000
0100
,
0001
0010
0001
0000
1000
0110
1000
0000
,
0001
0010
0001
0000
0100
0001
0100
0000
,
1000
0010
1000
0000
0100
1000
1001
0000
,
1001
0000
0010
1000
1100
0000
1001
0000
,
1001
0000
1001
0010
0101
0000
0101
0000
,
0101
0000
0001
0100
1010
0000
1010
0001
,
1010
1100
0011
1100
,
1001
0000
0110
0100
1100
0000
1010
0000
,
0002
0000
0203
0000
1300
0000
1100
0010
,
0001
0101
0002
0023
,
1030
0100
1000
0001
0010
0001
0100
0001
,
1000
0010
1000
0100
0000
0002
0013
0000
,
0001
1000
0010
1000
0100
0001
0010
0001
,
0010
0001
0100
1000
0100
0000
0101
0000
,
1000
0010
1000
0100
0001
1000
0001
1000
,
0001
0100
0010
0100
0010
0000
0011
0000
,
0001
0100
1000
0100
0010
1000
0010
1000
,
0010
0100
0001
0100
0001
0000
0101
0000
,
0110
0000
0000
1010
0000
0000
0101
0000
,
0000
0110
0000
0000
2002
0000
0000
0000
,
0000
0000
0000
0000
,
0000
0000
0000
0003
0020
0000
0000
0000
,
0000
0000
0000
0000
,
3002
0000
0000
0030
0200
0003
0000
0000
,
0000
0000
0000
0000
,
2000
0300
0020
0000
,
0000
0000
0000
0000
,
0000
3030
1001
0000
;

//---------------dance-single - ----------------
#NOTES:
     dance-single:
     :
     Easy:
     5:
     0.352503,0.574012,0.467016,0.285786,0.000000,354.000000,287.000000,67.000000,41.000000,0.000000,0.000000,0.352503,0.574012,0.467016,0.285786,0.000000,354.000000,287.000000,67.000000,41.000000,0.000000,0.000000:
0000
0000
0000
0000
,
0000
0000
0000
0000
,
1000
0000
0001
0000
,
0010
0001
0010
0001
,
1000
0100
1000
0000
,
0010
0010
0010
0010
,
0001
0100
0001
0000
,
0100
0100
0100
0100
,
1000
0100
1000
0000
,
0010
0010
0010
0010
,
0001
1000
0001
0000
,
1000
1000
0001
0001
,
0000
0010
0100
0010
,
2000
0000
3200
0000
,
0301
0000
1000
0000
,
0010
0000
0002
0103
,
0000
1000
0010
1000
,
0002
0103
2000
3100
,
0020
0000
2030
0000
,
3200
0000
0301
0010
,
1000
0100
1000
0010
,
0002
0103
2000
3100
,
0001
0000
0010
0000
,
0100
0000
1000
0100
,
1000
0010
0001
0100
,
0001
0010
1000
0100
,
1000
0000
0010
0000
,
0100
0000
0001
0000
,
2000
0000
0000
0000
,
0000
0000
0000
0000
,
0000
0000
0000
0000
,
0000
0000
0000
0000
,
3001
0010
1001
0010
,
0100
1000
0100
1000
,
1000
0010
1001
0001
,
0010
0100
0100
0100
,
0010
0100
0110
0010
,
0001
0100
0001
0100
,
1001
1000
1010
0001
,
0100
1001
0100
0011
,
2000
3001
1001
0010
,
0110
1000
0100
0010
,
0110
0001
0011
0100
,
1000
0100
1000
0010
,
0110
1001
0001
0010
,
0100
1000
0100
0010
,
1010
0101
0011
1001
,
1100
1010
0001
2000
,
3100
0001
0010
0001
,
1000
0100
2000
3200
,
0300
0020
0030
0002
,
0003
2000
3100
1000
,
0001
0010
1000
0100
,
1000
0100
0001
0020
,
0030
0200
0300
0020
,
0030
2000
3020
0130
,
2000
3200
0320
0032
,
0023
0032
1003
1100
,
0001
0011
1000
0110
,
0001
0020
1030
1001
,
0001
0011
0001
0110
,
1000
1100
0010
0002
,
0013
0200
1300
2100
,
3001
0021
1030
1000
,
0100
0001
0100
1000
,
0010
0001
0100
1000
,
0010
0100
0001
2000
,
0000
0000
0000
0000
0000
0000
0000
0000
0000
0000
0000
0000
0000
3000
0000
0000
0000
0000
0000
0000
0000
0000
0000
0000
0000
0000
0000
0000
0000
0000
0000
0000
0000
0000
0000
0000
0000
0000
0000
0000
0000
0000
0000
0000
0000
0000
0000
0000
0010
0000
0000
0000
0000
0000
0000
0000
0000
0000
0000
0000
0000
0000
0000
0000
0000
0000
0000
0000
0000
0000
0000
0000
0000
0000
0000
0000
0000
0000
0000
0000
0000
0000
0000
0000
0000
0000
0000
0000
0000
0000
0000
0000
0000
0000
0000
0000
1001
0000
0000
0000
0000
0000
0000
0000
0000
0000
0000
0000
0000
0000
0000
0000
0000
0000
0000
0000
0000
0000
0000
0000
0000
0000
0000
0000
0000
0000
0000
0000
0000
0000
0000
0000
0000
0000
0000
0000
0000
0000
0000
0000
0000
0000
0000
0000
0001
0000
0000
0000
0000
0000
0000
0000
0000
0000
0000
0000
0000
0000
0000
0000
0000
0000
0000
0000
0000
0000
0000
0000
0000
0000
0000
0000
0000
0000
0000
0000
0000
0000
0000
0000
0000
0000
0000
0000
0000
0000
0000
0000
0000
0000
0000
0000
,
1001
0001
0011
0101
,
0011
0101
1010
1000
,
1010
1000
0110
0011
,
0110
0011
1010
0100
,
1010
0100
0101
0011
,
0101
0011
0101
1001
,
0011
1010
1100
0101
,
0010
0001
0000
1000
,
0100
0010
0001
0101
,
0101
0101
1000
0001
,
0010
0100
1000
1010
,
1010
1010
0110
0001
,
1001
0010
0110
0100
,
0100
1100
1001
0011
,
0101
1010
1100
0001
,
0010
1000
0200
0000
,
0000
0000
0000
0000
,
0000
2300
0000
0000
,
0000
0000
0000
0000
,
3002
0000
0023
0000
,
0000
0000
0000
0000
,
0230
0000
2300
0000
,
0000
0000
0000
0000
,
0000
0000
3001
0000
;

//---------------dance-single - ----------------
#NOTES:
     dance-single:
     :
     Beginner:
     4:
     0.262883,0.446453,0.174260,0.404283,0.000000,264.000000,239.000000,25.000000,58.000000,0.000000,0.000000,0.262883,0.446453,0.174260,0.404283,0.000000,264.000000,239.000000,25.000000,58.000000,0.000000,0.000000:
// measure 0
0000
0000
0000
0000
,  // measure 1
0000
0000
0000
0000
,  // measure 2
0000
0000
0000
0000
,  // measure 3
0000
0000
0000
0000
,  // measure 4
1000
1000
1000
0000
,  // measure 5
0001
0000
0001
0000
,  // measure 6
0010
0010
0010
0000
,  // measure 7
0010
0000
0100
0000
,  // measure 8
1000
0100
1000
0000
,  // measure 9
0001
0000
0100
0000
,  // measure 10
0001
0010
0010
0000
,  // measure 11
1000
0000
0001
0000
,  // measure 12
0000
1000
0010
0000
,  // measure 13
0100
0000
0001
0010
,  // measure 14
0001
0000
0100
0000
,  // measure 15
1000
0000
0010
0001
,  // measure 16
0100
1000
0100
0000
,  // measure 17
0001
0010
0000
0010
,  // measure 18
1000
0000
0100
0000
,  // measure 19
0100
0000
0001
1000
,  // measure 20
0001
1001
1000
0100
,  // measure 21
0010
0001
0010
0100
,  // measure 22
1000
0000
0100
0000
,  // measure 23
0010
0000
0001
0100
,  // measure 24
0000
0010
1000
0100
,  // measure 25
1000
0001
0100
0001
,  // measure 26
1000
0000
0010
0000
,  // measure 27
0100
0000
0001
0010
,  // measure 28
2000
0000
0000
0000
,  // measure 29
0000
0000
0000
0000
,  // measure 30
0000
0000
0000
0000
,  // measure 31
0000
0000
0000
3000
,  // measure 32
1001
0001
1001
0000
,  // measure 33
0001
1000
0000
0000
,  // measure 34
1000
1000
1010
0000
,  // measure 35
0010
0100
0000
0000
,  // measure 36
1000
1000
0011
0000
,  // measure 37
0100
0100
0000
0000
,  // measure 38
1010
0010
0110
0000
,  // measure 39
0001
0011
0001
1001
,  // measure 40
0000
1000
1001
0001
,  // measure 41
0100
1100
0010
0001
,  // measure 42
1000
0001
1001
0010
,  // measure 43
0001
0101
0100
1000
,  // measure 44
0101
1100
1010
0001
,  // measure 45
0010
0110
1000
0100
,  // measure 46
1000
1000
1000
0000
,  // measure 47
0000
0100
0000
0001
,  // measure 48
1001
0010
0100
0010
,  // measure 49
0001
0010
2000
3200
,  // measure 50
0300
0002
0003
0020
,  // measure 51
0030
2000
3100
0000
,  // measure 52
1000
0010
0100
0100
,  // measure 53
0001
1000
0200
0320
,  // measure 54
0030
0200
0300
0002
,  // measure 55
0003
2000
0020
3030
,  // measure 56
1001
0010
0001
0100
,  // measure 57
1000
0100
0001
0200
,  // measure 58
1300
0200
0301
0020
,  // measure 59
0031
0020
2030
3100
,  // measure 60
0001
0100
0001
0100
,  // measure 61
1000
0010
2000
3200
,  // measure 62
0300
0002
0003
0200
,  // measure 63
0300
2000
0000
3020
,  // measure 64
0000
0001
0000
0100
,  // measure 65
0000
1000
0000
0100
,  // measure 66
0000
1000
0000
0030
,  // measure 67
0000
0010
2001
0001
,  // measure 68
0001
0001
0010
0010
,  // measure 69
0001
0010
0100
0100
,  // measure 70
0100
0010
0100
0001
,  // measure 71
0001
0001
3200
0301
,  // measure 72
0020
0031
2000
3100
,  // measure 73
0200
0301
0002
1000
,  // measure 74
1003
0000
0000
0100
,  // measure 75
0000
1000
0000
1001
,  // measure 76
2000
3020
0032
0203
,  // measure 77
0320
2030
3200
2300
,  // measure 78
3020
0230
0302
0023
,  // measure 79
0032
0023
2030
3200
,  // measure 80
0302
0203
0302
2003
,  // measure 81
3020
2030
3002
0010
,  // measure 82
0103
0000
0000
0011
,  // measure 83
0000
1100
1002
0000
,  // measure 84
0000
0000
0000
0000
,  // measure 85
0000
0203
0000
0000
,  // measure 86
0000
0000
0000
0000
,  // measure 87
0320
0000
2030
0000
,  // measure 88
0000
0000
0000
0000
,  // measure 89
3200
0000
0320
0000
,  // measure 90
0000
0000
0000
0000
,  // measure 91
0000
0000
0000
0030
1100
0000
0000
0000
;
