#TITLE:Objection (Tango);
#SUBTITLE:;
#ARTIST:Shakira;
#TITLETRANSLIT:;
#SUBTITLETRANSLIT:;
#ARTISTTRANSLIT:;
#GENRE:;
#CREDIT:;
#BANNER:objection.png;
#BACKGROUND: objection-bg.png;
#LYRICSPATH:;
#CDTITLE:;
#MUSIC:Objection (Tango).ogg;
#OFFSET:0.050091;
#SAMPLESTART:41.050091;
#SAMPLELENGTH:21.000000;
#SELECTABLE:YES;
#BPMS:0.000000=179.500000
;
#STOPS:
;
#BGCHANGES:;
#KEYSOUNDS:;
#ATTACKS:;

//---------------dance-single - ----------------
#NOTES:
     dance-single:
     :
     Beginner:
     2:
     0.297179,0.404320,0.226795,0.000000,0.000000,266.000000,237.000000,29.000000,0.000000,0.000000,0.000000,0.297179,0.404320,0.226795,0.000000,0.000000,266.000000,237.000000,29.000000,0.000000,0.000000,0.000000:
1000
0000
0000
0000
,
0001
0000
0010
0000
,
1000
0000
0000
0000
,
0100
0000
0001
0000
,
0010
0000
0000
0000
,
0100
0000
0000
0000
,
1001
0000
0000
0000
,
0011
0000
0000
0000
,
1100
0000
0000
0000
,
1000
0000
0100
0000
,
0001
0010
0001
0010
,
1000
0000
0000
0000
,
0001
0000
0000
0000
,
0100
0001
0100
0000
,
1000
0100
1000
0100
,
0001
0000
1000
0000
,
0100
0000
0010
0000
,
0001
0000
0000
0000
,
1000
0100
1000
0001
,
0001
0000
0000
0000
,
1000
0000
0001
0000
,
1000
0000
0000
0000
,
0100
0001
0100
0001
,
1001
0000
0110
0000
,
1100
0000
1000
0001
,
1000
0000
0001
0000
,
0010
0100
1000
0100
,
1001
0000
0011
0000
,
0100
0000
0010
0001
,
0010
0000
0100
1000
,
0100
0001
0010
1000
,
1001
0000
0011
0000
,
0110
0000
1010
1010
,
0001
1000
0100
0001
,
0100
1000
0100
1000
,
1001
0000
0011
0000
,
0101
0000
0110
0000
,
1000
0100
1000
0100
,
0001
0100
1000
0100
,
1000
0000
0001
0000
,
1000
0001
1000
0001
,
0010
0000
0100
1000
,
0100
0000
0001
0000
,
1000
0000
0100
1000
,
0100
1000
0100
0000
,
0001
0000
0010
0000
,
1000
0000
0100
0010
,
0100
0000
0001
0000
,
1000
0000
0100
0000
,
0010
0000
0100
0000
,
0010
0000
0100
0000
,
1001
0000
1001
0000
,
1001
0000
1001
0000
,
1000
0000
0100
0000
,
0110
0000
0001
0000
,
1000
0000
0010
0000
,
1001
0000
0100
0000
,
1000
0000
0100
0000
,
0001
0000
0010
0000
,
0100
0000
1000
0000
,
0100
0001
0100
0001
,
1000
0000
0001
0000
,
0000
0000
1000
0000
,
0010
0000
1000
0000
,
0100
1000
0100
1000
,
0001
0010
0001
0010
,
1000
0000
0001
0000
,
1000
0100
1000
0100
,
1001
0000
0010
0000
,
0001
0100
0001
0100
,
1000
0000
0100
0000
,
1000
0000
0001
0000
,
0010
1000
0100
1000
,
0100
0001
0010
1000
,
1001
0000
0011
0000
,
0100
0000
1000
0000
,
0100
1000
0100
1000
,
0010
0010
0010
0100
,
1000
0000
0001
0000
,
0110
0000
0100
0000
,
0001
1000
0001
0000
,
0010
0100
1000
0100
,
0001
0000
1000
0000
,
0001
0000
0110
0000
,
1000
0000
0100
0000
,
1000
0100
1000
0100
,
0001
1000
0000
1000
,
0000
0001
0000
0001
,
0110
0100
1000
0100
,
0001
1000
0001
1000
,
1000
0000
0100
0000
,
0001
0010
0100
1000
,
0100
0000
1000
0000
,
0001
0000
1000
0000
,
0001
0000
0000
0000
;

//---------------dance-single - ----------------
#NOTES:
     dance-single:
     :
     Easy:
     5:
     0.475934,0.675691,0.625640,0.062564,0.000000,426.000000,346.000000,80.000000,8.000000,0.000000,0.000000,0.475934,0.675691,0.625640,0.062564,0.000000,426.000000,346.000000,80.000000,8.000000,0.000000,0.000000:
1000
0000
0110
1000
,
0100
1000
0001
0010
,
1000
0000
0001
0000
,
0010
0001
0100
1000
,
1000
0000
0001
1000
,
0001
1000
0100
0010
,
1001
0000
0010
0000
,
2000
0000
0001
3001
,
0002
0000
0010
0000
,
1003
0100
1000
0100
,
0001
0010
0001
0010
,
0020
0000
0001
0000
,
0230
1000
0000
1300
,
0001
1000
0001
1000
,
0010
1000
0100
0001
,
1001
0010
1000
0100
,
0110
1000
0110
1000
,
0001
1000
0100
0001
,
0010
1000
0010
1000
,
1001
0010
0100
1000
,
0110
0001
0010
1000
,
0100
1000
0100
1000
,
1001
0110
1001
0110
,
0011
0000
1000
0100
,
1001
0010
1000
0100
,
1001
0011
0110
0110
,
1000
0100
1000
0100
,
0001
0010
1000
0100
,
1000
0001
1000
0001
,
0010
0100
1000
0100
,
0010
0100
1000
0001
,
1000
0100
0010
0100
,
0001
0010
0001
0100
,
1000
0100
1000
0010
,
0001
1000
0001
1000
,
1001
0010
0110
1000
,
1100
1000
0011
1000
,
0100
0001
0010
0001
,
1000
0001
1000
0100
,
1000
1000
0001
0001
,
0010
0001
0010
0001
,
1000
0100
1000
0100
,
1000
0001
1000
0001
,
1000
0000
0001
0010
,
0001
0100
1000
0100
,
1000
0001
1000
0000
,
0100
1000
0100
0010
,
0001
0001
0001
0001
,
1000
1000
1000
1000
,
0110
0000
0110
0000
,
0110
0110
0110
0110
,
1001
0000
0110
0000
,
0011
0000
1100
0000
,
1010
0000
0101
0000
,
1001
0000
0110
0000
,
0011
0000
0011
0000
,
1100
0000
1100
0000
,
1000
0000
0001
0000
,
1000
0100
1000
0001
,
0011
0000
1001
0000
,
0110
1000
0001
1000
,
1001
1001
1001
1001
,
0110
0110
0110
0110
,
0011
0000
0011
0011
,
1100
0000
1100
1100
,
1001
0000
1001
1001
,
1000
0100
1000
0100
,
0001
0010
1000
0010
,
1000
1001
1001
1001
,
0001
1001
1001
1001
,
1000
0100
1000
0010
,
1000
0001
1000
0100
,
0100
0100
0100
0001
,
1000
0001
1000
0010
,
1000
0100
0001
1000
,
0010
1000
0010
0001
,
0100
0001
0100
0010
,
0010
0100
0100
0001
,
0100
0000
0001
1000
,
0010
0000
1000
0100
,
1000
0001
1000
0000
,
0001
1000
0001
1000
,
0100
1000
0110
1000
,
1001
0010
1000
0010
,
0110
0001
0010
0100
,
1000
0100
1000
0010
,
1000
1001
0110
0011
,
0010
1000
0100
1000
,
0001
1000
0001
1000
,
0001
0010
1000
0100
,
1100
1000
1001
0010
,
1000
0110
0100
0101
,
0010
0011
0100
1100
,
1000
1001
0001
0101
,
2000
3100
0002
0013
,
0200
0310
2000
3001
,
1001
0000
0000
0000
;

//---------------dance-single - ----------------
#NOTES:
     dance-single:
     :
     Medium:
     7:
     0.539615,0.661615,0.281538,0.046923,0.000000,483.000000,447.000000,36.000000,6.000000,0.000000,0.000000,0.539615,0.661615,0.281538,0.046923,0.000000,483.000000,447.000000,36.000000,6.000000,0.000000,0.000000:
1000
0000
0000
0100
1000
0000
0001
0000
,
0000
1000
0000
0001
0010
0000
0100
0000
,
1001
0000
0000
1000
0100
0000
1000
0000
,
0000
0001
0010
0100
,
1000
0000
0000
0100
1000
0000
0001
0000
,
0000
1000
0001
1000
0001
1000
0001
1000
,
1000
0100
1000
0100
,
1002
0000
0010
0000
0100
0000
1003
0100
,
1000
0001
1000
0001
,
1000
0001
1000
0001
0000
1000
0001
1000
,
0000
1000
0000
1000
0100
0000
0010
0000
,
0001
0000
1000
0000
,
0100
1000
0000
0100
1000
0000
0001
0000
,
1000
0000
0001
1000
0000
0001
0000
0010
,
0000
0100
0000
0100
0100
1000
0100
0000
,
0001
0000
1000
0001
1000
0000
0001
0000
,
2000
3100
0020
0130
,
2002
3003
0001
0100
,
1000
0100
1000
0100
0000
0001
0000
2000
,
0000
3001
0100
1000
,
0100
0010
0001
1000
,
1001
1001
1001
1001
,
1000
0100
1000
0100
1000
0100
1000
0100
,
1001
0001
1000
1001
,
0010
0010
0010
0100
,
1000
0000
0100
1000
0100
1000
0100
0000
,
0001
0001
1000
1000
,
0100
1000
0010
1000
,
0100
0001
0100
1000
,
1001
0010
0100
1000
,
0100
0010
0010
0100
,
0001
1000
0001
0000
1000
0000
1000
0000
,
1000
0001
1000
0000
0100
0000
0010
0000
,
0001
0010
0001
0110
,
0110
0100
1000
0100
,
1000
0000
0001
1000
0001
0000
1000
0000
,
1000
0000
0110
1000
0010
0000
0100
0000
,
1000
0100
1000
0100
,
1000
0000
0001
0000
1000
0001
0000
1000
,
0001
1000
1000
1000
,
1000
0000
0100
1000
0100
0000
0001
0000
,
1000
0000
0001
0000
1000
0010
0000
1000
,
0000
0001
0000
1000
0000
0100
1000
0000
,
0001
1000
0001
1000
,
0110
1000
0100
1000
,
0001
0000
0010
0000
0100
0000
1000
0100
,
1000
0000
0000
0001
0000
0000
1000
0000
,
0010
0000
0010
1000
,
0100
0000
0100
1000
,
0001
1000
0001
1000
,
0001
1000
0001
1000
0001
1000
0001
1000
,
1001
0000
1001
0000
,
1001
0000
0000
0000
1001
0000
0010
0001
,
0010
0001
1000
0100
1000
0100
1000
0001
,
1000
0001
1000
0001
0010
0001
0010
0001
,
0100
0000
0001
0100
0000
1000
0100
1000
,
0001
0000
1000
0001
0000
1000
0010
1000
,
0010
0000
0000
0100
1000
0100
0000
0001
,
1000
0001
1000
0000
0100
1000
0100
0001
,
0010
1000
0000
0100
0000
1000
0001
1000
,
0001
1000
0001
1000
0001
1000
0001
1000
,
1001
1001
1001
1001
,
0010
1000
0010
0000
0100
0000
0100
0000
,
0001
0100
0001
0000
0001
0000
0001
0000
,
0011
0001
1001
1000
,
1001
1000
1001
1000
,
1000
0100
1000
0100
1000
0001
1000
0001
,
1000
0000
0001
1000
0000
0001
1000
0000
,
1000
0000
0100
0000
1000
0010
1000
0001
,
1000
0001
1000
1000
,
0001
1000
0000
0001
0010
0001
0100
0000
,
1100
0000
1000
0100
0000
1000
0001
0000
,
1000
1001
1001
1001
,
0001
0010
0100
1000
,
1000
0100
0000
1000
0001
1000
0000
0001
,
1000
0000
0001
0010
0000
0100
1000
0000
,
0100
1000
0001
1000
,
0001
0001
0010
0010
,
0100
0000
1000
0100
1000
0001
1000
0001
,
1000
0000
0001
1000
0000
0001
1000
0000
,
1000
1100
1100
0010
,
0001
0000
1000
0000
0001
0000
1000
0001
,
0000
0000
0001
1000
1000
0000
1001
0000
,
1000
0001
1000
1001
,
0010
1000
0100
1000
,
0100
0000
0001
0000
0100
1000
0100
1000
,
0001
1000
0000
1000
,
0000
0000
1000
0000
0000
0001
0010
1000
,
0000
1000
0000
1000
0000
0100
0001
0000
,
1000
0000
0001
1000
0001
1000
0001
1000
,
1001
0000
0010
0000
1000
0000
0100
0100
,
0000
0100
0000
1000
0000
0001
0000
1000
,
0000
0000
0000
0010
0000
0010
0000
0010
,
0000
1000
0001
1000
0001
1000
0001
1000
,
1001
0000
0000
0000
;

//---------------dance-single - ----------------
#NOTES:
     dance-single:
     :
     Hard:
     9:
     0.427893,0.625689,0.242436,0.930640,0.105577,383.000000,352.000000,31.000000,119.000000,0.000000,0.000000,0.427893,0.625689,0.242436,0.930640,0.105577,383.000000,352.000000,31.000000,119.000000,0.000000,0.000000:
// measure 0
1001
0000
0001
0010
0001
0000
2000
3100
,  // measure 1
0000
0002
0000
0103
2000
0000
3002
0003
,  // measure 2
1001
0000
1000
0001
0010
0000
0001
0000
,  // measure 3
1000
0000
0202
0303
0022
0033
2020
3030
,  // measure 4
1001
0000
0010
0100
0020
0000
0031
0000
,  // measure 5
0100
0000
0100
1000
0100
0000
0001
0000
,  // measure 6
1000
0001
1000
0001
1000
0001
1000
0001
,  // measure 7
1000
0000
0000
0100
0000
0000
0010
0000
0000
0100
0000
0000
0010
0000
0000
0000
0001
0000
0000
0000
0000
0010
0000
0000
,  // measure 8
2000
0000
0000
0000
0100
0000
3000
0000
0000
0001
0000
0000
1000
0000
0000
0000
0000
0000
0100
0000
0000
0010
0000
0000
,  // measure 9
1000
0100
1000
0001
0010
0001
1000
0200
,  // measure 10
0000
0320
0000
0130
0200
0000
0302
0000
,  // measure 11
1003
0000
0000
0000
0000
0000
1000
0000
0000
0100
0000
0000
1000
0000
0000
0000
0001
0000
0000
0000
0000
0010
0000
0000
,  // measure 12
0002
0000
0000
0000
1003
0000
0000
0000
0000
0100
0000
0000
0002
0000
0000
0000
0000
0000
1003
0000
0000
0100
0000
0000
,  // measure 13
2000
0100
3100
0002
0010
0013
2002
0000
,  // measure 14
3003
0002
0000
1003
0200
0000
0320
0000
,  // measure 15
1030
0100
1000
0100
0002
0000
2003
3000
,  // measure 16
2000
3001
0200
1300
,  // measure 17
0110
0000
0010
0000
0011
0000
0001
1000
,  // measure 18
0001
0020
0000
0130
0000
1000
0000
0002
,  // measure 19
1003
0001
0020
0001
,  // measure 20
2030
0000
0100
3000
0200
0000
0010
0300
,  // measure 21
1001
1001
1001
1001
,  // measure 22
0001
0010
0001
0010
0001
0010
0001
0010
,  // measure 23
0001
0000
0000
0000
0100
0000
0000
0000
0000
0001
0000
0000
1000
0000
0000
0000
0100
0000
0000
0000
0000
0010
0000
0000
,  // measure 24
1000
0000
0000
0100
1000
0000
0200
0000
0000
0000
0320
0000
0000
0000
0030
0000
,  // measure 25
1000
0000
1001
0000
0001
0001
1000
1000
,  // measure 26
1000
0000
1100
0000
0100
0000
0110
0010
,  // measure 27
1000
0000
0000
0000
0100
0000
0000
0000
0000
0100
0000
0000
0100
0000
0000
0000
0001
0000
0000
0000
0000
0100
0000
0000
,  // measure 28
2000
0000
0010
3002
0000
0203
0000
0000
,  // measure 29
0300
0000
0010
0000
1000
0100
1000
0100
,  // measure 30
0001
1001
1000
0110
,  // measure 31
1000
0000
0000
0000
0010
0000
0000
0000
0000
1000
0000
0000
0001
0000
0000
0000
0010
0000
0000
0000
0000
0100
0000
0000
,  // measure 32
0001
0000
0000
0010
0001
0000
0020
0000
0000
0000
0230
0000
0000
0000
0300
0000
,  // measure 33
0001
0000
1001
0000
1000
1000
0001
0001
,  // measure 34
0001
0000
0011
0000
0010
0000
0110
0100
,  // measure 35
0001
0000
0000
0000
0010
0000
0000
0000
0000
0010
0000
0000
0010
0000
0000
0000
1000
0000
0000
0000
0000
0010
0000
0000
,  // measure 36
0002
0000
0100
2003
0000
3020
0000
0000
,  // measure 37
0030
0000
0100
0000
0001
0010
0001
0010
,  // measure 38
1000
1001
0001
0110
,  // measure 39
F000
0000
0002
0000
2003
0000
00F0
300F
,  // measure 40
00F0
0F00
00F0
0200
0000
0002
0000
0303
,  // measure 41
0000
0000
000F
0000
00F0
0200
0000
0300
,  // measure 42
0002
0000
0000
2003
0000
0000
3020
0000
,  // measure 43
0230
030F
0020
F030
,  // measure 44
2000
0000
3F00
0000
0002
0000
0F00
0003
,  // measure 45
2000
3200
0320
0032
,  // measure 46
F003
0F00
F000
0F00
0F00
00F0
0F00
00F0
,  // measure 47
F000
000F
000F
F00F
,  // measure 48
F000
0F00
F000
0F00
,  // measure 49
000F
00F0
000F
0000
F000
0F00
F000
0000
,  // measure 50
000F
F000
000F
F000
000F
0000
F000
0000
,  // measure 51
F00F
0000
F00F
0000
,  // measure 52
F00F
0000
0000
0000
F00F
00F0
000F
00F0
,  // measure 53
0F00
00F0
000F
00F0
2000
000F
3002
00F3
,  // measure 54
0F00
0F00
000F
000F
00F0
00F0
F000
F000
,  // measure 55
0002
0000
0F03
0020
0000
0F30
00F0
0F00
,  // measure 56
2000
0000
300F
0020
0000
0F30
F000
0F00
,  // measure 57
F000
0002
F003
00F0
0002
00F3
0000
F000
,  // measure 58
0F00
F000
0F00
F000
0F00
00F0
00F0
000F
,  // measure 59
2000
0000
0F00
3020
0000
003F
00F0
000F
,  // measure 60
000F
0000
0000
0000
F000
0000
0000
0000
000F
0000
00F0
0000
F000
0F00
F000
0F00
,  // measure 61
2000
0F00
3F00
0002
00F0
00F0
2003
30F0
,  // measure 62
0200
000F
030F
0020
0F00
0F00
2030
3F00
,  // measure 63
0002
00F0
00F3
0F00
2000
3F00
2000
3F00
,  // measure 64
000F
000F
000F
2000
30F0
0000
0020
0000
,  // measure 65
F030
0F00
2000
3002
0000
0203
0000
0300
,  // measure 66
0010
0000
0000
0000
0001
0000
0000
0000
0000
0010
0000
0000
0100
0000
0000
0000
0001
0000
0000
0000
0000
1000
0000
0000
,  // measure 67
0100
0000
0000
0001
0100
0000
0002
0000
0000
0000
2003
0000
0000
0000
3000
0000
,  // measure 68
0100
0000
0110
0000
0010
0010
0100
0100
,  // measure 69
0100
0000
0101
0000
0001
0000
1001
1000
,  // measure 70
0100
0000
0000
0000
0001
0000
0000
0000
0000
0001
0000
0000
0001
0000
0000
0000
0010
0000
0000
0000
0000
0001
0000
0000
,  // measure 71
0200
0000
1000
0320
0000
0032
0000
0000
,  // measure 72
0003
0000
1000
0000
0100
0001
0100
0001
,  // measure 73
0010
0000
0110
0000
0100
0000
2000
300F
,  // measure 74
0100
0000
0000
0000
1000
0000
0000
0000
0000
0100
0000
0000
0010
0000
0000
0000
1000
0000
0000
0000
0000
0001
0000
0000
,  // measure 75
0010
0000
0000
1000
0010
0000
2000
0000
0000
0000
3002
0000
0000
0000
0003
0000
,  // measure 76
0010
0000
0110
0000
0100
0100
0010
0010
,  // measure 77
0010
0000
1010
0000
1000
0000
1001
0001
,  // measure 78
0010
0000
0000
0000
1000
0000
0000
0000
0000
1000
0000
0000
1000
0000
0000
0000
0100
0000
0000
0000
0000
1000
0000
0000
,  // measure 79
0020
0000
0001
0230
0000
2300
0000
0000
,  // measure 80
3000
0000
0001
0000
0010
1000
0010
1000
,  // measure 81
0100
0000
0110
0000
0010
0000
000F
2000
,  // measure 82
300F
000F
F000
F000
,  // measure 83
0200
0000
03F0
0002
F003
0F00
F000
0200
,  // measure 84
0300
0000
F000
0F00
F000
0000
0002
0000
0003
0000
F000
0000
F00F
0000
000F
0000
,  // measure 85
F000
0000
0F00
00F0
000F
00F0
0F00
0020
,  // measure 86
2030
30F0
0002
0F03
,  // measure 87
2000
0000
300F
0000
0002
00F3
000F
0020
,  // measure 88
0000
0230
0000
0320
0000
0030
000F
F000
,  // measure 89
000F
0000
000F
0000
F000
0200
0000
0320
,  // measure 90
0000
0032
0000
2003
0000
3002
0000
0203
,  // measure 91
0000
0320
0000
0230
0000
0000
0000
0302
,  // measure 92
F003
0F00
F000
0000
000F
00F0
000F
0000
,  // measure 93
F000
0F00
F000
0F00
F000
000F
F000
0002
,  // measure 94
2003
3000
0000
0000
0000
0000
0000
0000
;
