#TITLE:Nonbinary;
#SUBTITLE:;
#ARTIST:Arca;
#TITLETRANSLIT:;
#SUBTITLETRANSLIT:;
#ARTISTTRANSLIT:;
#GENRE:;
#CREDIT:;
#BANNER:nb banner.png;
#BACKGROUND:nb bg.png;
#LYRICSPATH:;
#CDTITLE:;
#MUSIC:Nonbinary.mp3;
#OFFSET:0.000000;
#SAMPLESTART:45.106384;
#SAMPLELENGTH:14.468086;
#SELECTABLE:YES;
#BPMS:0.000000=141.000000
;
#STOPS:107.000000=1.702000,
136.000000=0.851000
;
#BGCHANGES:;
#KEYSOUNDS:;
#ATTACKS:;

//---------------dance-single - ----------------
#NOTES:
     dance-single:
     :
     Medium:
     5:
     0.362120,0.444890,0.041385,0.310389,0.000000,245.000000,241.000000,4.000000,30.000000,0.000000,0.000000,0.362120,0.444890,0.041385,0.310389,0.000000,245.000000,241.000000,4.000000,30.000000,0.000000,0.000000:
2000
0000
0000
3020
0000
0000
0032
0000
,
0000
0203
0000
0000
2300
0000
0000
3020
,
0000
0000
0230
0000
0000
2300
0000
0000
,
3002
0000
0000
1003
0000
0000
0000
0000
,
0100
0000
0000
1000
0010
0000
0001
0100
,
0000
1000
0000
0000
0100
0000
0000
0010
,
0000
0000
0001
1000
0100
0000
0001
0000
,
0010
1000
0000
0000
,
0001
0000
0010
1000
0100
0000
1000
0001
,
0010
0000
0001
0000
0100
0000
0100
1000
,
1000
0000
0100
0001
0010
0000
1000
0000
,
0000
0000
0010
1000
0001
0000
0000
0000
,
2000
0000
3010
1000
0001
0100
0000
0000
,
1000
0000
0100
1000
0010
0000
0000
0001
,
0100
0001
1000
0010
2000
0000
0010
3000
,
0000
0100
0000
0001
,
0002
0010
1003
0000
0000
0000
1000
0100
,
2000
0000
3000
0000
0000
0000
0010
1000
,
0020
0000
0000
0030
0000
0101
0000
0000
,
1000
0000
0100
0000
1000
0000
0001
0010
,
0001
0000
1000
0010
,
0000
0000
1000
0100
1000
0000
0000
0000
,
0001
0000
0010
0000
0001
0100
1000
0000
,
0100
0001
0010
1000
,
0100
1000
0100
0000
0001
0000
0010
0000
,
0000
0000
1000
0010
1000
0000
0100
0000
,
1000
0100
0001
0010
,
1001
0000
0001
0010
1000
0100
1000
0000
,
0001
0000
0010
0001
0100
1000
0000
0000
,
1000
0000
0010
1000
0010
0001
0100
0000
,
1000
0010
1000
0001
0100
1000
0100
0001
,
0010
1000
0001
1000
0010
0000
1000
0000
,
0001
0000
0010
1000
0100
1000
0000
0000
,
0001
0010
0001
0100
1000
0000
0010
0000
,
1000
0010
1000
0000
1000
0000
0001
1000
,
0010
1000
0100
0000
0001
0000
1000
0010
,
1000
0100
0001
0000
1000
0000
0010
1000
,
0100
0001
0010
0000
1000
0100
0001
0000
,
0001
0000
0001
0010
1000
0000
0010
1000
,
0100
0001
0010
0000
1000
0000
0100
1000
,
0000
0011
1000
0001
,
1000
0000
0010
0000
1000
0100
0001
0000
,
1000
0010
2000
0000
3100
0001
0020
0000
,
1030
0100
2000
0000
3010
1000
0002
0000
,
1003
0100
2000
0000
3010
2000
0000
3001
,
0010
0000
0001
0000
0100
1000
0100
0000
,
0001
0010
0001
0000
1100
1000
0010
1000
,
0001
1000
0010
0000
1000
0001
1000
0000
,
0002
0000
0000
0003
1000
0000
2000
0000
,
0000
0000
3010
0000
0200
0000
0000
0300
,
0002
0000
0023
0000
,
2030
0000
0000
0000
3200
0000
0000
0300
,
0002
0000
2003
0000
,
3020
0031
1000
0100
;

//---------------dance-single - ----------------
#NOTES:
     dance-single:
     :
     Easy:
     4:
     0.261613,0.333668,0.062078,0.372466,0.000000,177.000000,171.000000,6.000000,36.000000,0.000000,0.000000,0.261613,0.333668,0.062078,0.372466,0.000000,177.000000,171.000000,6.000000,36.000000,0.000000,0.000000:
1000
0000
0000
0010
,
0000
0000
0002
0000
,
0003
1000
0000
0000
,
0010
0000
1000
0000
,
0001
0000
0010
1000
,
0000
0100
1000
0100
,
0000
0001
1000
1000
,
0020
2030
3000
0100
,
0001
0000
0010
1000
,
0100
1000
0001
0000
,
0011
0010
1000
0100
,
0000
1000
0010
0000
,
0001
0000
1000
0100
,
0000
0010
0001
1000
,
0100
1000
0200
1300
,
0000
0010
0001
0010
,
2000
3010
0000
0001
,
0200
0300
0000
1000
,
0020
0030
0100
0001
,
0000
0010
1000
0100
,
0002
0003
1000
0010
,
0000
0100
1000
0000
,
0001
0010
0001
1000
,
0200
0300
0000
0001
,
1000
0010
0000
0100
,
1000
0001
0010
0000
,
1000
0010
1000
0000
,
0001
1000
1100
0010
,
0001
0100
0101
0011
,
1000
0010
1000
0000
,
1000
0010
1000
0002
,
1003
0010
1000
0100
,
0001
0010
0001
0000
,
1000
0010
1000
0100
,
0001
1000
0020
1030
,
0100
0001
1000
0010
,
0100
1001
0001
0010
,
0001
0100
1000
0100
,
0010
0011
1000
0100
,
1000
0001
1000
0010
,
2000
3100
0001
1000
,
0020
2030
3200
0302
,
0023
2030
3200
0301
,
2000
3020
0031
0100
,
1000
0010
1000
0002
,
1003
0100
1000
0020
,
1030
0100
0002
0013
,
1000
0010
2000
0000
,
3002
0000
1003
0200
,
0000
2300
3020
0000
,
0032
0000
2003
0000
,
3200
0000
0320
0000
,
0032
0000
1003
0100
,
0002
0023
1030
0100
;

//---------------dance-single - ----------------
#NOTES:
     dance-single:
     :
     Beginner:
     3:
     0.224662,0.250251,0.020693,0.134502,0.000000,152.000000,150.000000,2.000000,13.000000,0.000000,0.000000,0.224662,0.250251,0.020693,0.134502,0.000000,152.000000,150.000000,2.000000,13.000000,0.000000,0.000000:
1000
0000
0000
0000
,
0001
0000
0010
0000
,
1000
0000
0000
0000
,
0100
0000
0001
0000
,
1000
0000
0010
0001
,
0000
0000
0100
0000
,
1000
0010
0010
0001
,
0100
0001
0000
0000
,
1000
0000
0100
0000
,
0010
0100
0000
0000
,
0010
0100
0010
0100
,
0000
0001
1000
0000
,
1000
0000
0010
0001
,
0000
0000
0100
0000
,
0010
0100
0010
0001
,
0000
0000
1000
0010
,
0001
0000
0000
0100
,
1000
0000
0000
0100
,
0200
0300
0001
0110
,
0000
0000
0000
0000
,
1000
0000
0100
1000
,
0000
0001
0001
0000
,
0010
0100
0010
1000
,
0100
0000
0000
0001
,
1000
0000
0000
0010
,
0000
0000
0100
0000
,
1000
0100
1000
0001
,
1001
0010
1000
0000
,
0100
1000
0010
0000
,
0001
0010
0001
0000
,
0100
0100
0100
1000
,
0010
0010
0010
0000
,
0001
1000
0100
1000
,
0010
0001
1000
0000
,
0000
0000
1000
0010
,
1000
0002
1003
0100
,
1000
0010
1000
0100
,
0100
0010
0001
1000
,
0010
1000
0000
0100
,
0001
0010
0001
1000
,
0000
0100
1000
0010
,
0002
1003
0100
1000
,
0010
0100
0001
0020
,
1030
0100
1000
0010
,
0100
0010
0100
0200
,
1300
0010
0001
0100
,
0010
1000
0002
1003
,
1000
0010
0100
0001
,
2000
3010
0001
0200
,
0300
1000
0000
0010
,
0002
0000
2003
0000
,
3020
0000
0130
0000
,
1000
0000
0001
0000
,
0020
0000
2030
3000
;

//---------------dance-single - ----------------
#NOTES:
     dance-single:
     :
     Hard:
     8:
     0.464105,0.617415,0.041385,0.300042,0.367293,314.000000,310.000000,4.000000,29.000000,0.000000,0.000000,0.464105,0.617415,0.041385,0.300042,0.367293,314.000000,310.000000,4.000000,29.000000,0.000000,0.000000:
// measure 0
1000
0000
0000
0010
0000
0000
0100
0000
,  // measure 1
0000
0001
0000
0000
0010
0000
0000
1000
,  // measure 2
0000
0000
0100
0000
0000
1000
0000
0000
,  // measure 3
0010
0000
0000
0000
0000
0000
1001
0000
0000
0000
0000
0000
0000
0000
0000
0100
,  // measure 4
1000
0000
0100
0000
1000
0000
0001
0000
0010
0000
0001
1000
0001
0000
0000
0000
,  // measure 5
0000
0000
0000
0000
1000
0000
0100
0000
2000
0000
0000
0001
3010
0000
0000
0000
,  // measure 6
0000
0000
0000
0000
0000
0000
0000
0000
1000
0000
0000
0000
0000
0100
0000
0000
1000
0000
0100
0000
2000
0000
0000
0000
0000
0000
3010
0000
0001
0000
0000
0000
,  // measure 7
0010
0000
2000
3100
0000
0000
0010
0000
,  // measure 8
1000
0000
0000
0001
0000
0000
1000
0000
0001
0000
0000
0010
0000
0100
1000
0000
,  // measure 9
0100
0000
0000
1000
0000
0000
0001
0000
0001
0000
0000
0000
0010
0000
1000
0000
,  // measure 10
0100
0000
1000
0100
0001
0010
0000
0000
,  // measure 11
1000
0000
0100
1000
0001
0000
0000
0000
,  // measure 12
1001
0000
1000
0010
1000
0000
0001
0000
0100
0000
1000
0000
0000
0000
0000
0000
,  // measure 13
1000
0000
0010
0001
0000
0100
0010
0000
0100
0000
0000
0000
0000
0000
1000
0000
,  // measure 14
0010
0001
1000
0100
1000
0100
0001
0000
,  // measure 15
0000
0000
0010
0000
0000
0000
1001
0000
0000
0000
0000
0000
0100
1000
0100
0000
,  // measure 16
0100
1000
0001
0010
0100
0000
1000
1000
,  // measure 17
0020
0000
0030
0000
0000
0000
0100
0001
,  // measure 18
0200
0000
0000
0000
0300
0000
1000
0000
0100
0000
0000
0001
0000
0000
0000
0000
,  // measure 19
1000
0000
0000
0000
0000
0000
2000
0000
3100
0000
0000
0000
0001
0000
0010
0001
,  // measure 20
0010
0000
0100
0001
0000
0010
1000
0000
1000
0000
0100
0000
0010
0000
0000
0000
,  // measure 21
0000
1000
0001
1000
0010
0000
0000
0100
,  // measure 22
0000
0000
0000
0000
0000
0000
0000
0000
0100
0000
0000
0000
0000
0000
0000
0000
0010
0000
0000
0000
0000
1000
0000
0000
0001
0000
0000
0000
0000
0000
0000
0000
,  // measure 23
0100
0000
0000
1010
0000
0000
0200
0000
,  // measure 24
0301
0010
0001
0000
1000
0000
0100
0000
1000
0000
0000
0000
1000
0000
0000
0000
,  // measure 25
0000
0001
0000
0010
1000
0000
0000
1000
,  // measure 26
0000
0000
0000
0000
1000
0100
0000
0000
0001
0000
0100
0000
0000
0000
0000
0000
,  // measure 27
1000
0000
0000
0200
1000
0300
0010
0000
1000
0001
1000
0000
0000
0000
0000
0000
,  // measure 28
0100
0000
0000
0100
0000
1000
0100
0000
0010
0000
0001
0000
0010
0000
0000
0000
,  // measure 29
1000
0000
0100
0001
0000
0001
0010
0000
0000
0010
1000
0000
0000
0000
0002
0000
,  // measure 30
1003
0000
0000
1000
0000
0100
1000
0000
0000
1000
0100
0001
0100
0000
0000
0000
,  // measure 31
0001
0000
0000
0010
0200
0000
0301
0000
0002
0000
0000
0000
0003
0000
0000
0000
,  // measure 32
0010
0000
0000
0010
0002
0000
0103
0000
0010
0000
1000
0000
0000
0000
0000
0000
,  // measure 33
1000
0000
0000
0010
0000
0000
0100
2000
0000
3001
0000
0000
0002
0000
0000
0000
,  // measure 34
1003
0000
0000
0000
0000
0000
0000
0000
1000
0000
0000
0010
1000
0000
0100
0000
,  // measure 35
0001
0010
0001
0000
0010
0000
0100
0000
1000
0000
0000
1000
0000
0100
1000
0000
,  // measure 36
0001
0100
0001
0000
1000
0000
0000
0000
0001
0000
0000
0001
0000
0010
1000
0000
,  // measure 37
0000
0010
1000
0000
0100
0000
0001
0000
1000
0000
1000
0010
0001
0000
0100
0000
,  // measure 38
0000
0010
0100
0000
0000
0001
0100
0000
0000
0000
2000
0000
3010
0000
0000
0001
,  // measure 39
0000
0000
0010
0000
0000
0010
0100
0000
0000
0000
0000
0000
2000
0000
0000
0000
,  // measure 40
0000
0000
0000
0000
3001
0000
0010
0001
0000
0000
0100
0000
1000
0000
0000
0000
,  // measure 41
0100
1000
0100
0000
0010
0000
0001
0010
0001
0010
1000
0000
0100
0000
0000
0000
,  // measure 42
1000
0010
0001
0000
0002
0000
0003
0010
0001
0100
1000
0010
1000
0000
0000
0000
,  // measure 43
1000
0100
0001
0010
1000
0000
0000
0000
0010
0100
0010
0000
0001
0000
1000
0000
,  // measure 44
0010
0001
0100
0000
2000
0000
0000
0000
3200
0000
0320
0000
0001
0000
0030
0000
,  // measure 45
0100
0000
1000
0000
0010
0000
0000
0000
0001
0000
0000
0000
0000
0000
0000
0000
0001
0000
1000
0000
0001
0000
0000
0000
0000
0000
0000
0000
0000
0000
0000
0100
,  // measure 46
0000
0000
0000
0000
0000
0000
1000
0000
0000
0000
0000
0000
0000
0000
0000
0000
0000
0000
0000
0000
0000
0000
0000
0000
0000
0000
0000
0000
0000
0000
0000
0000
0000
0000
0000
0000
0001
0000
0000
0000
0000
0000
0000
0000
0000
0000
0000
0000
0010
0000
0000
0000
0000
0000
0000
0000
0000
0000
0000
0000
0000
0000
0000
0000
0000
0000
0000
0000
0000
0000
0000
0000
0000
0000
0000
0000
0000
0000
0000
0000
0000
0000
0000
0000
0000
0000
0000
0000
0000
0000
0000
0000
0000
0000
0000
0000
1000
0000
0000
0000
0000
0000
0000
0000
0000
0000
0000
0000
0000
0000
0000
0000
0000
0000
0000
0000
0000
0000
0000
0000
0000
0000
0000
0000
0000
0000
0000
0000
0001
0000
0000
0000
0000
0000
0000
0000
0000
0000
0000
0000
0000
0000
0000
0000
0001
0000
0000
0000
0000
0000
0000
0000
0000
0000
0000
0000
0000
0000
0000
0000
0000
0000
0000
0000
0000
0000
0000
0000
0010
0000
0000
0000
0000
0000
0000
0000
0000
0000
0000
0000
0000
0000
0000
0000
0000
0000
0000
0000
0000
0000
0000
0000
,  // measure 47
1000
0000
0010
0100
0000
0000
1000
0100
1000
0001
0000
0000
,  // measure 48
1000
0100
1000
0002
,  // measure 49
0013
1000
0200
0000
,  // measure 50
2300
0000
3020
0000
,  // measure 51
2030
0000
3200
0000
,  // measure 52
0302
2003
3010
0100
,  // measure 53
0001
1000
0010
2000
,  // measure 54
0000
3000
0000
0000
;
