#TITLE:Nasty;
#SUBTITLE:;
#ARTIST:Shygirl;
#TITLETRANSLIT:;
#SUBTITLETRANSLIT:;
#ARTISTTRANSLIT:;
#GENRE:;
#CREDIT:;
#BANNER:nasty.png;
#BACKGROUND:nastybg.png;
#LYRICSPATH:;
#CDTITLE:;
#MUSIC:Nasty.mp3;
#OFFSET:0.000000;
#SAMPLESTART:43.034000;
#SAMPLELENGTH:12.548000;
#SELECTABLE:YES;
#DISPLAYBPM:134.000000;
#BPMS:0.000000=134.000000
;
#STOPS:
;
#BGCHANGES:;
#KEYSOUNDS:;
#ATTACKS:;

//---------------dance-single - ----------------
#NOTES:
     dance-single:
     :
     Beginner:
     2:
     0.242905,0.250728,0.000000,0.163309,0.000000,177.000000,177.000000,0.000000,17.000000,0.000000,0.000000,0.242905,0.250728,0.000000,0.163309,0.000000,177.000000,177.000000,0.000000,17.000000,0.000000,0.000000:
1000
0000
0001
0000
,
1000
0000
0010
0000
,
0001
0000
1000
0000
,
0100
0000
1000
0000
,
0100
0000
0001
0000
,
1000
0000
0010
0000
,
2000
0000
3002
0000
,
0023
0000
0230
0300
,
1000
0100
1000
1000
,
0001
0000
1000
0000
,
1000
0010
1000
1000
,
0001
0100
0001
0000
,
1000
0100
1000
0100
,
0010
0001
0010
0000
,
1000
0000
0001
0001
,
1000
1000
0100
0100
,
1000
0100
1000
0000
,
0001
0010
0001
0000
,
1000
0100
1000
0001
,
1000
0000
0001
0010
,
0100
1000
0100
0000
,
0000
0001
1000
0100
,
1000
0100
0100
0000
,
0001
0010
0001
1000
,
1000
0100
1000
0001
,
2000
3000
0001
1000
,
2000
3000
0002
1003
,
1000
0001
0010
0100
,
0000
1000
0100
0001
,
0001
1000
0001
0001
,
1000
0000
0100
1000
,
0001
0000
0020
0000
,
1030
1000
0001
0001
,
1000
0100
1000
0000
,
0001
0010
0100
0000
,
1000
0001
1000
0001
,
0010
0000
0100
1000
,
0100
1000
0100
0000
,
0001
0001
1000
1000
,
0010
0010
0100
0100
,
1000
0000
0100
0001
,
0010
0000
0100
0010
,
0100
0000
0010
0010
,
0001
0000
0100
1000
,
1000
0100
0010
0000
,
0001
0100
1000
0000
,
0010
0100
1000
0000
,
0000
0001
0010
0100
,
2000
0000
3002
0000
,
0013
0100
1000
0100
,
1000
0001
1000
0001
,
1000
0002
2003
3200
,
0300
0001
0010
0000
,
1000
0100
0001
1000
,
0001
1000
0001
0000
,
0010
0100
0001
0000
,
2000
3200
0320
0030
,
0002
0000
0000
0000
,
0003
0000
0000
0000
;

//---------------dance-single - ----------------
#NOTES:
     dance-single:
     :
     Easy:
     4:
     0.266235,0.305785,0.076851,0.057639,0.000000,194.000000,186.000000,8.000000,6.000000,0.000000,0.000000,0.266235,0.305785,0.076851,0.057639,0.000000,194.000000,186.000000,8.000000,6.000000,0.000000,0.000000:
1000
0000
0000
0100
0000
0000
0001
0000
,
1000
0000
0000
0010
0000
0000
0100
0000
,
1000
0000
0001
0000
,
1000
0000
0100
0000
,
0001
0000
0000
0010
0000
0000
1000
0000
,
1000
0000
0000
0100
0000
0000
0001
0000
,
1000
0000
0100
0000
0020
0000
0000
0030
,
0001
0000
1000
0000
,
0001
0010
1000
0000
,
0000
0100
0001
1000
,
1000
1000
0001
0000
,
0000
0010
0100
1000
,
0001
0000
0010
0000
0100
0000
0000
0100
,
0000
1000
0001
0000
,
1000
0000
0001
0000
0010
0000
0000
0010
,
0000
1000
0100
1000
,
1001
0001
0011
0001
,
0100
1000
1000
0010
,
0100
0010
0100
0010
,
0001
0010
0001
0001
,
1000
0000
1000
0000
0000
0000
0000
0100
,
0000
0010
0001
1000
,
0000
0000
0001
0000
1000
0000
0000
1000
,
0000
0100
1000
0100
,
0001
0010
0100
1000
,
1000
1001
0001
0010
,
0100
1000
0100
0010
,
0001
0010
0001
1000
,
0000
0001
0010
0100
,
1000
0000
0100
0000
,
0001
1000
0001
1000
,
0001
0000
1000
0000
0002
0000
0000
0003
,
1000
0000
0100
0000
1000
0000
0000
1000
,
0000
0001
0010
0100
,
1000
0000
0000
0000
0001
0000
0000
0010
,
0000
1000
0100
0010
,
0001
0000
0010
0000
0100
0000
0000
1000
,
0000
1001
1001
0000
,
0010
0100
0001
0000
,
1000
0000
0001
1000
,
1000
0100
1000
0000
,
0000
1001
1001
0010
,
0100
1000
1001
0000
,
0000
0001
0010
0100
,
1000
0100
0010
0000
,
0000
0001
0000
1000
0000
0001
0000
1000
,
0000
1000
0000
0000
0001
0000
1000
0000
,
0000
1000
0001
0010
,
0100
1000
0100
0001
,
1000
0001
0020
0230
,
1300
0001
0001
1000
,
1000
0100
0010
0001
,
0000
1000
0001
0000
,
0010
0100
1000
0100
,
0001
1000
0001
0000
,
0010
0001
0100
0000
,
1000
0100
0010
0001
,
2000
0000
0000
0000
0002
0000
0000
3003
;

//---------------dance-single - ----------------
#NOTES:
     dance-single:
     :
     Medium:
     6:
     0.452874,0.473597,0.028819,0.163309,0.000000,330.000000,327.000000,3.000000,17.000000,0.000000,0.000000,0.452874,0.473597,0.028819,0.163309,0.000000,330.000000,327.000000,3.000000,17.000000,0.000000,0.000000:
1000
0100
1000
0000
0001
0000
1000
0000
,
1000
0001
0010
0000
0001
0000
0100
0000
,
1000
0100
1000
0000
0001
0000
1000
0000
,
1000
0001
0011
0000
0001
1000
1100
0000
,
0001
0000
1000
0100
1000
0000
0001
0000
,
1000
0000
0001
0010
1000
0000
0100
0000
,
2000
3200
0302
0023
,
2030
0000
3002
1000
,
1003
0001
1000
0001
1000
0000
1000
0000
,
0100
1000
0100
0010
0001
0010
0001
0010
,
1000
0000
0100
0000
1000
0001
0000
1000
,
0000
0001
0010
0000
0100
1000
0100
1000
,
0001
1000
0001
1000
0010
0001
0010
0100
,
0000
0000
1000
0000
0001
0000
1000
0010
,
1000
0010
0001
0100
0001
0000
0000
0000
,
1000
0100
1000
0100
0010
0001
0010
0001
,
1000
0100
1000
0100
0001
1000
0001
1000
,
0000
0001
1000
0000
0100
0000
0000
0010
,
0001
0010
0000
1000
0100
0000
0001
0000
,
1000
0001
1000
0100
,
1000
0100
1000
0100
0001
0000
0000
0000
,
0000
1000
0001
0000
,
0010
0100
1000
0100
,
0001
0000
1000
0000
0100
1000
0100
1000
,
0001
1000
0001
1000
0001
0000
0010
0000
,
1000
0100
1000
0100
0002
0003
2000
3000
,
0100
0001
1000
0001
1000
0000
0001
0000
,
0010
0001
0100
1000
0200
0000
0302
0000
,
0003
1000
0001
1000
,
0100
1000
0100
0001
0010
0000
0010
0000
,
1000
0100
1000
0001
1000
0001
1000
0001
,
0010
0001
0010
0000
0200
0300
1000
0000
,
0001
1000
0001
1000
0100
1000
0100
0000
,
0001
0010
0001
0100
0001
1000
0001
1000
,
1000
0100
1000
0100
0001
0010
0001
1000
,
0100
1000
0001
0010
1000
0001
1000
1000
,
0000
0100
1000
0010
0010
0001
0000
0000
,
1000
0100
0010
1000
0001
0000
0000
0000
,
0100
0000
1000
0000
0100
0010
0001
0000
,
1000
0000
0001
1000
0001
0110
1000
0000
,
1000
0100
1000
0100
0001
0010
0000
0000
,
1000
0001
1000
0001
0010
1000
0100
0000
,
1000
0001
1000
0001
0010
1000
0100
1000
,
0001
1000
0001
0000
1000
0000
0001
0000
,
1000
0100
1000
0001
0010
1000
0100
1000
,
0001
1000
0001
1000
0010
1000
0100
0001
,
0000
1000
0001
1000
0001
0100
1000
0000
,
0010
1000
0001
1000
0001
1000
0001
1000
,
0001
0010
0001
0010
0001
0100
0100
0000
,
1000
0100
1000
0100
0010
0010
0010
0000
,
0001
0100
0001
0010
1000
0000
0100
1000
,
0001
0000
1000
0000
0002
0003
2000
3000
,
0100
0000
1000
0100
0002
0000
0003
0000
,
1000
0000
0200
0000
0000
0300
0001
0000
,
1000
0000
0100
1000
0001
0000
0000
0000
,
1000
0001
0000
0010
1000
0000
0100
0000
,
1000
0100
0001
0010
,
0200
0000
0320
0000
,
0030
0000
0000
0000
;

//---------------dance-single - ----------------
#NOTES:
     dance-single:
     :
     Hard:
     9:
     0.575013,0.640749,0.182522,0.787727,0.350635,419.000000,400.000000,19.000000,82.000000,0.000000,0.000000,0.575013,0.640749,0.182522,0.787727,0.350635,419.000000,400.000000,19.000000,82.000000,0.000000,0.000000:
// measure 0
1000
0000
0100
0001
0100
0001
1000
0000
0002
0000
0000
0000
2003
0000
0000
0000
,  // measure 1
3001
0000
0010
0001
0010
0001
1000
0000
0020
0000
0000
0000
0230
0000
0000
0000
,  // measure 2
1300
0000
1000
0100
1000
0010
1000
0000
0002
0000
0000
0000
2003
0000
0000
0000
,  // measure 3
3001
0010
0001
0010
0001
0010
0001
0000
1000
0100
1000
0100
1000
0100
1000
0000
,  // measure 4
0001
0000
0010
0100
0010
0000
1000
0000
0002
0000
0000
0000
2003
0000
0000
0000
,  // measure 5
3001
0000
0010
0001
0010
0000
1000
0000
0200
0000
0000
0000
0320
0000
0000
0000
,  // measure 6
0230
0000
0002
0300
0020
0003
2000
0030
,  // measure 7
0002
0000
0000
3003
0220
0000
0000
0330
,  // measure 8
1000
0100
1000
0100
1000
0000
0001
0010
0001
0000
1000
0000
0001
1000
0001
0000
,  // measure 9
0010
0000
0100
0000
0010
0000
0001
0010
0001
0000
0100
0000
0001
0000
0100
0000
,  // measure 10
0001
0100
1000
0100
1000
0000
0010
1000
0002
0000
0013
0000
2000
0000
3100
0000
,  // measure 11
0100
0000
0100
0000
0010
0000
0001
0010
0002
0000
1003
0000
0010
0000
0001
0000
,  // measure 12
1000
0000
0100
0000
0001
0000
0010
0001
0010
0000
1000
0000
0010
0000
1000
0000
,  // measure 13
0010
0000
0001
0000
0001
0010
0001
0000
0002
0000
2003
0000
3020
0000
0032
0000
,  // measure 14
1003
0000
0001
0000
1001
0110
0000
0000
,  // measure 15
1000
0100
0010
0001
2000
3200
2300
3020
,  // measure 16
0031
0000
0010
0100
1000
0100
1000
0000
0100
0000
0001
0000
0002
0000
0103
0000
,  // measure 17
2000
0000
3100
0000
0002
0000
0013
0100
1000
0000
1000
0001
1000
0000
0001
0000
,  // measure 18
1000
0100
1000
0000
0001
0010
0001
0000
1000
0010
1000
0000
0002
0000
0103
0000
,  // measure 19
1000
0000
0100
0000
1000
0000
0100
0000
0001
0010
0001
0010
0001
0000
0010
0000
,  // measure 20
1000
0000
0100
0000
1000
0000
0010
0100
0010
0000
0001
0000
1000
0010
0001
0000
,  // measure 21
1000
0020
0031
1000
0100
0001
1000
0001
,  // measure 22
0000
0000
0100
0010
0100
0000
1000
0000
0002
0000
0003
0000
2000
0000
3000
0000
,  // measure 23
0001
0000
0000
0000
1000
0000
0000
0000
1000
0010
0001
0100
2000
0000
3001
0000
,  // measure 24
0001
0000
0000
0010
0000
0000
0100
0000
2000
0000
0000
0000
3002
0000
0000
0000
,  // measure 25
1003
0000
2002
3000
0100
0003
1000
0000
,  // measure 26
2000
0000
0000
3200
0010
0000
0301
0000
,  // measure 27
2000
3001
0202
0303
2020
3030
0220
0330
,  // measure 28
0000
1000
0100
0010
,  // measure 29
1000
0000
0000
0100
0000
0000
0001
0000
1000
0000
0000
0000
0001
0000
0000
0000
,  // measure 30
1000
0100
1000
0100
0010
0000
0001
0000
0001
0010
0001
0010
0100
0000
1000
0000
,  // measure 31
2000
0000
3001
0000
0002
0000
0103
0000
0010
0000
0000
0000
1000
0100
0010
0001
,  // measure 32
0010
0000
0000
1000
0100
0000
0010
0000
0001
0000
1000
0000
0001
0010
0001
0000
,  // measure 33
1000
0000
0000
0100
0001
0000
0010
0000
0001
0000
0000
0010
0000
0000
0100
0000
,  // measure 34
0001
0000
0000
0000
1000
0000
0100
0000
0010
0000
0000
0010
0000
0000
0010
0000
,  // measure 35
0000
0000
0100
0001
1000
0000
0100
0000
0201
0000
0001
0000
0310
0000
1100
0000
,  // measure 36
1000
0000
0000
0001
0010
0000
0001
0000
1000
0000
0100
0010
0100
0000
0001
0000
,  // measure 37
0000
0000
0000
1000
0002
0000
1003
0000
1001
0000
0000
0000
0000
0000
0110
0000
,  // measure 38
1000
0000
0100
0001
0100
0000
1000
0010
2000
0000
3002
0000
0013
0000
0000
0000
,  // measure 39
1000
0000
0000
0010
0001
0000
0010
0001
0010
0000
0100
0000
0001
0000
0000
0000
,  // measure 40
1000
0000
0000
0001
0010
0000
0100
0001
1000
0001
0000
0010
0000
0000
0100
0000
,  // measure 41
0000
0000
0000
2000
3001
0000
0010
0000
0220
0000
0330
0000
0000
0000
1001
0000
,  // measure 42
2000
0000
0000
0000
3001
0000
0001
0000
1001
0000
0100
0001
0200
0000
0320
0000
,  // measure 43
0030
0000
1000
0001
0001
0000
1000
0000
0100
0000
0010
0000
0100
0000
0010
0000
,  // measure 44
1000
0000
0000
0100
0010
0000
0001
0010
0001
0100
0000
0000
0000
0000
0000
0000
,  // measure 45
0000
1001
1001
0000
,  // measure 46
1000
0100
1000
0000
1001
1001
0000
0000
,  // measure 47
2000
0000
0000
0000
0001
0010
0001
3010
,  // measure 48
0002
0000
0000
0023
1000
0030
0002
0000
,  // measure 49
0000
1003
0200
0000
0301
0000
1001
0000
,  // measure 50
2000
0000
3001
0010
0002
0000
1003
0100
,  // measure 51
2000
3002
0023
0230
,  // measure 52
1300
0000
0000
0010
0000
0000
0001
0000
2000
0000
0000
0000
3001
0000
0000
0000
,  // measure 53
0001
0000
0000
2000
0001
0000
3010
0000
,  // measure 54
0001
0000
0000
0010
0000
0000
0001
0000
0020
0000
0000
0000
0000
0000
0030
0000
,  // measure 55
1000
0000
0000
0100
0000
0000
0010
0000
0200
0000
0000
0000
0000
0000
0300
0000
,  // measure 56
2000
3020
0032
0203
,  // measure 57
0020
0300
0032
0000
,  // measure 58
0003
0000
0000
0000
;
