#VERSION:0.83;
#TITLE:Mine;
#SUBTITLE:;
#ARTIST:Slayyyter;
#TITLETRANSLIT:;
#SUBTITLETRANSLIT:;
#ARTISTTRANSLIT:;
#GENRE:;
#ORIGIN:;
#CREDIT:;
#BANNER:mine.png;
#BACKGROUND:minebg.png;
#PREVIEWVID:;
#JACKET:;
#CDIMAGE:;
#DISCIMAGE:;
#LYRICSPATH:;
#CDTITLE:;
#MUSIC:minestep.mp3;
#OFFSET:0.000000;
#SAMPLESTART:30.002192;
#SAMPLELENGTH:17.417732;
#SELECTABLE:YES;
#DISPLAYBPM:124.000000;
#BPMS:0.000=124.000,
242.000=62.000;
#STOPS:;
#DELAYS:;
#WARPS:;
#TIMESIGNATURES:0.000=4=4;
#TICKCOUNTS:0.000=4;
#COMBOS:0.000=1;
#SPEEDS:0.000=1.000=0.000=0;
#SCROLLS:0.000=1.000;
#FAKES:69.000=0.000;
#LABELS:0.000=Song Start;
#BGCHANGES:;
#KEYSOUNDS:;
#ATTACKS:
;

//---------------dance-single - ----------------
#NOTEDATA:;
#CHARTNAME:;
#STEPSTYPE:dance-single;
#DESCRIPTION:;
#CHARTSTYLE:;
#DIFFICULTY:Beginner;
#METER:3;
#RADARVALUES:0.198661,0.217969,0.000000,0.031250,0.000000,178.000000,178.000000,0.000000,4.000000,0.000000,0.000000,0.000000,0.000000,0.000000,0.198661,0.217969,0.000000,0.031250,0.000000,178.000000,178.000000,0.000000,4.000000,0.000000,0.000000,0.000000,0.000000,0.000000;
#CREDIT:;
#DISPLAYBPM:124.000000;
#NOTES:
0000
0000
1000
0000
,
0010
0001
1000
0000
,
0000
0000
0001
0010
,
0001
0010
0000
0000
,
1000
1000
0100
0000
,
0010
0001
0010
0000
,
0000
0001
0100
0100
,
1000
0100
1000
0000
,
0000
0000
0010
0000
,
0001
0010
1000
0000
,
0100
0000
1000
0100
,
1000
0100
0000
0010
,
0001
0000
1000
1000
,
1000
0000
0010
0010
,
0010
0000
0001
0001
,
0100
0000
0010
0100
,
0010
1000
0000
0000
,
1000
0010
0000
0100
,
0001
0010
0000
0000
,
0100
0000
0010
0001
,
1000
0100
1000
0000
,
0010
0001
1000
0000
,
0100
1000
0020
0030
,
0000
0000
0100
0001
,
0010
0010
1000
0000
,
1000
0100
0010
0010
,
0001
0010
0001
0000
,
1000
0000
0000
0000
,
1000
0100
1000
0000
,
0010
0001
0010
0100
,
0010
0001
0010
0000
,
1000
0000
0100
0000
,
0001
0010
1000
0100
,
1000
0010
0001
0000
,
0100
0000
1000
0100
,
0000
0000
0001
0100
,
0000
0000
1000
0100
,
0100
0010
0010
0001
,
0200
2300
3200
0310
,
0000
0000
1000
0000
,
0001
0010
0100
0000
,
1000
0000
0100
0001
,
0100
0010
1000
0000
,
0100
0001
0000
0000
,
0010
1000
0100
1000
,
0100
0001
0010
0000
,
0001
0100
1000
0000
,
0010
0000
0001
1000
,
0100
0000
1000
0010
,
0001
0100
1000
0100
,
1000
0100
0010
0000
,
0001
1000
1000
0000
,
0100
0010
0100
0000
,
0001
0010
1000
0000
,
0100
0010
0100
0000
,
0001
0000
1000
0100
,
1000
0100
0001
0010
,
0001
0010
1000
0000
,
1000
0100
1000
0000
,
0000
0000
0001
1000
,
0010
0100
1000
0001
,
0000
1000
0100
0010
,
0100
0000
0000
0000
;

//---------------dance-single - ----------------
#NOTEDATA:;
#CHARTNAME:;
#STEPSTYPE:dance-single;
#DESCRIPTION:;
#CHARTSTYLE:;
#DIFFICULTY:Easy;
#METER:4;
#RADARVALUES:0.272321,0.291797,0.078125,0.000000,0.000000,244.000000,234.000000,10.000000,0.000000,0.000000,0.000000,0.000000,0.000000,0.000000,0.272321,0.291797,0.078125,0.000000,0.000000,244.000000,234.000000,10.000000,0.000000,0.000000,0.000000,0.000000,0.000000,0.000000;
#CREDIT:;
#DISPLAYBPM:124.000000;
#NOTES:
1000
0100
1000
0000
,
0001
0010
1000
0000
,
0100
1000
0100
1000
,
0100
0010
0001
1000
,
0100
1000
0100
0000
,
0001
0010
1000
0000
,
0100
1000
0100
1000
,
0100
0010
0001
0010
,
0001
1000
1000
0001
,
0010
0001
0100
0000
,
0001
1000
1000
0100
,
0010
1000
0001
0010
,
0001
0100
1000
0100
,
1000
0100
0001
0000
,
0010
0000
1000
0100
,
0010
0001
1000
0001
,
1000
0001
0100
1000
,
0100
0010
1000
0010
,
1000
0100
0001
0010
,
1000
0100
1000
0100
,
1000
0010
1000
1001
,
0001
0011
0010
0100
,
1000
0100
1000
0100
,
0010
0100
0010
0001
,
0010
0001
1001
0010
,
0100
1000
0100
0010
,
0001
0010
0001
1000
,
0001
1000
0100
0010
,
1001
0110
1000
0100
,
1000
0100
0010
0001
,
0010
0100
1000
0001
,
1000
0001
1000
0001
,
0101
0110
1000
0100
,
1000
0010
1000
0000
,
0001
0010
1000
0100
,
0000
0000
0010
0001
,
1000
0100
1000
0100
,
0010
0100
1000
0100
,
1000
0001
1000
0001
,
0010
0001
1000
0100
,
1000
0000
0100
0000
0010
0000
0000
0100
,
0000
0000
1000
0000
0001
0000
0000
0010
,
0000
0000
1000
0000
0100
0000
0000
0010
,
0000
0001
1000
0000
,
0100
0010
1000
0100
,
0001
0010
1000
0000
,
0100
0010
0001
0000
,
1000
0000
0100
0000
,
0010
0001
1000
1000
,
0001
0001
0010
0010
,
0100
0100
1000
0100
,
0010
0001
0010
0001
,
0010
0100
1000
0001
,
1000
1000
0001
1000
,
0001
0001
0100
0001
,
0010
0001
1000
0100
,
0010
0001
1001
1000
,
0100
0010
1001
0010
,
0100
1000
1100
0010
,
0001
0010
0100
1000
,
0100
0000
0000
0000
1000
0000
0100
0010
,
0100
1000
0100
0000
0001
0000
0010
0100
,
1000
0100
0000
0000
;

//---------------dance-single - ----------------
#NOTEDATA:;
#CHARTNAME:;
#STEPSTYPE:dance-single;
#DESCRIPTION:;
#CHARTSTYLE:;
#DIFFICULTY:Medium;
#METER:6;
#RADARVALUES:0.367188,0.389844,0.007812,0.000000,0.000000,329.000000,328.000000,1.000000,0.000000,0.000000,0.000000,0.000000,0.000000,0.000000,0.367188,0.389844,0.007812,0.000000,0.000000,329.000000,328.000000,1.000000,0.000000,0.000000,0.000000,0.000000,0.000000,0.000000;
#CREDIT:;
#DISPLAYBPM:124.000000;
#NOTES:
1000
0100
1000
0010
,
0001
0010
0001
0000
1000
0000
0000
0000
,
0100
0000
0010
0000
0001
0010
0001
0010
,
1000
0000
0100
0000
1000
0000
0100
0001
,
0100
0001
0010
0000
1000
0000
0001
0100
,
0001
0100
1000
0000
1000
0000
0000
0000
,
0010
0001
0010
0000
1000
0000
0100
0000
,
1000
0100
1000
0000
0001
0000
0001
0000
,
0010
0001
0010
0100
1000
0000
0100
0000
,
0001
0000
0010
0000
1000
0000
0100
1000
,
0100
1000
0100
1000
1000
0000
0001
0000
,
0010
0100
0010
0000
,
0001
0010
0001
0010
1000
0000
0100
0000
,
1000
0100
0010
0000
,
0001
0000
1000
0000
0100
1000
0100
1000
,
0100
0010
0001
0000
1000
0001
0010
0100
,
1000
0100
1000
0001
1000
0000
0001
1000
,
0010
1000
0100
0000
1000
0000
0001
0010
,
0001
0010
0001
0000
0100
0000
1000
0000
,
0100
0000
1000
0000
0010
1000
0001
1000
,
0001
1000
0001
0000
0100
0000
1000
0100
,
1000
0100
1000
0000
0001
0000
0010
0001
,
0010
0001
0010
0000
1000
0000
0100
0001
,
0100
0000
1000
0000
0010
0000
0001
0010
,
0001
0010
1000
0000
1000
0000
0100
0001
,
0100
0001
0010
0100
0000
1000
0000
1000
,
0010
0001
0100
1000
0000
0000
0000
0000
,
1000
0000
0010
0000
0001
0000
0000
0100
,
1000
0100
1000
0000
0001
0000
0010
0100
,
1000
0100
1000
0100
0000
0001
0000
0010
,
0100
1000
0100
1000
0000
0000
0000
0000
,
0000
1000
0000
0001
0000
0000
0000
1000
,
0100
1000
0100
0000
0001
0000
1000
0100
,
1000
0100
0010
0000
0001
0000
0010
0100
,
1000
0100
1000
0001
1000
0000
0001
0000
,
0000
0000
0010
0100
,
1000
0000
0100
0000
1000
0000
0100
0001
,
0100
0001
0100
0000
0010
0000
0100
0000
,
1000
0100
1000
0100
1000
0000
0100
0000
,
0010
0000
0001
0000
1000
0000
0001
1000
,
1000
0100
0001
0010
0100
0000
1000
0100
,
0010
0001
1000
0100
,
0001
0010
0100
1000
0100
0000
1000
0100
,
0001
0000
0010
0000
1000
0100
0001
0100
,
1000
0000
0010
0000
0100
0010
0100
0010
,
0001
0000
0010
0000
1000
0000
0100
1000
,
0100
0001
0010
0010
0000
0000
0000
0000
,
0000
0000
1000
0000
0000
1000
0100
1000
,
0100
1000
0001
0001
1000
0000
1000
0100
,
0001
0010
0100
0000
1000
0000
1000
0100
,
0001
0010
0001
0000
0100
0000
1000
0000
,
0100
1000
0100
0000
0010
0001
0010
0001
,
0010
1000
1000
0100
,
1000
0100
1000
0000
0010
0000
0100
0000
,
0010
0100
0010
0000
1000
0000
0100
0000
,
1000
0100
0001
0010
,
0001
0010
0001
0010
1001
0000
1000
0000
,
0100
1000
0100
0000
0010
0000
0001
0000
,
0010
0001
0010
0001
1000
0000
0100
0000
,
1000
0100
0010
0100
,
1000
0000
0000
0000
1000
0000
0001
0010
,
0001
1000
0100
1000
0100
0000
0010
0000
,
0001
0000
1000
0001
0000
0000
0000
0000
;

//---------------dance-single - ----------------
#NOTEDATA:;
#CHARTNAME:;
#STEPSTYPE:dance-single;
#DESCRIPTION:;
#CHARTSTYLE:;
#DIFFICULTY:Hard;
#METER:8;
#RADARVALUES:0.437500,0.512183,0.031250,0.046875,0.195312,392.000000,388.000000,4.000000,6.000000,0.000000,0.000000,0.000000,0.000000,0.000000,0.437500,0.512183,0.031250,0.046875,0.195312,392.000000,388.000000,4.000000,6.000000,0.000000,0.000000,0.000000,0.000000,0.000000;
#CREDIT:;
#DISPLAYBPM:124.000000;
#NOTES:
// measure 0
1000
0000
0000
0000
0000
0000
1000
0000
0000
0000
0000
0000
0010
0000
0000
0000
0001
0000
0010
0000
0000
0000
0000
0000
1000
0000
0000
0000
0000
0000
0000
0000
0000
0000
0000
0000
0001
0000
0000
0000
0000
0000
0000
0000
0000
1000
0000
0000
,  // measure 1
0000
0000
0100
0000
0000
0010
0000
0000
0001
0000
0000
0000
1000
0000
0000
0000
,  // measure 2
0100
0000
1000
0000
0100
0000
1000
0000
0001
0000
0000
0000
0010
0000
0000
0100
,  // measure 3
0000
0000
1000
0000
0000
0100
0000
0000
1000
0000
0000
0000
0100
0000
1000
0000
,  // measure 4
0100
0000
0010
0000
0001
0000
1000
0000
1000
0000
0000
0000
0001
0000
0000
1000
,  // measure 5
0000
0000
0100
0000
0000
0010
0000
0000
1000
0000
0000
0000
0010
0000
0000
1000
,  // measure 6
0000
0100
0001
0100
0001
0100
1000
0100
,  // measure 7
1000
0100
2000
0000
3001
0000
1000
0000
,  // measure 8
0010
0000
0100
0000
0010
0000
0100
0000
1000
0000
0000
0100
1000
0000
0001
0000
,  // measure 9
1000
0000
0010
0000
0100
1000
0100
1000
,  // measure 10
0100
1000
0001
0010
1000
0100
0001
0100
,  // measure 11
1000
0000
0000
0100
0000
0000
0000
0000
0000
0000
0010
0000
0100
0000
1000
0000
,  // measure 12
0100
0000
0000
1000
0100
0000
1000
0000
0010
0000
0000
0001
0010
0000
0001
0000
,  // measure 13
0100
0000
1000
0000
0100
0001
0010
1000
,  // measure 14
0100
0001
0100
0001
0100
0010
0001
0010
,  // measure 15
0100
0010
1000
0000
0000
1000
0100
0001
,  // measure 16
0010
0000
0000
1000
0000
0000
0010
0000
0100
0010
0000
0000
1000
0000
0000
0000
0000
0000
0100
0000
0000
0010
0000
0000
,  // measure 17
0001
0010
1000
0000
1000
0000
0100
0001
,  // measure 18
0100
0001
0010
0000
1000
0000
0100
0000
,  // measure 19
1000
0100
1000
0000
0000
0010
0001
0010
,  // measure 20
0001
0010
0100
1000
1000
0000
0001
1000
,  // measure 21
0001
0010
0100
0000
1000
0000
0100
1000
,  // measure 22
0100
0000
1000
0000
0001
0000
0000
0010
0100
0000
0000
0000
1000
0000
0000
0000
,  // measure 23
0100
0001
0010
1000
0000
0100
1000
0100
,  // measure 24
1000
0010
0001
1000
1000
0000
1000
0001
,  // measure 25
0010
0100
0000
1000
1000
0000
1000
0001
,  // measure 26
0000
0000
0010
0000
0000
0100
0000
0000
1000
0000
0000
0000
1000
0000
0000
1000
,  // measure 27
0000
0000
0001
0000
0000
0010
0000
0000
0100
0000
0000
0000
1000
0000
0100
0000
,  // measure 28
1000
0000
0100
0000
0010
0000
0000
0000
1000
0000
0000
0000
0001
0000
0000
1000
,  // measure 29
0000
0000
0100
0000
0000
0010
0000
0000
0001
0000
0000
0000
1000
0000
0100
0000
,  // measure 30
1000
0000
0100
0000
1000
0000
0010
0000
1000
0000
0000
0000
0001
0000
0000
0010
,  // measure 31
0000
0000
0100
0000
0000
1000
0000
0000
1000
0000
0000
0000
0100
0000
0001
0000
,  // measure 32
0010
1000
0100
0000
1000
0000
0100
1000
,  // measure 33
0100
0000
0001
0000
0010
0000
0000
0000
1000
0000
0000
0000
0100
0000
0000
1000
,  // measure 34
0000
0000
0100
0000
0001
0010
0001
0000
1000
0000
0100
0000
1000
0000
0000
0000
,  // measure 35
1000
0000
0001
0010
1000
0000
0100
0000
,  // measure 36
0001
0000
0000
0000
0010
0100
0010
0000
1000
0000
0000
0000
1000
0000
0010
0000
,  // measure 37
1000
0000
0010
0000
0001
0000
0000
0000
1000
0000
0000
0000
0001
0000
0000
1000
,  // measure 38
0000
0000
0100
0000
0000
0010
0000
0000
0001
0000
0000
0000
0010
1000
0010
0000
,  // measure 39
0000
1001
1000
0001
,  // measure 40
0010
0000
1000
0000
0100
0000
0001
0000
0010
0000
0000
1000
0010
0000
1000
0000
,  // measure 41
0200
0000
0000
0000
0302
0000
0000
0000
0003
0000
0010
1000
0100
0000
0001
0000
,  // measure 42
0010
0000
1000
0000
0100
0000
0001
0000
1000
0000
0000
0001
1000
0000
0001
0000
,  // measure 43
0020
0000
0230
0000
0300
1000
0100
0010
,  // measure 44
0010
0000
0000
1000
0010
0000
0100
0000
0001
0000
0000
0010
0001
0000
1000
0000
,  // measure 45
0001
0000
0100
0000
0000
1000
0100
0001
,  // measure 46
0010
0110
1000
0200
0000
0000
0000
0000
,  // measure 47
0000
0000
1300
0000
0000
1000
0100
1000
,  // measure 48
0100
0000
0000
1000
0000
0000
0001
0000
1000
0001
0000
0000
1000
0000
0000
0000
0000
0000
1001
0000
0000
0001
0000
0000
,  // measure 49
0010
0100
1000
0000
1000
0000
0100
1000
,  // measure 50
0100
0000
0010
0000
0001
0000
0000
0000
1000
0000
0000
0000
0001
0000
0000
1000
,  // measure 51
0000
0001
1000
0000
0100
0000
0100
0010
,  // measure 52
0001
0000
0010
0000
1000
0000
0000
0000
1000
0000
0000
0000
1000
0000
0000
0001
,  // measure 53
0000
0000
1000
0000
0000
0000
0000
0000
0001
0000
0000
0000
0010
0000
0000
0100
,  // measure 54
0000
1000
0100
0001
0010
0000
1000
0100
,  // measure 55
0001
0010
0000
0000
1000
0000
0100
0000
0000
0000
1000
0000
0000
0000
1000
0000
,  // measure 56
0100
1000
0001
0000
1000
0000
0001
1000
,  // measure 57
0010
0100
1000
1000
0000
1000
0000
1000
,  // measure 58
0001
0000
0010
0000
0100
0000
1000
0000
1000
0000
0000
0000
0001
0000
0000
1000
,  // measure 59
0000
0000
0010
0000
0000
0100
0000
0000
1000
0000
0000
0000
0100
0000
1000
0000
,  // measure 60
0100
0000
1000
0000
0001
0000
0000
0000
1000
0000
0000
0100
0010
0100
0010
0001
,  // measure 61
0000
1000
0000
1000
0001
1000
0100
1000
0000
0000
0000
0000
1010
0000
0100
1000
,  // measure 62
0000
0000
0000
1000
0001
1000
0001
1000
0000
0000
0000
0000
0000
0000
0000
0000
;
