#VERSION:0.83;
#TITLE:Magical;
#SUBTITLE:;
#ARTIST:Snail's House;
#TITLETRANSLIT:;
#SUBTITLETRANSLIT:;
#ARTISTTRANSLIT:;
#GENRE:;
#ORIGIN:;
#CREDIT:;
#BANNER:Magical-bn.png;
#BACKGROUND:Magical-bg.png;
#PREVIEWVID:;
#JACKET:Magical-jacket.png;
#CDIMAGE:;
#DISCIMAGE:;
#LYRICSPATH:;
#CDTITLE:;
#MUSIC:Magical.mp3;
#OFFSET:0.000000;
#SAMPLESTART:20.571430;
#SAMPLELENGTH:13.714287;
#SELECTABLE:YES;
#BPMS:0.000=174.000,
4.000=87.000,
20.000=174.000,
170.000=87.000,
171.000=174.000;
#STOPS:;
#DELAYS:;
#WARPS:;
#TIMESIGNATURES:0.000=4=4;
#TICKCOUNTS:0.000=4;
#COMBOS:0.000=1;
#SPEEDS:0.000=1.000=0.000=0;
#SCROLLS:0.000=1.000;
#FAKES:;
#LABELS:0.000=Song Start;
#BGCHANGES:;
#KEYSOUNDS:;
#ATTACKS:
;

//---------------dance-single - ----------------
#NOTEDATA:;
#CHARTNAME:;
#STEPSTYPE:dance-single;
#DESCRIPTION:;
#CHARTSTYLE:;
#DIFFICULTY:Easy;
#METER:4;
#RADARVALUES:0.391683,0.496301,0.284524,0.327634,0.000000,318.000000,285.000000,33.000000,38.000000,0.000000,0.000000,0.000000,0.000000,0.000000,0.391683,0.496301,0.284524,0.327634,0.000000,318.000000,285.000000,33.000000,38.000000,0.000000,0.000000,0.000000,0.000000,0.000000;
#CREDIT:;
#NOTES:
0000
0000
0000
0000
,
1000
0000
0010
0001
,
0100
0000
0010
1000
,
1000
0100
1000
0010
,
0001
0100
0001
0020
,
1030
1000
0100
0000
,
1000
0010
0001
1000
,
0010
0000
0001
0000
,
0100
0001
0100
0010
,
1000
0001
1000
0010
,
0200
0300
0001
0010
,
0001
0100
1000
0010
,
2000
0000
3100
0001
,
0001
1000
0010
1000
,
0100
0001
0010
0001
,
0101
0001
1000
0010
,
1000
0100
1000
0010
,
0001
0101
1000
0100
,
0010
1000
0001
0010
,
0001
1000
0001
1000
,
0001
0100
2000
0000
,
3001
0000
0010
0100
,
2000
3000
0010
0001
,
0001
1000
0010
1000
,
0200
0000
0301
0001
,
0010
1000
1100
0001
,
0020
0000
0031
0000
,
1000
0010
1000
0100
,
0001
0110
0002
0000
,
1003
0100
1000
1010
,
1000
0100
0001
0011
,
0001
0100
0001
0110
,
1000
1010
1000
1001
,
0001
0010
0001
0100
,
2000
3100
0120
0031
,
2000
3010
1000
0100
,
0002
1003
0010
0100
,
2000
3100
0020
0031
,
0010
1000
0100
0000
,
0002
1003
2000
3010
,
0100
0002
1003
0000
,
0020
1030
0200
0301
,
0020
0031
1000
2000
,
3100
0020
0031
2000
,
3010
0100
0001
0001
,
1000
0010
1000
1100
,
0001
0001
1000
1000
,
0010
1000
0100
0001
,
0010
0101
0100
0010
,
1000
0010
0100
1000
,
0010
0110
0010
0001
,
0100
0011
0001
0100
,
1000
0110
1000
1000
,
1001
0001
1001
0001
,
0011
0001
1100
1000
,
1010
1000
0110
0001
,
0011
0101
0010
1000
,
1100
1000
1010
1000
,
1001
0001
0011
0001
,
0101
1001
1010
0110
,
1000
0100
0002
1003
,
0010
1000
0102
0000
,
0013
1000
0100
2000
,
3010
0200
0301
0010
,
0001
1002
1000
1003
,
0010
0100
2000
3010
,
0200
0301
0010
0100
,
0010
1000
0010
0200
,
0301
0010
0001
2000
,
3010
1000
0100
0002
,
0003
0010
0100
1000
,
0010
1000
0100
0010
,
0000
1000
0100
2000
,
3001
0010
0002
0103
,
1000
0010
1000
0200
,
1300
0020
1030
0002
,
0013
0100
1000
0001
;

//---------------dance-single - ----------------
#NOTEDATA:;
#CHARTNAME:;
#STEPSTYPE:dance-single;
#DESCRIPTION:;
#CHARTSTYLE:;
#DIFFICULTY:Medium;
#METER:6;
#RADARVALUES:0.559195,0.562475,0.112085,0.258659,0.000000,454.000000,441.000000,13.000000,30.000000,0.000000,0.000000,0.000000,0.000000,0.000000,0.559195,0.562475,0.112085,0.258659,0.000000,454.000000,441.000000,13.000000,30.000000,0.000000,0.000000,0.000000,0.000000,0.000000;
#CREDIT:;
#NOTES:
0000
0000
0000
0000
,
1000
0000
0001
0000
0010
0001
0100
0000
,
1000
0000
0010
0000
0100
0001
1000
0000
,
2000
3001
0001
0000
0010
0100
1000
0000
,
0020
0031
0100
0000
1000
0010
1000
0000
,
1000
0001
0010
0001
0100
1000
0000
0020
,
0000
1030
0000
0001
0000
0010
0001
0100
,
1000
0010
0000
2000
0000
3001
1000
0010
,
0000
0100
0000
0200
0000
1300
0001
0010
,
0001
1000
0000
2000
0000
3010
1000
0001
,
0100
0100
0000
0010
0002
0000
1003
0000
,
0010
0000
0110
0000
1000
0000
0010
1000
,
0100
0001
0010
0001
0100
1000
0010
0000
,
1000
0000
0001
0000
0010
0001
0100
0001
,
1000
0000
0110
0000
1000
0100
1000
0010
,
1000
0000
0001
0000
0110
0001
0010
0001
,
1000
0000
0010
0000
1010
1000
0100
1000
,
0001
0010
0101
1000
,
1000
0010
1000
0000
1100
0000
1000
0000
,
0001
0010
0001
0100
1000
0010
1000
0100
,
0001
1000
0010
1000
2000
0000
0000
0000
,
3001
0000
1000
0010
1000
0100
0000
0002
,
0000
1003
0010
1000
0100
0010
0001
0010
,
0001
0000
0100
0001
1000
0010
0000
1000
,
0000
0100
1000
0010
1000
0100
0001
0010
,
1002
0000
1003
0000
0010
1000
0100
2000
,
0000
3010
1000
0100
0001
0010
0001
0100
,
1000
0000
0010
1000
0100
0001
0010
0002
,
0000
0000
1003
0100
0000
1000
0010
1000
,
1000
0000
0001
1000
0010
1000
0100
0001
,
1000
0010
1000
0001
1000
0010
0100
0001
,
0010
0000
0100
0001
0010
0100
1000
0010
,
1000
0010
1000
0100
0001
0010
0001
0000
,
0001
0000
1000
0100
1000
0001
0010
0001
,
0100
1000
0010
1000
0010
0100
0010
0001
,
0010
0001
1000
0010
1000
0100
0001
1000
,
0002
1003
0010
1000
,
2000
0000
3100
0002
0000
0013
2000
0000
,
3010
0200
0000
1300
0010
0000
0000
0000
,
2000
0000
3001
0020
0000
0031
0200
0000
,
1300
0020
0000
0000
0130
0000
0001
0000
,
2000
0000
3100
2000
0000
3010
0002
0000
,
0013
0002
0000
1003
0010
0000
1000
0000
,
0100
2000
0000
3010
0001
0000
1000
0100
,
1000
0001
0010
0001
0100
0000
2000
0000
,
3010
0000
0001
0000
1000
0100
0000
0001
,
0010
0001
0100
0000
1000
0000
0010
0000
,
1000
0000
0100
0000
0010
0001
0000
0100
,
0001
0100
0001
0000
1000
0000
1000
0000
,
0010
0000
0100
0000
1000
0100
0000
1000
,
0010
1000
0010
0000
0100
0000
0010
0000
,
0100
0000
0010
0000
0001
0100
0000
0001
,
0010
0001
0100
0000
0010
0000
0010
0000
,
0010
1000
0010
1000
0100
0001
0010
0001
,
0100
1000
0010
0000
1000
0100
1000
0000
,
0001
0000
0010
0001
0100
0000
1000
0000
,
0010
1000
0001
1000
0010
0000
0100
0000
,
0100
0000
0010
0001
0100
0100
0000
0010
,
1000
0010
1000
0100
0001
0000
0100
0000
,
0100
0001
0010
0000
0001
0100
0010
0000
,
0010
0000
1000
0001
0000
0000
1000
0000
,
0001
1000
1010
1000
0000
0100
0000
0001
,
0010
0001
0101
0000
1000
0000
1000
0010
,
1000
0100
0101
0000
0010
1000
0000
0100
,
0010
0000
1010
0000
1000
0000
0010
1000
,
0100
0001
0010
0000
1000
0100
0000
1000
,
0010
1000
0002
0000
1003
0000
0010
0000
,
1000
0100
0001
0000
0010
0001
0000
0100
,
1000
0010
0010
0000
0100
0000
1000
0000
,
0010
0000
1000
0100
0001
0010
0002
1000
,
0013
1000
0100
0010
0110
0100
1000
0000
,
0010
0000
1000
0100
0001
0010
0000
1000
,
0001
1000
0010
1000
0200
0000
1300
0000
,
1000
0010
1000
0100
0000
0001
0000
0010
,
0001
0100
0000
0010
1000
0010
0010
0000
,
1000
0100
0000
0001
0010
0000
1000
0100
,
0000
1000
0001
0000
0100
0000
1001
0000
;

//---------------dance-single - ----------------
#NOTEDATA:;
#CHARTNAME:;
#STEPSTYPE:dance-single;
#DESCRIPTION:;
#CHARTSTYLE:;
#DIFFICULTY:Beginner;
#METER:3;
#RADARVALUES:0.264817,0.297781,0.017244,0.129329,0.000000,215.000000,213.000000,2.000000,15.000000,0.000000,0.000000,0.000000,0.000000,0.000000,0.264817,0.297781,0.017244,0.129329,0.000000,215.000000,213.000000,2.000000,15.000000,0.000000,0.000000,0.000000,0.000000,0.000000;
#CREDIT:;
#NOTES:
0000
0000
0000
0000
,
0000
0000
0010
0100
,
1000
0000
0001
0010
,
0100
0000
0001
1000
,
0001
0000
0010
0100
,
1000
0000
0000
0000
,
0010
0001
0100
0001
,
0010
0000
0001
0000
,
1000
0100
1000
0010
,
1000
0000
0001
0000
,
0010
0100
0010
0000
,
0010
0000
0100
0000
,
1000
0100
1000
0010
,
0001
1000
1000
0010
,
0100
1000
0100
0100
,
0001
0010
0001
1000
,
0010
0100
0100
0010
,
0010
0001
1000
0100
,
1000
0010
0001
1000
,
1000
0000
0001
0000
,
1000
0010
0100
0000
,
2000
0000
3001
0000
,
0010
0001
0100
0000
,
0020
0000
0130
0000
,
0001
0100
0010
0000
,
1000
0010
0001
0000
,
0100
0000
0001
0010
,
0002
0003
1000
0000
,
0010
1000
0100
0000
,
0001
0010
0001
0100
,
1000
0000
1000
0010
,
0001
0100
0001
0010
,
0100
0000
0010
0001
,
0001
1000
0010
1000
,
0100
0000
1000
0001
,
0010
0000
0001
0100
,
0002
0000
2003
0000
,
3010
0000
0100
0000
,
0001
0000
1000
0000
,
2000
0000
3100
0000
,
0120
0000
0031
1000
,
0100
0000
1000
0000
,
0010
0000
0001
1000
,
0000
0100
0000
1000
,
0010
0002
0000
1003
,
0000
0100
0000
1000
,
0000
0010
0000
0100
,
0000
0001
0000
0010
,
0000
0100
0000
1000
,
0000
0010
0000
0001
,
0000
0100
0000
0001
,
0000
1000
0000
0100
,
1000
0010
0000
0100
,
0000
0001
0010
0001
,
0000
0010
0100
1000
,
0000
1000
0010
1000
,
0000
0001
0001
1000
,
0000
1000
0001
0001
,
0000
0001
1000
0010
,
0100
0010
0100
0010
,
0000
0100
0000
2000
,
0000
3100
0000
0001
,
0010
0001
0000
0200
,
0000
0301
0000
0010
,
0001
1000
0001
0020
,
0000
0031
0000
0001
,
0100
0001
0000
0200
,
0300
0002
0003
1000
,
0010
1000
0100
1000
,
0000
1000
0001
0010
,
0010
1000
0000
0200
,
0300
1000
0000
0010
,
0010
0001
0100
1000
,
0000
0001
1000
0200
,
0300
0010
0000
0001
,
0000
1000
0000
0010
,
0000
0100
0010
1001
;

//---------------dance-single - ----------------
#NOTEDATA:;
#CHARTNAME:;
#STEPSTYPE:dance-single;
#DESCRIPTION:;
#CHARTSTYLE:;
#DIFFICULTY:Hard;
#METER:9;
#RADARVALUES:0.690988,0.694822,0.319012,0.586293,0.159506,561.000000,524.000000,37.000000,68.000000,0.000000,0.000000,0.000000,0.000000,0.000000,0.690988,0.694822,0.319012,0.586293,0.159506,561.000000,524.000000,37.000000,68.000000,0.000000,0.000000,0.000000,0.000000,0.000000;
#CREDIT:;
#NOTES:
// measure 0
0000
0000
0000
0000
,  // measure 1
1000
0000
0000
0000
0000
1000
0000
0010
0000
0000
0000
0001
0000
0010
0100
1000
,  // measure 2
0010
0000
0000
0000
0000
1000
0100
0001
0000
0000
1000
0000
0100
0000
0000
0000
,  // measure 3
1000
0000
0010
0000
1000
0000
0001
0010
0000
1000
0100
1000
0001
0000
0000
0000
,  // measure 4
0010
0000
0100
0000
1000
0000
0001
1000
0000
0010
1000
0000
0100
0000
0000
0000
,  // measure 5
1000
0001
0010
0001
1000
0100
1000
0002
,  // measure 6
0000
1003
0010
1000
0100
1000
0010
1000
,  // measure 7
0100
0001
0000
0010
0000
1000
0010
0200
,  // measure 8
0000
0000
1300
0001
0100
0000
1000
0000
0001
0000
0100
0000
0010
0000
1000
0000
,  // measure 9
2000
0010
0000
3010
0000
0100
0001
0010
,  // measure 10
0001
1000
0100
1000
0010
1000
0000
0001
,  // measure 11
0020
0000
1030
0100
1000
0001
0010
0002
,  // measure 12
0000
0103
1000
0100
1000
0010
1000
0100
,  // measure 13
0001
0000
0010
0100
0010
0000
0001
0000
1000
0000
0100
0000
1000
0000
0010
0000
,  // measure 14
0100
1000
0001
0020
0000
1030
0001
0010
,  // measure 15
0100
0010
0110
1000
0001
0000
1001
1000
,  // measure 16
0100
1000
0100
0010
0001
0010
0002
0000
,  // measure 17
1003
0000
0000
1000
0100
0000
0010
0000
0100
0000
0000
0001
0010
0000
0100
0000
,  // measure 18
0110
0101
1010
1001
,  // measure 19
1000
0100
0010
0100
0010
0001
0010
0001
,  // measure 20
1000
0000
1000
0000
0100
0000
0100
0000
0020
0000
0000
0000
0002
0000
0000
0033
,  // measure 21
1000
0000
1000
0001
1001
0010
0000
0200
,  // measure 22
0000
0000
1300
0000
0100
0000
0001
0020
0200
0030
0310
0000
1000
0000
0001
0000
,  // measure 23
1000
1000
0100
0010
0101
0000
0010
1001
,  // measure 24
0000
0000
0100
0000
1000
0000
0010
0002
1003
0000
0100
0000
0020
0000
0000
0000
,  // measure 25
2030
0000
0100
3010
1001
0010
0000
0202
,  // measure 26
0303
0000
1000
0000
0100
0000
0010
1000
0010
0000
0001
0000
0100
0000
0001
0000
,  // measure 27
1000
0100
1000
0010
0101
0000
1000
0200
,  // measure 28
0000
0000
1300
0000
0010
0000
1000
0000
1001
0000
0000
0000
0001
0010
0100
1000
,  // measure 29
1000
0100
0010
0001
0100
0001
0001
0010
,  // measure 30
1000
0000
0100
1000
0100
0000
1000
0000
0001
0000
0010
0001
0010
0000
0001
0000
,  // measure 31
0100
0001
0010
1000
0001
1000
1000
0010
,  // measure 32
0100
0000
0001
0100
0001
0000
0100
0000
1000
0000
0010
1000
0010
0000
1000
0000
,  // measure 33
2000
3100
0020
0031
0200
0301
0010
0020
,  // measure 34
1030
0100
1000
0200
0310
0001
0020
0031
,  // measure 35
1000
0100
0010
0001
0100
0010
0001
1000
,  // measure 36
0010
0001
1000
0100
0002
0000
2003
0000
,  // measure 37
0200
0300
3200
0020
0030
0310
0022
0003
,  // measure 38
0031
0000
0001
0000
1000
0000
1000
0000
1000
0010
1000
0010
0001
0100
0001
0100
,  // measure 39
2000
3000
1001
0002
0003
1010
0200
0000
,  // measure 40
0301
0020
0000
0000
0032
0000
2003
0000
,  // measure 41
3002
0003
0101
0200
0300
1100
2000
3000
,  // measure 42
1001
0011
0000
1010
0000
0000
1000
0100
,  // measure 43
1000
0010
0100
0001
0010
1000
0001
0100
,  // measure 44
0010
0100
2000
0000
3010
0000
1000
0000
,  // measure 45
0001
0000
0011
0000
1000
0100
0000
1000
,  // measure 46
0010
1000
0001
0000
0100
0000
0010
0000
,  // measure 47
0010
0000
1000
0000
0100
1000
0000
0010
,  // measure 48
1000
0001
0110
0000
0001
0000
1000
0000
,  // measure 49
0010
0000
1010
0000
1000
0100
0000
0001
,  // measure 50
0100
0001
0010
0001
1000
0000
0100
0000
,  // measure 51
0010
0000
1000
0000
0001
2000
0000
3010
,  // measure 52
1000
0001
0100
1000
0010
0000
0001
0000
,  // measure 53
1000
0010
1000
0100
0001
0010
0000
1000
,  // measure 54
0100
1000
0001
0010
1000
0100
0001
0010
,  // measure 55
0001
1000
0100
0000
0001
0010
0000
1000
,  // measure 56
0000
0100
0000
0001
0001
0000
1000
0010
,  // measure 57
1000
0100
0001
0010
0000
0001
0100
1000
,  // measure 58
0010
1000
0000
0001
1000
0100
1000
0010
,  // measure 59
0001
1000
0010
0001
1000
0100
1000
0010
,  // measure 60
0100
0001
2002
0000
0000
3003
1010
0000
,  // measure 61
1100
0100
0110
0001
0000
2000
0100
3010
,  // measure 62
0010
0000
0001
1000
0110
0000
2000
0000
3020
0000
0000
0000
0130
0000
0000
0000
,  // measure 63
1000
0000
0000
0000
1001
0000
1000
0010
1000
0000
0100
0001
0100
0000
0010
0000
,  // measure 64
0000
0020
0130
2000
3000
0001
0010
1000
,  // measure 65
0100
0000
1100
0001
0010
0100
0001
0100
,  // measure 66
2000
0000
3010
0100
0000
0001
2000
3010
,  // measure 67
2000
3001
0100
0010
1000
0100
0001
0010
,  // measure 68
0000
0000
0010
0000
1000
0000
1000
0000
0001
0000
0001
0010
0100
0000
0010
0000
,  // measure 69
0001
0000
1000
0000
0010
0000
1000
0000
1000
0000
0001
0000
0100
0000
0010
0100
,  // measure 70
0010
0000
0100
0000
1000
0000
0001
1000
0001
0000
1000
0000
0010
0000
1000
0000
,  // measure 71
0001
0000
0100
0000
1000
0000
0100
0000
0100
0000
0001
0000
0010
0000
1000
0010
,  // measure 72
1000
0000
0010
0000
0100
0000
0001
0100
0001
0000
0100
0000
0200
0000
0310
0000
,  // measure 73
0002
1003
0020
1030
0001
0002
0103
0010
,  // measure 74
0100
0020
0031
1000
0002
1003
0202
0000
,  // measure 75
0303
2020
0000
3030
0022
0000
0033
2200
,  // measure 76
0300
3100
1002
0003
0020
0030
0110
0000
;
