#TITLE:Lucky Day;
#SUBTITLE:;
#ARTIST:Nicola Roberts;
#TITLETRANSLIT:;
#SUBTITLETRANSLIT:;
#ARTISTTRANSLIT:;
#GENRE:;
#CREDIT:;
#BANNER:lucky.png;
#BACKGROUND:lucky day bg1.png;
#LYRICSPATH:;
#CDTITLE:;
#MUSIC:Lucky Day.mp3;
#OFFSET:0.000000;
#SAMPLESTART:38.200001;
#SAMPLELENGTH:15.243000;
#SELECTABLE:YES;
#DISPLAYBPM:126.000000;
#BPMS:0.000000=125.999992
;
#STOPS:
;
#BGCHANGES:;
#KEYSOUNDS:;
#ATTACKS:;

//---------------dance-single - ----------------
#NOTES:
     dance-single:
     :
     Hard:
     8:
     0.448342,0.516239,0.129329,0.732866,0.189683,364.000000,349.000000,15.000000,85.000000,0.000000,0.000000,0.448342,0.516239,0.129329,0.732866,0.189683,364.000000,349.000000,15.000000,85.000000,0.000000,0.000000:
// measure 0
1000
0000
1000
0100
1000
0100
0000
0000
0001
0010
0001
0010
0000
0000
0000
0000
,  // measure 1
0000
0000
0001
1000
0001
0010
0000
1000
0100
0010
0000
0000
0100
0000
0000
0000
,  // measure 2
0000
0000
1000
0010
1000
0000
0010
0000
0001
0010
0001
0000
0100
0000
0001
0000
,  // measure 3
1000
0000
0100
0010
0100
0000
0001
0000
1000
0100
0000
0002
2000
0000
3003
0000
,  // measure 4
0100
0010
0100
0010
0002
0003
2000
3000
,  // measure 5
0000
0000
0001
0000
0010
0000
1000
0001
0000
0000
0100
0000
0001
0000
1000
0000
,  // measure 6
0100
1000
0100
1000
,  // measure 7
0002
0023
0230
2300
,  // measure 8
3001
0010
0001
0010
0002
0000
1003
0000
,  // measure 9
1000
0100
0001
0010
1000
0001
1000
0001
,  // measure 10
2000
0000
0000
0000
0000
3000
0010
0000
0010
0000
0000
0000
0000
0000
0000
0000
,  // measure 11
0002
0023
0230
2300
,  // measure 12
3001
0000
1000
0000
0010
0001
0010
0002
,  // measure 13
0000
1003
0000
0000
1000
0100
0001
2000
,  // measure 14
3000
0002
0003
2000
0000
3000
0000
0020
,  // measure 15
0000
0032
0000
0203
0000
2300
0000
3002
,  // measure 16
0000
0000
0003
0000
0000
0000
0000
1000
0100
0000
1000
0000
0001
0000
0020
0000
,  // measure 17
0000
2030
3001
0010
0100
0010
0100
0020
,  // measure 18
0031
0000
2000
0000
0000
0000
3200
0000
0000
0000
0302
0000
0000
0003
0000
0000
,  // measure 19
0000
0100
0010
0000
1000
0000
0001
0000
0200
0000
0000
0320
0000
0000
0030
0000
,  // measure 20
2000
0000
0000
3000
0001
0000
0001
0010
0000
0000
0010
0000
1000
0000
0100
0000
,  // measure 21
0020
0000
1000
0000
0100
0000
1000
0030
0100
0000
0010
0000
0100
0000
0010
0000
,  // measure 22
1000
0000
0100
0010
0001
1000
0001
1000
,  // measure 23
2000
0000
3100
0000
0200
0000
0301
0000
0002
0000
1003
0020
0000
0000
0030
0000
,  // measure 24
0000
0000
0001
0000
0010
0100
0000
0010
0000
1000
0000
0001
0000
2000
0000
3000
,  // measure 25
0002
0000
0103
0010
2000
0000
3001
0000
,  // measure 26
0000
0000
0000
0000
1000
0000
0100
0010
0000
0000
0010
0000
0100
0000
0010
0000
,  // measure 27
2000
0100
3001
0000
0020
0001
1030
0000
,  // measure 28
0001
0010
0100
0010
2000
0000
3002
0000
,  // measure 29
0003
1000
0100
1000
0001
0010
0001
1000
,  // measure 30
2000
0000
0000
3000
0001
0000
0000
0000
,  // measure 31
1001
0110
0011
1100
,  // measure 32
0000
1000
0010
1000
0001
0000
1001
0000
,  // measure 33
0000
0000
0010
0000
0100
0000
0010
0002
0000
0000
0013
0000
0001
0000
1000
0000
,  // measure 34
0002
1003
0020
0130
,  // measure 35
0101
1010
0110
1001
,  // measure 36
2000
0000
3001
0000
0001
0010
0001
2000
,  // measure 37
0000
3002
0000
0103
1000
0100
1000
0200
,  // measure 38
0000
0000
0301
0000
1000
0000
0001
0020
,  // measure 39
0000
0230
0000
0320
0000
0032
0000
2003
,  // measure 40
3000
0000
0000
0010
0001
0010
0100
2000
,  // measure 41
0000
3020
0030
1000
0200
0310
0001
2000
,  // measure 42
0000
3001
0010
0200
0000
0302
0000
0003
,  // measure 43
0000
0000
0100
0000
0010
0000
1000
0000
0200
0320
0000
0230
0000
0000
0300
0000
,  // measure 44
1000
0000
0100
0000
0010
0000
0010
0002
0000
0000
0003
1000
0000
0100
0000
1000
,  // measure 45
0002
0103
0020
1030
,  // measure 46
2000
0000
3001
0010
0001
0010
0100
1000
,  // measure 47
0002
0000
1003
0000
0020
0000
0130
0000
0001
0000
0010
0001
2000
0000
3001
0000
,  // measure 48
0000
0000
0100
0000
0001
0010
0000
1000
0000
0100
0000
0010
0000
0001
0000
0000
,  // measure 49
0200
0001
1300
1000
0020
0000
1030
0000
,  // measure 50
1000
0000
0000
0000
0010
0000
0100
0020
0000
0030
1000
0000
0100
0000
0001
0000
,  // measure 51
2000
0000
3001
0000
0020
0000
0130
1000
,  // measure 52
0100
0000
0010
0001
0000
1000
0100
0000
,  // measure 53
1000
0000
0000
0000
0001
0000
0010
0010
0000
1000
0000
0000
0100
0000
0010
0000
,  // measure 54
2000
0000
0000
0000
3001
0000
0020
0000
0000
0000
0100
0030
0001
0000
0000
0000
,  // measure 55
1000
0000
0000
0000
0010
0000
0001
0010
0000
1000
0000
0000
0010
0000
0100
0000
,  // measure 56
2000
0000
3001
0020
0000
0130
0001
0000
,  // measure 57
0001
0000
0000
0000
2000
0000
3001
0020
0000
0000
0130
0000
2000
0000
3001
0000
,  // measure 58
1001
0110
1010
0011
,  // measure 59
1100
0000
0101
0000
0010
0100
0010
0100
;

//---------------dance-single - ----------------
#NOTES:
     dance-single:
     :
     Beginner:
     3:
     0.224171,0.231823,0.000000,0.181061,0.000000,182.000000,182.000000,0.000000,21.000000,0.000000,0.000000,0.224171,0.231823,0.000000,0.181061,0.000000,182.000000,182.000000,0.000000,21.000000,0.000000,0.000000:
1000
0001
1000
0000
,
0001
0010
0001
0000
,
1000
0100
1000
0000
,
0001
0010
0001
2000
,
3100
0001
0010
0001
,
0000
1000
0100
1000
,
0001
0000
1000
0000
,
0020
0032
2003
3200
,
0300
0001
0010
0010
,
0000
1000
0100
1000
,
0100
0000
0001
0000
,
1000
0100
1000
0100
,
0001
0000
1000
0001
,
0010
0000
0100
1000
,
0100
0000
0001
0000
,
0010
0010
0010
0010
,
1000
0000
0100
1000
,
0100
0000
0001
0001
,
0001
0000
1000
0000
,
0010
0010
0010
0001
,
1000
0100
1000
0100
,
0002
0000
0000
0003
,
1000
0010
0100
0010
,
0001
0001
1000
1000
,
0100
0010
0001
0010
,
0002
0003
2000
3000
,
0100
0001
0001
0010
,
0002
0000
0000
0003
,
1000
1000
1000
0000
,
0100
0100
0010
0100
,
0001
0000
1000
0000
,
0002
0023
0230
2300
,
3000
0001
0010
0001
,
0000
1000
0100
1000
,
0001
0000
0000
0000
,
0010
0100
0010
0001
,
2000
3000
0001
0010
,
0100
1000
0100
0000
,
0001
0000
1000
0000
,
0010
0001
0010
0001
,
0001
0000
0100
0000
,
0100
0100
1000
0100
,
0010
0000
0001
0000
,
1000
0000
0020
0030
,
1000
0001
0010
0001
,
0002
0000
0000
0003
,
1000
0100
0100
0100
,
0010
0100
0010
0100
,
0010
1000
0010
0000
,
0002
0003
0020
0030
,
1000
0100
1000
0010
,
0000
0001
0100
1000
,
1000
0000
0010
0001
,
0000
0001
0010
0100
,
2000
3000
0100
0001
,
0010
0001
0010
0001
,
2000
3000
0100
0010
,
0010
0000
0100
0010
,
0002
0003
0010
0100
,
0010
0000
0100
0010
;

//---------------dance-single - ----------------
#NOTES:
     dance-single:
     :
     Easy:
     4:
     0.254963,0.310390,0.120707,0.387988,0.000000,207.000000,193.000000,14.000000,45.000000,0.000000,0.000000,0.254963,0.310390,0.120707,0.387988,0.000000,207.000000,193.000000,14.000000,45.000000,0.000000,0.000000:
1000
0000
0001
0000
,
0010
0000
0001
0001
,
1000
0000
0100
0000
,
0010
0000
0000
0000
0001
0000
2001
3000
,
1000
0100
1000
0100
,
0000
0001
0010
0100
,
0001
0000
1000
0000
,
0020
0032
2003
3200
,
0300
0001
0010
0100
,
0000
1000
0100
1000
,
1000
0000
0001
0000
,
0002
0203
0320
0032
,
1003
0000
0100
1000
,
1001
0000
0001
0010
,
0101
0000
0110
0000
,
1000
0100
0010
0001
,
1000
0000
0001
0010
,
0002
0103
1000
0100
,
0020
0030
2000
3000
,
0001
0010
0001
0100
,
1001
1001
0001
0010
,
2200
0000
0000
3300
0001
0000
0010
0000
,
0001
0100
1000
0100
,
1002
0000
0010
0000
0100
0000
1000
0003
,
1000
0100
0010
0001
,
1001
0020
1030
1100
,
0001
0001
0010
0100
,
2000
0000
0000
0000
3002
0000
0000
0003
,
1000
0100
1000
0010
,
0000
0001
0010
0001
,
2000
0000
0000
3000
0001
0000
0000
0000
,
0002
0023
0230
2300
,
3001
0001
0001
0010
,
0000
1000
0100
1000
,
0002
0000
0000
0003
2000
0000
0000
3000
,
0200
0301
2000
3010
,
0002
0000
0000
0003
0100
0000
1000
0000
,
0100
1000
0001
0010
,
2002
3003
0220
0330
,
1000
0100
0001
0010
,
0002
0003
0010
0100
,
2000
3000
0010
0001
,
2000
3000
0002
0003
,
1000
0100
0010
0010
,
0001
0010
1000
0100
,
2000
0000
0000
3000
0002
0000
0000
0003
,
1000
0100
0010
0001
,
0001
0010
0110
1000
,
2000
3001
0002
0013
,
0100
1000
0110
1000
,
0000
0001
0010
0100
,
2000
3000
0000
0000
0001
0000
0001
0000
,
1000
0000
0000
0100
0000
0000
0001
0000
,
0000
0010
0100
0010
,
0001
0000
0000
1000
0000
0000
0010
0000
,
0000
0100
0100
0100
,
0100
0000
0000
0010
0000
0000
1000
0000
,
0000
0001
0001
0001
,
2000
0000
0000
3000
0002
0000
0003
0000
,
2000
3010
0002
0103
,
1000
0000
0000
0000
;

//---------------dance-single - ----------------
#NOTES:
     dance-single:
     :
     Medium:
     6:
     0.385524,0.412992,0.051732,0.465585,0.000000,313.000000,307.000000,6.000000,54.000000,0.000000,0.000000,0.385524,0.412992,0.051732,0.465585,0.000000,313.000000,307.000000,6.000000,54.000000,0.000000,0.000000:
1000
0001
0010
0000
0001
0010
1000
0000
,
0000
0100
1000
0100
0001
1000
0001
0000
,
0000
0010
0001
0000
0100
1000
0100
0000
,
1000
0001
1000
0001
0000
0010
0200
0000
,
1300
0000
0100
0001
0020
0000
2030
0000
,
3000
0001
0010
0001
0100
1000
0100
1000
,
0001
0000
0000
1000
0010
0000
0000
0000
,
1001
1001
0011
0110
,
0000
1000
0100
1000
0002
0000
2003
0000
,
3000
0100
0100
1000
0001
0010
0001
1000
,
0001
0000
0000
1000
1000
0000
0000
0000
,
0002
0023
0230
2300
,
3002
0000
0000
0003
0010
0001
0100
2000
,
3000
0002
0003
0000
1000
0010
0100
0100
,
0000
0001
0000
1000
0000
0000
0000
0002
,
0000
0023
0000
0230
0000
2300
0000
3002
,
0000
0003
0000
1000
0100
1000
0001
1000
,
0000
0001
0000
0000
0001
0001
0001
1000
,
0000
1000
0010
0100
0000
0001
0000
0000
,
0010
0100
0001
0010
0001
0000
0001
0000
,
1000
0100
1000
0100
0001
0010
1000
0100
,
2002
0000
0000
3000
0100
0000
0010
0003
,
0001
0000
0010
0100
1000
0100
1000
0001
,
1000
0001
1000
0001
0010
0000
0100
0000
,
1000
0100
1000
0100
0010
0001
1000
0001
,
0002
0003
1000
1000
0100
0000
0001
0000
,
1000
0000
0001
0010
0100
0010
0001
0010
,
0002
0000
0000
0003
1000
0000
1000
0000
,
0100
1000
0100
1000
0001
0000
1000
0000
,
0000
0010
0100
0010
0001
0010
0001
0100
,
2000
3010
0002
0013
,
0200
0320
0230
2300
,
3000
0010
0001
0001
1000
0000
1000
0000
,
0100
0010
0001
0010
0001
0100
0001
0100
,
2000
3000
0000
0001
1000
0000
0000
0000
,
0001
0010
0100
0001
,
0020
0000
0000
0030
0100
1000
0100
0002
,
0000
2003
0000
3000
0100
0001
0001
2000
,
0000
3200
0000
0000
0301
0000
0000
0001
,
0000
0010
0000
0100
0000
0001
0000
2000
,
0000
3000
0000
0100
0001
0010
0001
0100
,
0000
1000
0000
0100
1000
0100
0001
0020
,
0000
1030
0100
0002
0000
0013
0000
0000
,
0000
1000
0010
1000
0002
0000
0023
0030
,
1000
0100
1000
0100
0001
1000
0001
0010
,
2002
0000
0000
3000
0013
0000
0100
0000
,
1000
0100
1000
0001
0010
0100
0001
0010
,
0001
0100
1000
0100
0001
1000
0001
0000
,
1000
0001
0010
0100
1000
0100
0001
0010
,
0002
0000
1003
0100
2000
0000
3100
0000
,
0000
0000
0010
0001
0010
1000
0100
0001
,
2000
0000
3000
0000
0000
0000
0000
0001
,
0020
0000
0030
2000
0000
3000
0200
0000
,
0300
0000
0001
0010
0001
0010
0001
1000
,
0200
0000
0000
0302
0000
0000
0023
0000
,
0030
0000
1000
0100
1000
0001
1000
0010
,
0020
0000
0030
2000
0000
0000
3200
0000
,
0300
0000
0001
0010
0001
0010
1000
0100
,
2000
0000
0000
3000
0002
0000
0000
0003
,
1000
0100
1000
0100
0001
1000
0001
1000
;
