#TITLE:Look;
#SUBTITLE:;
#ARTIST:Doss;
#TITLETRANSLIT:;
#SUBTITLETRANSLIT:;
#ARTISTTRANSLIT:;
#GENRE:;
#CREDIT:;
#BANNER:Look-bn.png;
#BACKGROUND:Look-bg.png;
#LYRICSPATH:;
#CDTITLE:;
#MUSIC:Look.mp3;
#OFFSET:0.000000;
#SAMPLESTART:20.571430;
#SAMPLELENGTH:13.714287;
#SELECTABLE:YES;
#BPMS:0.000000=130.000000
,100.000000=260.000000
,100.500000=130.000000
,100.750000=65.000000
,101.000000=130.000000
,164.000000=260.000000
,164.500000=130.000000
;
#STOPS:164.000000=0.115000
;
#BGCHANGES:;
#KEYSOUNDS:;
#ATTACKS:;

//---------------dance-single - ----------------
#NOTES:
     dance-single:
     :
     Beginner:
     2:
     0.196674,0.234122,0.010672,0.021344,0.000000,129.000000,128.000000,1.000000,2.000000,0.000000,0.000000,0.196674,0.234122,0.010672,0.021344,0.000000,129.000000,128.000000,1.000000,2.000000,0.000000,0.000000:
0000
0000
0000
0000
,
0000
0000
0000
0000
,
0000
0000
0000
0000
,
0000
0000
0000
0000
,
0000
0000
0000
0000
,
1000
0000
0001
0010
,
0000
0000
0000
0000
,
0100
0000
1000
0010
,
0000
0000
0000
0000
,
1000
0000
0001
0010
,
0001
0000
0100
0010
,
1000
0000
1000
0100
,
0000
0001
0010
0001
,
1000
0000
1000
0010
,
0000
0100
0000
1000
,
0100
1000
0010
0001
,
0000
0001
0000
1000
,
1000
0001
0000
0010
,
0100
1000
0000
1000
,
0010
0001
0000
0100
,
1000
0010
0000
0100
,
0001
1000
0000
1000
,
0010
0100
0000
0001
,
1000
0010
0000
0100
,
0001
1000
0000
0010
,
2000
3001
0000
1000
,
0100
1000
0000
0010
,
0100
0001
0000
0010
,
1000
0100
0000
1000
,
0001
0000
0010
0100
,
1000
0000
0001
1000
,
0010
0000
0100
0010
,
1000
0001
0010
0001
,
0200
0000
0300
1001
,
1000
0010
0100
1000
,
0000
0010
0001
1000
,
0000
1000
0100
0010
,
1000
0001
0010
0001
,
0000
0100
1000
0010
,
0000
1000
0001
0010
,
0000
0100
0010
0100
,
0001
1000
1000
1000
,
0000
1000
0001
0001
,
0001
0000
0010
0100
,
1000
0010
0000
0010
,
1000
0001
1000
0100
,
0000
0100
1000
0010
,
0000
0001
0100
0001
,
0000
0001
0000
1000
;

//---------------dance-single - ----------------
#NOTES:
     dance-single:
     :
     Easy:
     3:
     0.243937,0.288351,0.053361,0.064033,0.000000,160.000000,155.000000,5.000000,6.000000,0.000000,0.000000,0.243937,0.288351,0.053361,0.064033,0.000000,160.000000,155.000000,5.000000,6.000000,0.000000,0.000000:
0000
0000
0000
0000
,
0000
0000
0000
0000
,
0000
0000
0000
0000
,
0000
0000
0000
0000
,
0000
0000
0000
0000
,
0001
0000
1000
0100
,
0000
0000
0000
0000
,
0001
0000
1000
0100
,
0000
0000
0000
0000
,
0001
0000
1000
0010
,
1000
0000
0100
1000
,
0001
0000
0000
0010
0000
0000
1000
0000
,
0000
0100
0001
0100
,
0010
0000
1000
0100
,
0000
0001
1000
0010
,
1000
0000
0000
0100
0000
0000
0001
0000
,
0010
0001
1000
1000
,
0001
1000
0100
1000
,
0010
0001
0100
0001
,
1000
0010
0100
0010
,
0001
1000
0100
2000
,
3001
0010
0100
1000
,
0010
1000
0001
0100
,
0010
0100
0010
0001
,
1000
0010
0100
1000
,
0100
1001
0010
1000
,
0010
0010
0100
0001
,
1000
0100
0010
0100
,
0001
1000
0002
2003
,
3001
0100
0010
0100
,
0001
0010
0001
1000
,
0100
1000
1000
0001
,
0001
0010
0110
0100
,
0000
0000
0000
1001
,
1000
0100
1000
0001
,
0010
0001
0001
1001
,
1000
0100
1000
0010
,
0100
0001
0010
0001
,
1000
0100
0100
1000
,
0010
1000
0001
0001
,
0010
0001
0100
1001
,
0000
0010
1000
0100
,
1000
0001
0010
0100
,
0001
0100
1000
0010
,
1000
0001
0002
2003
,
3010
0010
0100
0100
,
0001
0010
1000
0100
,
1000
1000
0001
0001
,
0100
0010
0100
0020
,
0000
0030
0000
0000
0000
0000
0000
0000
;

//---------------dance-single - ----------------
#NOTES:
     dance-single:
     :
     Medium:
     5:
     0.387250,0.393206,0.042689,0.032017,0.000000,254.000000,250.000000,4.000000,3.000000,0.000000,0.000000,0.387250,0.393206,0.042689,0.032017,0.000000,254.000000,250.000000,4.000000,3.000000,0.000000,0.000000:
0000
0000
0000
0000
,
0000
0000
0000
0000
,
0000
0000
0000
0000
,
0000
0000
0000
0000
,
0000
0000
0000
0000
,
1000
0100
0000
0000
0001
0000
0010
0000
,
0000
1000
0100
0000
1000
0001
0010
0000
,
0001
1000
0000
0010
1000
0100
0001
0000
,
0010
0001
1000
0000
0100
1000
0001
0000
,
1000
0000
0001
0000
1000
0010
1000
0000
,
0100
0000
0001
0000
0010
1000
0010
0000
,
0100
1000
0100
1000
0001
0000
0010
0000
,
0001
0100
0001
0000
1000
0010
1000
0000
,
0100
1000
0100
0000
0001
0010
0001
0000
,
1000
0010
1000
0100
0001
0000
1000
0000
,
1000
0010
0100
0010
0001
0010
0001
0000
,
1000
0000
0001
0000
1000
1000
0001
0000
,
1000
0001
1000
0000
1000
0000
0110
0000
,
0100
0001
0100
0000
0001
0000
0011
0000
,
1000
0100
1000
0000
0010
0000
1010
0000
,
1000
0100
1000
0000
0010
0100
0010
0000
,
0001
0000
1000
0000
0001
1000
0100
0010
,
0001
0000
1000
0000
0010
0000
1000
0100
,
0001
0000
0010
0000
0100
0000
0010
1000
,
0010
0001
0100
1000
,
0001
0000
1000
0000
1000
0000
0100
1000
,
0010
0000
0001
0000
1000
0000
0010
1000
,
0100
0000
0001
0000
0010
0001
0100
1000
,
0010
0000
0100
0000
0001
0100
0001
1000
,
0010
1000
0100
0000
0001
0000
0010
0001
,
1000
0010
0100
0000
0100
1000
0100
1000
,
0010
0001
1000
0000
0100
0000
1000
0010
,
0100
0001
0100
0001
1000
0010
1000
0100
,
2000
0001
3001
1001
,
0010
1000
0100
0000
0001
1000
0010
0000
,
1000
0000
0100
0001
0010
0001
1000
0000
,
1000
0010
0100
0000
0100
1000
0100
0000
,
0001
1000
0001
0000
0010
0001
0100
0000
,
1000
0010
1000
0000
0100
0001
0100
0000
,
1000
0010
1000
0100
0001
0010
0001
0000
,
1000
0001
1000
0000
0010
1000
0100
0000
,
1000
0000
0001
0000
1000
0010
1000
0000
,
0100
0001
0010
0000
0001
1000
0010
1000
,
0100
0000
0001
0000
0100
0001
0010
0000
,
0100
0010
0100
0000
1000
0010
1000
0100
,
0002
0000
1003
0000
1000
0010
1000
0000
,
0100
0000
1000
0010
0100
0000
0001
0000
,
0010
0001
0100
0000
1000
0010
1000
0000
,
0100
0000
0001
0000
1000
0010
1000
2000
,
0000
3000
0000
0000
0000
0000
0000
0000
;

//---------------dance-single - ----------------
#NOTES:
     dance-single:
     :
     Hard:
     9:
     0.553432,0.551888,0.021344,0.149411,0.469579,363.000000,361.000000,2.000000,14.000000,0.000000,0.000000,0.553432,0.551888,0.021344,0.149411,0.469579,363.000000,361.000000,2.000000,14.000000,0.000000,0.000000:
// measure 0
0000
0000
0000
0000
,  // measure 1
0000
0000
0000
0000
,  // measure 2
0000
0000
0000
0000
,  // measure 3
0000
0000
0000
0000
,  // measure 4
0000
0000
0000
0000
,  // measure 5
2000
0000
3100
0000
0000
0000
0100
0000
0000
0010
0000
0000
0010
0000
0000
0000
,  // measure 6
0000
0000
0100
0000
0010
0000
0000
0000
1000
0000
0010
1000
0000
0000
0001
0100
,  // measure 7
0000
0000
0000
0000
0000
0000
0100
0000
1000
0100
0000
0000
0010
0000
0000
0000
,  // measure 8
0000
0000
1000
0000
0100
0000
0000
0000
0001
0000
0010
0001
0000
0000
0100
0010
,  // measure 9
1000
0000
0100
1000
0001
0000
0010
0000
0000
0010
0001
0000
0100
0000
0000
0000
,  // measure 10
1000
0000
0000
1000
0010
0000
1000
0000
0001
0000
0010
0001
0100
0000
0001
0100
,  // measure 11
2000
0000
3100
0000
0200
0000
0310
0000
0010
0001
0100
0000
1000
0000
0000
0000
,  // measure 12
1000
0000
0100
1000
0001
1000
0010
0000
0100
0000
0000
0100
0001
1000
0010
0001
,  // measure 13
1000
0000
0100
0000
0001
0000
1000
0000
0000
0100
0001
0000
0010
0000
0000
0000
,  // measure 14
1000
0000
0000
1000
0100
0000
0010
0000
0000
0000
0001
0000
0010
0000
1000
0100
,  // measure 15
2000
3100
0010
0001
0010
0100
1000
0000
,  // measure 16
1000
0000
0001
0000
0100
0010
0000
0001
0100
0000
0000
0001
0020
0000
1000
0000
,  // measure 17
1030
0000
0100
0000
0000
0001
0000
0000
1000
0000
0000
0010
1000
0000
0100
0000
,  // measure 18
0001
0000
1000
0000
0010
1000
0000
0000
0100
0000
0000
0001
0000
0000
0010
0000
,  // measure 19
1000
0000
0100
0000
1000
0001
0000
0000
0010
0000
0000
0001
0000
0000
0100
0000
,  // measure 20
1000
0000
0010
0000
1000
0010
0000
0000
0100
0000
0000
0010
0000
0000
0001
0000
,  // measure 21
0100
0000
0001
0000
0100
0001
0000
0000
0010
0000
0000
0010
0000
0000
0100
0000
,  // measure 22
1000
0000
0100
0000
1000
0100
0000
0000
0010
0000
0000
0010
0000
0000
0100
0000
,  // measure 23
0010
0000
0100
0000
0010
0100
0000
0000
0001
0000
0000
1000
0000
0000
0100
0000
,  // measure 24
1000
0000
0001
0000
0010
0001
0000
0000
1000
0000
0000
0100
0000
0000
1000
0000
,  // measure 25
0001
0000
0000
1000
0110
0001
0000
0000
1000
0000
0001
0010
0100
0000
1000
0000
,  // measure 26
0100
0000
0001
0000
0010
0001
0010
0000
1000
0000
1000
0100
1000
0000
0010
0000
,  // measure 27
1000
0000
0010
0000
0001
1000
0001
0000
0010
0000
1000
0100
1000
0000
0001
0000
,  // measure 28
1000
0000
0010
0000
0100
0001
0100
0000
0010
0000
0001
0100
0001
0000
0010
0000
,  // measure 29
0001
0000
1000
0000
0010
1000
0010
0000
0100
0000
0000
0001
0100
0000
0001
0000
,  // measure 30
0010
0000
0001
0000
1000
0001
1000
0000
0010
0000
1000
0010
1000
0000
0100
0000
,  // measure 31
0010
0000
0100
0000
0010
0100
1000
0000
0001
0000
0010
0001
0010
0000
0100
0000
,  // measure 32
1000
0000
0100
0000
1000
0010
0000
0000
0001
0000
0100
1000
0000
0000
1000
0000
,  // measure 33
0002
0000
1003
0000
0020
1000
0030
0000
0200
0000
0300
1000
0011
0000
1000
0000
,  // measure 34
1000
0000
0010
0000
1000
0100
0010
0000
0001
0000
0010
0100
1000
0000
0100
0000
,  // measure 35
1000
0000
0001
0000
1000
0000
0001
1000
0010
0000
1000
0000
0100
0000
0001
0000
,  // measure 36
0010
0000
0001
0000
0100
0010
0000
0000
1000
0000
0010
0000
1000
0000
0200
0000
,  // measure 37
0301
0000
0100
1000
0100
0000
0000
0010
1000
0000
1000
0000
0100
0000
1000
0000
,  // measure 38
1000
0000
0001
0000
0001
0000
0010
0000
1000
0000
0100
1000
0100
0000
0010
0000
,  // measure 39
0001
0000
1000
0000
0010
0100
1000
0100
0100
0000
0001
0000
0010
0000
0000
0000
,  // measure 40
1000
0000
0100
0000
1000
0001
0000
0000
0010
0000
1000
0100
0001
0000
1000
0000
,  // measure 41
1000
0000
0001
0000
1000
0000
0000
1000
0010
0000
1000
0000
0100
0000
0000
0000
,  // measure 42
1000
0000
0001
0000
0010
0000
0000
0100
1000
0000
0000
0100
0010
0000
0001
0000
,  // measure 43
1000
0000
0010
0000
1000
0001
0100
0000
0001
0000
0100
0001
1000
0000
0010
0000
,  // measure 44
2000
0000
3200
0000
0301
0010
0000
0010
0100
0000
0000
1000
0000
0000
2000
0000
,  // measure 45
3100
0000
0010
0000
0001
0010
0000
0010
0100
0000
0000
0100
1000
0000
0010
0000
,  // measure 46
0000
0000
0100
0000
0010
0000
0000
0010
0001
0000
1000
0100
1000
0000
0010
0000
,  // measure 47
0001
0000
0000
0000
0000
0000
1000
0000
0000
0000
0000
0000
0000
0000
0000
0010
0000
0000
0000
0000
0000
0000
0000
0000
1000
0000
0000
0000
0100
0000
0000
0000
1000
0000
0000
0000
0010
0000
0000
0000
0000
0000
0100
0000
0000
0000
0000
0000
,  // measure 48
0000
0000
0010
0000
0010
1000
0000
0000
0001
0000
0000
0100
0000
0000
1000
0020
,  // measure 49
0002
0033
0000
0000
;
