#VERSION:0.83;
#TITLE:Little Nokia;
#SUBTITLE:;
#ARTIST:Bree Runway;
#TITLETRANSLIT:;
#SUBTITLETRANSLIT:;
#ARTISTTRANSLIT:;
#GENRE:;
#ORIGIN:;
#CREDIT:;
#BANNER:Little Nokia-bn.png;
#BACKGROUND:Little Nokia-bg.png;
#PREVIEWVID:;
#JACKET:Little Nokia-jacket.png;
#CDIMAGE:;
#DISCIMAGE:;
#LYRICSPATH:;
#CDTITLE:;
#MUSIC:Little Nokia.mp3;
#OFFSET:0.000000;
#SAMPLESTART:37.000000;
#SAMPLELENGTH:20.000000;
#SELECTABLE:YES;
#BPMS:0.000=112.000,
136.000=56.000,
152.000=112.000;
#STOPS:;
#DELAYS:;
#WARPS:;
#TIMESIGNATURES:0.000=4=4;
#TICKCOUNTS:0.000=4;
#COMBOS:0.000=1;
#SPEEDS:0.000=1.000=0.000=0;
#SCROLLS:0.000=1.000;
#FAKES:;
#LABELS:0.000=Song Start;
#BGCHANGES:;
#KEYSOUNDS:;
#ATTACKS:
;

//---------------dance-single - ----------------
#NOTEDATA:;
#CHARTNAME:;
#STEPSTYPE:dance-single;
#DESCRIPTION:;
#CHARTSTYLE:;
#DIFFICULTY:Hard;
#METER:7;
#RADARVALUES:0.423273,0.459887,0.063621,0.427168,0.227217,326.000000,319.000000,7.000000,47.000000,0.000000,0.000000,0.000000,0.000000,0.000000,0.423273,0.459887,0.063621,0.427168,0.227217,326.000000,319.000000,7.000000,47.000000,0.000000,0.000000,0.000000,0.000000,0.000000;
#CREDIT:;
#NOTES:
0000
0000
0000
0000
,
0000
0000
0000
0000
,
1000
0000
0000
0010
0001
0010
1000
0000
,
0001
0010
1000
0000
1000
0100
0000
0000
1000
0000
0002
0000
0010
0000
0000
0000
,
1003
0000
0100
1000
0001
0020
0001
1030
,
0100
1000
0001
0000
1000
0010
1000
0000
0002
0000
0203
0000
2300
0000
3002
0000
,
0013
0000
0000
0000
1000
0000
0100
0000
1000
0000
0000
0000
0001
0000
0010
0001
,
1000
0000
0010
1000
0100
0000
0000
0000
0001
0000
1000
0100
1000
0000
0010
0000
,
0001
0000
1000
0000
0010
1000
0010
1000
0001
0000
0000
0000
0100
0000
0001
0100
,
0101
0000
1000
0010
1000
0000
0000
0000
0100
0000
0001
0000
1001
0000
1000
0000
,
1000
0000
0010
1000
0100
0001
0100
0001
,
2000
0000
0000
0010
3001
0000
0100
0000
0100
0000
1000
0000
0010
0000
0100
0000
,
0020
1030
0002
0003
1000
0010
1000
0100
,
0100
0000
1000
0000
0001
0000
1000
0000
0010
0000
0001
0000
0210
0000
0000
0300
,
1000
0000
0000
1000
0000
0000
0001
0000
2000
0000
3010
0000
0002
0000
0103
0000
,
1000
0000
0000
0100
0000
0000
0010
0000
1000
0000
0010
0000
0200
0000
0000
0000
,
0301
0010
0001
0000
1000
0010
1000
0100
,
1000
0000
1000
0001
1000
0001
1001
0000
,
2000
0000
3010
0001
0100
1000
0010
1000
,
0001
0100
0001
0000
1000
0000
0010
0000
1000
0000
0100
0000
0001
0000
1000
0000
,
2000
0000
3010
0001
0100
0001
0010
0000
,
0202
0000
0303
0000
0102
0000
0013
0001
,
1000
0000
0000
0000
0010
0000
1000
0100
1000
0000
0000
0000
0001
0000
0010
0001
,
0100
0000
0001
0100
0001
0000
0000
0000
0010
0000
0100
0010
0100
0000
1000
0000
,
0001
0000
1000
0000
0001
0000
1000
0010
0001
0000
0000
0000
0100
0000
0001
0100
,
0010
0000
1000
0010
1000
0000
0000
0000
0100
0000
1000
0100
0010
0000
0001
0000
,
1000
0000
0001
1000
0010
1000
0100
0001
,
0020
0000
0031
1000
0001
0010
0100
0001
,
2000
0001
3001
0000
1000
0010
1000
0100
,
0010
0000
0100
0000
0010
0000
2000
0000
3010
0000
1000
0000
0002
0000
0000
0003
,
0100
0000
1000
0010
1000
0100
0010
0001
,
1000
0000
0000
0010
1000
0000
0100
0000
0001
0000
0010
0000
1000
0000
0000
0000
,
1000
0000
0000
0010
0000
0000
0110
0000
0001
0000
1000
0000
0010
0000
0100
0000
,
0002
0000
0000
0000
2003
0000
0000
0000
0010
3000
0000
0000
0100
0000
0000
0000
,
2000
0000
0000
0000
0000
0000
0010
0000
3001
0000
0000
0000
0020
0000
0000
0000
0000
0000
0030
0000
0100
0000
0000
0000
0002
0000
0000
0000
0000
0000
0000
0003
,
2000
0000
0000
0000
3010
0000
0002
0000
0000
0003
0020
0000
0130
2000
0001
3000
,
2000
0000
0010
0100
3010
0000
0002
0000
1000
0000
0013
0000
0200
0000
0001
0000
,
0320
0000
1000
0130
1000
0000
0001
0010
0001
0000
1000
0010
2000
0000
0001
0000
,
3200
0000
0000
0010
0301
0100
0020
0000
,
0000
0000
0000
0000
0000
0000
0000
0000
0100
0030
0000
0000
1000
0000
0000
0000
0100
0000
0000
0000
1000
0000
0000
0000
0001
0000
0000
0000
0010
0000
0000
0000
0001
0000
0000
0000
0010
0000
0000
0000
0001
0000
0000
0000
0002
0000
0000
0000
,
1000
0000
0100
0000
1000
0000
0013
0000
0000
1000
0000
0000
0010
0000
0000
0100
0000
0000
0200
0000
0000
0000
0000
0000
,
0000
0000
0000
0000
0000
0000
1300
0000
0010
0000
0010
0000
1000
0000
0001
0000
1000
0000
0200
0000
0000
0001
0000
0000
,
2300
0000
3010
0100
0200
0000
0302
0000
,
0000
0000
0000
0000
0000
0000
0000
0000
0000
0000
0000
0000
1003
0000
0000
0000
0100
0000
0000
0000
0001
0000
0000
0000
0010
0000
0000
0000
1000
0000
0000
0000
0100
0000
0000
0000
0010
0000
0000
0000
0001
0000
0000
0000
0000
1000
0000
0000
,
0020
0000
0000
0000
0000
0000
0000
0030
0100
0000
0000
0000
2000
0000
0000
0000
,
0000
0000
3001
0000
0010
0001
0200
0000
,
1300
0000
0000
0000
;

//---------------dance-single - ----------------
#NOTEDATA:;
#CHARTNAME:;
#STEPSTYPE:dance-single;
#DESCRIPTION:;
#CHARTSTYLE:;
#DIFFICULTY:Beginner;
#METER:1;
#RADARVALUES:0.138927,0.188136,0.000000,0.118153,0.000000,107.000000,107.000000,0.000000,13.000000,0.000000,0.000000,0.000000,0.000000,0.000000,0.138927,0.188136,0.000000,0.118153,0.000000,107.000000,107.000000,0.000000,13.000000,0.000000,0.000000,0.000000,0.000000,0.000000;
#CREDIT:;
#NOTES:
0000
0000
0000
0000
,
0000
0000
0000
0000
,
0002
0000
0003
0010
,
0000
0000
0100
0000
,
2000
0000
3000
0010
,
0000
0000
0100
0001
,
1000
0000
0010
0000
,
0001
0001
0000
0100
,
1000
0010
1000
0000
,
0200
0000
0000
1300
,
1000
0000
0001
0000
,
0010
0000
0100
0100
,
0010
0000
0001
0000
,
1000
0000
0001
1000
,
1000
0000
0010
0001
,
0010
0000
0100
0000
,
0001
0000
0100
0001
,
0200
0000
0000
0301
,
1000
0000
0000
0010
,
0000
0100
0001
0010
,
1000
0000
0100
0001
,
2000
3000
0002
0003
,
0010
0000
0100
1000
,
0000
0100
0000
0001
,
0010
0000
0100
1000
,
0000
0010
0000
0001
,
2000
0000
0000
0000
,
3002
0000
0000
0000
,
0023
0000
0000
0000
,
0230
0000
0000
0000
,
1300
0000
1000
0010
,
0001
0000
0001
0100
,
0010
0000
0010
0000
,
1000
0000
0100
0000
,
1000
0010
0000
0001
,
0100
0010
0000
1000
,
0100
0001
0010
0001
,
1000
0100
1000
1000
,
1000
0000
0010
0002
,
0000
0103
0010
0000
,
2000
0000
3010
0100
,
0000
0100
0010
0000
,
0001
0000
0010
0001
,
0000
1000
1000
0100
,
0010
0000
0001
0010
,
0000
0100
2000
0000
,
3001
0000
0000
0000
;

//---------------dance-single - ----------------
#NOTEDATA:;
#CHARTNAME:;
#STEPSTYPE:dance-single;
#DESCRIPTION:;
#CHARTSTYLE:;
#DIFFICULTY:Easy;
#METER:2;
#RADARVALUES:0.203846,0.209040,0.054532,0.372636,0.000000,157.000000,151.000000,6.000000,41.000000,0.000000,0.000000,0.000000,0.000000,0.000000,0.203846,0.209040,0.054532,0.372636,0.000000,157.000000,151.000000,6.000000,41.000000,0.000000,0.000000,0.000000,0.000000,0.000000;
#CREDIT:;
#NOTES:
0000
0000
0000
0000
,
0000
0000
0000
0000
,
2000
0000
3000
0001
,
0010
0001
0200
0000
,
2300
0000
3010
0100
,
0010
0100
0002
0000
,
1003
0010
0100
1000
,
0010
0010
0001
0001
,
0100
0000
0010
1000
,
0020
0000
0030
1001
,
1000
0100
2000
3010
,
0001
0100
0002
0013
,
0020
0130
0100
0010
,
1000
0100
0010
0001
,
2000
3010
0001
0100
,
0020
0031
0100
1000
,
1000
0010
0100
0001
,
0002
0000
0003
1001
,
1000
0010
2000
3100
,
0010
0001
0200
0301
,
0010
0001
1000
0100
,
2002
3003
2002
3003
,
1000
0100
2000
3010
,
0100
0100
0010
0010
,
0002
0103
0010
0001
,
0010
0010
0001
1001
,
2000
0000
0010
3001
,
0200
0000
0001
0010
,
0302
0000
1000
0100
,
2003
0010
0100
0001
,
3002
0000
0010
0100
,
0023
0000
0100
1000
,
2030
0000
0100
0100
,
3200
0000
0300
0001
,
2000
0000
0010
3002
0000
0000
0100
0000
,
2003
0000
0010
3200
0000
0000
0302
0000
,
1003
0000
0010
0100
0000
0000
0001
0000
,
0010
0000
1000
0100
0000
0000
0002
0000
,
1003
0000
0020
2030
,
0000
3100
0001
0010
,
0002
0100
1000
0023
,
0000
1030
0100
1000
,
2000
0010
3100
0200
,
0000
0301
1000
0010
,
0002
0000
0100
2003
,
0000
3010
0100
0001
,
1001
0000
0000
0000
;

//---------------dance-single - ----------------
#NOTEDATA:;
#CHARTNAME:;
#STEPSTYPE:dance-single;
#DESCRIPTION:;
#CHARTSTYLE:;
#DIFFICULTY:Medium;
#METER:5;
#RADARVALUES:0.350563,0.355367,0.072709,0.454434,0.000000,270.000000,262.000000,8.000000,50.000000,0.000000,0.000000,0.000000,0.000000,0.000000,0.350563,0.355367,0.072709,0.454434,0.000000,270.000000,262.000000,8.000000,50.000000,0.000000,0.000000,0.000000,0.000000,0.000000;
#CREDIT:;
#NOTES:
// measure 0
0000
0000
0000
0000
,  // measure 1
0000
0000
0000
0000
,  // measure 2
2000
0000
0000
3001
0010
0001
0200
0000
,  // measure 3
1300
0010
1000
0100
0001
0010
0001
0000
,  // measure 4
2000
0000
3010
1000
0100
0001
0020
0000
,  // measure 5
1030
0100
1000
0010
0001
0100
0002
0000
,  // measure 6
1003
0000
0010
1000
0100
0000
0010
0000
,  // measure 7
0002
0103
0001
0000
2000
3010
1000
0000
,  // measure 8
0100
0000
1000
0010
0100
0000
0001
0010
,  // measure 9
0000
0010
0001
0000
1000
0010
1001
1000
,  // measure 10
2000
0000
3100
1000
0010
0001
0100
0001
,  // measure 11
2000
0000
3010
0000
1000
0100
0002
0010
,  // measure 12
0013
0000
0100
0000
1000
0010
1000
0100
,  // measure 13
0002
0000
0013
0000
1000
0010
1000
0000
,  // measure 14
1000
0000
0100
1000
0001
0010
0002
0103
,  // measure 15
1000
0000
1000
0000
0010
1000
0100
0001
,  // measure 16
0020
0130
0001
0000
1000
0100
1000
0000
,  // measure 17
0010
0000
0000
0000
0001
1000
1001
0000
,  // measure 18
2000
0000
3010
1000
0100
0001
2000
3010
,  // measure 19
0010
0100
0001
0100
0002
0000
0013
0000
,  // measure 20
0100
0000
0010
0100
0001
0010
0001
0000
,  // measure 21
2002
3003
2002
3003
,  // measure 22
2000
0000
3010
1000
0100
0000
0001
0010
,  // measure 23
0002
0103
0001
0000
0010
0100
0010
1000
,  // measure 24
0200
0000
1300
0010
1000
0000
0110
0000
,  // measure 25
2000
3010
1000
0000
0100
1000
0002
0000
,  // measure 26
1003
0000
1000
0010
1000
0100
0001
0010
,  // measure 27
0002
0000
1003
0010
1000
0100
0010
1000
,  // measure 28
0020
0000
2030
0000
3100
1000
0100
0001
,  // measure 29
0010
0001
0100
0001
1000
0010
0200
0000
,  // measure 30
1300
0000
1000
0010
1000
0001
0200
0000
,  // measure 31
0301
0000
0010
0001
0100
0001
0020
0000
,  // measure 32
1030
0000
0100
0000
1000
0010
1000
0100
,  // measure 33
0002
2003
3020
0230
,  // measure 34
1300
0000
1100
0001
0000
0010
1001
0100
,  // measure 35
2000
0000
3010
0100
0000
0001
0010
0001
,  // measure 36
2000
3100
0020
0031
0020
1030
0100
0001
,  // measure 37
2000
3010
0020
0130
1000
0010
2000
0000
,  // measure 38
3001
0000
1000
0010
1000
0100
0002
0000
,  // measure 39
0000
0000
1003
0010
1000
0100
0001
0010
,  // measure 40
0002
1003
0010
0200
,  // measure 41
0000
0300
1000
0010
1000
0100
0002
0000
,  // measure 42
1003
0000
0010
0000
1000
0100
0002
0000
,  // measure 43
0013
0000
1000
0100
1000
0010
2000
3000
,  // measure 44
0020
0000
1030
0000
0100
1000
0020
0030
,  // measure 45
1000
0100
1000
0001
0010
0001
0100
1000
,  // measure 46
1001
0000
0000
0000
;
