#TITLE:La La Land;
#SUBTITLE:;
#ARTIST:Green Velvet;
#TITLETRANSLIT:;
#SUBTITLETRANSLIT:;
#ARTISTTRANSLIT:;
#GENRE:;
#CREDIT:;
#BANNER:ban2005.png;
#BACKGROUND:brain cells.png;
#LYRICSPATH:;
#CDTITLE:;
#MUSIC:La La Land (Edit).mp3;
#OFFSET:0.000000;
#SAMPLESTART:46.874996;
#SAMPLELENGTH:12.000000;
#SELECTABLE:YES;
#BPMS:0.000000=128.000000
;
#STOPS:
;
#BGCHANGES:;
#KEYSOUNDS:;
#ATTACKS:;

//---------------dance-single - ----------------
#NOTES:
     dance-single:
     :
     Beginner:
     3:
     0.236020,0.235367,0.016604,0.033209,0.000000,199.000000,197.000000,2.000000,4.000000,0.000000,0.000000,0.236020,0.235367,0.016604,0.033209,0.000000,199.000000,197.000000,2.000000,4.000000,0.000000,0.000000:
1000
0001
0010
0000
,
1000
0100
0001
0000
,
1000
0001
0010
0000
,
1000
0100
0001
0000
,
1000
0010
1000
0000
,
0001
0100
0001
0000
,
1000
1000
1000
0000
,
0100
0100
0100
0000
,
0010
0000
0001
0000
,
0000
0000
1000
0100
,
1000
0000
0001
0000
,
0010
0100
0010
0000
,
0001
1000
1000
0100
,
0000
0000
0001
0010
,
0010
0000
1000
0000
,
0001
1000
0000
0101
,
1000
0001
0010
0100
,
0000
1000
0000
0001
,
0010
1000
0000
0100
,
0001
1000
0000
0001
,
1000
0100
0000
0001
,
0010
0100
0000
1000
,
0100
0100
0000
0001
,
0010
0010
0000
0010
,
1000
1000
1000
0001
,
0001
0001
1000
0000
,
0100
0100
0001
0000
,
0010
0100
2000
3000
,
0001
0010
0001
0000
,
0100
0100
0010
0000
,
0001
0001
0010
0000
,
0100
1000
0100
0000
,
0001
1000
0001
0010
,
0100
0000
1000
0001
,
0001
0000
0010
0100
,
0010
0010
0001
0100
,
1000
0000
0001
0001
,
1000
1000
0001
0001
,
0010
0000
0110
1000
,
1000
0000
0001
0010
,
1000
0100
2000
3001
,
0001
0010
0020
0030
,
0100
0100
0100
0000
,
0010
0010
0001
0001
,
1000
0000
0200
0301
,
0010
0100
0100
0100
,
0010
0001
0001
1000
,
0100
0100
0100
0010
,
0001
0000
1000
0100
,
0001
0010
0100
0000
,
1000
0001
0010
0001
,
0100
0100
1000
0000
,
0001
0010
0010
0100
,
0010
0000
0001
0010
,
0010
0000
0100
0010
,
0100
0000
0001
0010
,
0001
0100
0100
0000
,
0010
0100
0001
0000
,
1000
0000
0001
0010
,
0100
0000
1000
0001
,
1000
0000
0100
0001
,
1000
0000
0010
0100
,
1000
0000
0001
0010
,
1000
0000
0000
0000
;

//---------------dance-single - ----------------
#NOTES:
     dance-single:
     :
     Easy:
     4:
     0.304809,0.339975,0.215857,0.141137,0.000000,257.000000,231.000000,26.000000,17.000000,0.000000,0.000000,0.304809,0.339975,0.215857,0.141137,0.000000,257.000000,231.000000,26.000000,17.000000,0.000000,0.000000:
1000
0001
0010
1000
,
1001
0010
0001
0100
,
1000
0001
0010
0100
,
1000
0000
0001
0010
,
1000
0001
0001
0010
,
0100
1000
0100
0001
,
0001
0010
0001
1000
,
0001
0000
1000
0100
,
0001
0000
1000
0000
,
0100
0001
2000
3100
,
0001
0001
0010
0000
,
0100
0001
0100
1000
,
0010
0001
0010
0001
,
0000
0100
0002
0003
,
1000
0100
1000
0010
,
0001
0010
1000
1001
,
0001
0010
0001
0101
,
0000
1100
0000
0011
,
0001
1010
0000
1100
,
0001
0011
0100
1000
,
0001
1001
0000
1010
,
0001
0101
0000
0110
,
0010
1010
0000
1100
,
0001
0001
0010
0100
,
2000
3100
0002
0013
,
1000
0001
1000
0100
,
0001
0010
0001
1000
,
0001
0010
2000
3001
,
0001
0010
0100
0001
,
0100
1000
0000
0001
,
0010
1000
0002
0003
,
1000
0100
1000
0001
,
1000
0001
0010
0001
,
0100
0000
0001
0010
,
1000
0000
0100
0001
,
1000
0000
0001
0010
,
0001
0100
0001
0100
,
0001
0100
2000
3200
,
0301
0000
0010
0001
,
1000
0100
2000
3001
,
1001
1001
0001
0010
,
0001
0101
0100
1100
,
1000
1010
0010
0010
,
0010
0011
0100
1100
,
0001
1001
2000
3100
,
0001
0010
0200
0301
,
1000
1000
0002
0013
,
0010
0100
0002
1003
,
1000
0001
0010
0001
,
0100
1000
0010
0001
,
0010
0100
0010
0100
,
0001
1000
0001
0000
,
0001
0010
0001
0100
,
1000
0100
0002
0010
,
1003
0100
1000
0010
,
0001
0010
1000
0000
,
1000
0100
0001
2000
,
3001
0001
0020
0130
,
0000
0001
2000
3100
,
0001
0010
0100
0001
,
1000
0001
1000
1001
,
1001
0010
0100
1000
,
0100
0010
0001
0101
,
0101
0000
0000
0000
;

//---------------dance-single - ----------------
#NOTES:
     dance-single:
     :
     Medium:
     6:
     0.400878,0.392279,0.066418,0.141137,0.000000,338.000000,330.000000,8.000000,17.000000,0.000000,0.000000,0.400878,0.392279,0.066418,0.141137,0.000000,338.000000,330.000000,8.000000,17.000000,0.000000,0.000000:
1000
0000
0001
0000
0010
0000
0000
0100
,
1000
0000
0001
1000
0002
0000
0003
0000
,
1000
0000
0100
1000
0100
0000
0001
0020
,
0000
0030
0000
0000
1000
0000
0010
1000
,
0001
0000
1000
0000
0100
1000
0100
0001
,
1000
0000
0001
1000
0002
0000
0003
0000
,
1000
0000
0100
0000
1000
0100
1000
0002
,
0000
0003
0000
0000
1000
0010
1000
0010
,
0002
0003
2000
3000
,
0010
1000
0010
0000
0001
0000
0100
1000
,
0100
0000
0001
0000
1000
0000
0001
0010
,
0001
1000
0001
0000
1000
0000
0100
1000
,
0100
0001
0000
2000
0000
3000
0001
0000
,
0000
0000
0010
0000
1000
0000
0100
1000
,
0000
0001
1000
0000
0001
0000
0010
0001
,
0010
0001
1000
0000
0001
0000
1000
0000
,
1000
0100
1000
0010
0001
1000
1001
0000
,
0001
0010
0000
0010
1000
0000
0100
0100
,
0000
0001
1000
0000
0001
0010
0000
1000
,
0100
0000
1000
0001
0000
1000
0000
0000
,
0001
0010
0001
0010
0001
0100
0002
0000
,
1003
0200
0000
1300
0110
0000
0001
0010
,
0000
1000
0100
0000
1000
0100
0000
0001
,
0010
0000
0010
0010
0000
0100
0000
0000
,
1000
0000
0001
0000
0020
0000
1030
0100
,
1000
0001
0000
0000
1000
0000
0010
1000
,
0001
1000
0001
0010
0100
0000
1000
0100
,
1000
0100
0000
0000
0002
0000
1003
0000
,
1000
0100
1000
0000
0010
0001
0010
0001
,
1000
0100
0000
2000
0000
3000
0001
1000
,
0001
1000
0001
0020
0000
0000
0030
1000
,
0100
2000
0000
3000
0000
0000
0001
0000
,
1000
0100
1000
0100
1000
0010
0001
1000
,
0001
1000
0000
0000
0001
0000
0020
0000
,
1030
0100
0001
0100
1000
0010
1000
0100
,
0001
0010
0000
0000
1000
0000
0001
0000
,
0010
1000
0100
1000
0100
0001
1000
0001
,
1000
0001
0000
0000
1000
0000
0010
0000
,
0001
0010
0001
0100
0001
0000
1000
0100
,
1000
0010
0001
0000
1000
0000
1001
0000
,
0001
0010
0100
1000
,
0100
1000
0100
0001
0010
0000
1000
0000
,
0001
1000
0001
1000
,
0001
1000
0100
0000
0100
1000
0100
0001
,
0010
0000
1000
0000
1000
0000
0001
1000
,
0001
0000
0010
1000
0100
0000
0001
0000
,
0010
0001
0010
0000
1000
0000
0100
1000
,
0100
0001
1000
0000
0001
0000
1001
0000
,
0010
1000
0100
1000
0100
0000
0001
0000
,
0010
1000
0000
0100
0001
0000
0010
0001
,
0000
1000
0100
0000
1000
0001
0000
1000
,
0001
0000
0010
0010
0000
1000
0000
0000
,
0100
0001
1000
0010
1000
0001
0001
0000
,
1000
0002
0000
1003
2000
0000
3100
1000
,
1000
0001
1000
0000
0001
1000
0010
0100
,
1000
0000
0100
0001
0000
0010
0000
0000
,
1000
0000
0001
0000
1000
0001
0010
1000
,
0000
0000
0000
0000
0001
0010
0001
1000
,
0000
0000
0000
0000
1000
0100
1000
0000
,
0000
0000
0001
0000
0010
0000
1000
0100
,
1000
0001
1000
0001
1000
0010
1001
0000
,
1001
0010
0001
0100
,
0100
1000
0100
1000
0100
1000
0011
0000
,
0011
0000
0000
0000
;

//---------------dance-single - ----------------
#NOTES:
     dance-single:
     :
     Hard:
     8:
     0.442389,0.464923,0.074720,0.514736,0.273973,373.000000,364.000000,9.000000,62.000000,0.000000,0.000000,0.442389,0.464923,0.074720,0.514736,0.273973,373.000000,364.000000,9.000000,62.000000,0.000000,0.000000:
// measure 0
1000
0000
0020
0000
0031
0000
0000
0000
1000
0000
0000
0000
1000
0100
0010
0000
,  // measure 1
1000
0000
0001
0000
1001
0000
0000
0000
0010
0000
0000
0000
0100
0010
0001
0000
,  // measure 2
0100
0000
0001
0000
0000
0000
0010
0000
0200
0000
0300
0000
0001
0010
2000
0000
,  // measure 3
0100
0000
3010
0000
0100
0000
0000
0000
1000
0000
0000
0000
0020
2030
3010
0000
,  // measure 4
0100
0000
0010
0000
0000
0000
0000
0000
1000
0100
0000
0010
0002
0000
2000
0000
,  // measure 5
0000
0000
3003
0000
0100
0000
0020
0000
0000
0000
0031
0000
1000
0100
1000
0000
,  // measure 6
0001
0010
0000
0000
2000
0000
0100
3010
,  // measure 7
0010
0010
0100
0000
0000
0001
0010
0001
,  // measure 8
2000
3001
0002
0103
,  // measure 9
1000
0000
0100
0000
0001
0000
0000
0000
0002
0000
0000
0203
0000
0000
2300
0000
,  // measure 10
3010
0000
1000
0000
0001
0000
0000
0000
1000
0000
0000
0000
0100
0010
0100
0000
,  // measure 11
0010
0002
1003
0010
0200
0000
0010
0302
,  // measure 12
0000
2003
0000
3002
0003
0000
2000
0000
,  // measure 13
3000
0000
0010
0000
0001
0000
0000
0000
2000
0000
0000
3200
0000
0000
2300
0000
,  // measure 14
3001
0000
0010
0000
0001
0000
0000
0000
1000
0000
0000
0000
0100
0010
0100
0000
,  // measure 15
0001
1000
0010
0000
0010
0000
2002
3003
,  // measure 16
1000
0100
1000
0001
0010
1000
1001
0000
,  // measure 17
1000
2200
0300
3010
0002
0000
1003
0002
,  // measure 18
0000
1003
0200
0000
1300
0020
0000
0031
,  // measure 19
2000
0000
3001
1000
0000
1001
0000
0000
,  // measure 20
0010
1000
0100
1000
0100
0001
0020
0000
,  // measure 21
1030
0200
0000
0301
0020
0000
1030
0200
,  // measure 22
0000
0301
2000
0000
3001
2000
0000
3010
,  // measure 23
0200
0000
0301
0001
0000
0010
0000
0000
,  // measure 24
1000
0000
0100
1000
0001
0000
1000
0001
,  // measure 25
1000
0000
0010
0000
0001
0000
0000
0000
1000
0000
0000
0000
0001
0010
0001
0000
,  // measure 26
1000
0000
0100
1000
0100
0010
0001
0200
0000
0000
0300
0000
0010
0000
1000
0200
,  // measure 27
0000
0302
0000
0023
0000
0030
0000
0000
2000
0000
0000
0000
3001
0000
0000
0000
,  // measure 28
1000
0010
0000
0001
0010
0001
0010
0100
,  // measure 29
1000
0100
0000
0200
0000
0300
0001
0010
,  // measure 30
1000
0100
1000
0200
0000
0000
0301
0020
,  // measure 31
2030
0000
3200
0000
0300
0000
0000
0000
0001
0000
0000
0000
0010
0001
0010
0000
,  // measure 32
1000
0000
0000
0000
0000
0000
0100
0000
0000
0000
0000
0000
0001
0000
0000
0000
0000
0000
0100
0000
0000
0010
0000
0000
0000
0000
0000
0000
0100
0000
0000
0000
0000
0010
0000
0000
0000
0000
0000
0100
0000
0000
0000
0000
0010
0000
0000
0000
,  // measure 33
0001
0000
0000
0000
0000
0000
0000
0000
0000
0000
0000
0000
0001
0000
0000
0000
0100
0000
0000
0000
0000
0000
0000
0001
1000
0000
0000
0000
0000
0000
0010
0000
0000
0000
0000
0000
0110
0000
0000
0000
0000
0000
0000
0000
0000
0000
0000
0000
,  // measure 34
0001
0000
0000
0000
0000
0000
0001
0000
0000
0000
0000
0000
0010
0000
0000
0000
0000
0000
0100
0000
0000
0010
0000
0000
0000
0000
0000
0000
0100
0000
0000
0000
0000
0010
0000
0000
0000
0000
0000
0001
0000
0000
0000
0000
1000
0000
0000
0000
,  // measure 35
0010
0000
0000
0000
0000
0000
0000
0000
0000
0000
0000
0000
0010
0000
0000
0000
0001
0000
0000
0000
0000
0000
0000
0100
0010
0000
0000
0000
0000
0000
1000
0000
0000
0000
0000
0000
0001
0000
0000
0000
0000
0000
0000
0000
0000
0000
0000
0000
,  // measure 36
1000
0000
0000
0000
0000
0000
0100
0000
0000
0000
0000
0000
0010
0000
0000
0000
0000
0000
0010
0000
0000
0001
0000
0000
0000
0000
0000
0000
0100
0000
0000
0000
0000
0001
0000
0000
1000
0000
0000
1000
0000
0000
0000
0000
0100
0000
0000
0000
,  // measure 37
1000
0000
0000
0000
0000
0000
0000
0000
0000
0000
0000
0000
0001
0000
0000
0000
1000
0000
0000
0000
0000
0000
0000
0010
0100
0000
0000
0000
0000
0000
0010
0000
0000
0000
0000
0000
1000
0000
0000
0000
0000
0000
0000
0000
0000
0000
0000
0000
,  // measure 38
1000
0000
0000
0000
0000
0000
0000
0000
0000
0000
0000
0000
0010
0000
0000
0000
0000
0000
0001
0000
0000
0010
0000
0000
0000
0000
0000
0000
1000
0000
0000
0000
0000
0010
0000
0000
0001
0000
0000
0010
0000
0000
0000
0000
0100
0000
0000
0000
,  // measure 39
1000
1000
0001
0000
1001
0000
0110
0000
,  // measure 40
1000
0000
0000
0000
0000
0000
0000
0000
0000
0000
0000
0001
0010
0000
0000
0000
0000
0000
1000
0000
0000
0000
0000
0000
,  // measure 41
0100
0000
0000
0000
1000
0000
0000
0001
1000
0000
0000
0000
0000
0000
0010
0000
,  // measure 42
1000
0000
0000
0000
0000
0000
0100
0000
0000
0000
0000
0001
0100
0000
0000
0000
0000
0000
1000
0000
0000
0000
0000
0000
,  // measure 43
1000
0000
0000
0000
0000
0000
0001
0000
0000
0000
0000
0000
0010
0000
0000
1000
0000
0000
0100
0000
0000
1000
0000
0001
,  // measure 44
1000
0000
0000
0001
0000
0000
1000
0000
0000
0000
0000
0010
0100
0000
0000
0000
1000
0000
0100
0000
0000
0000
0000
0000
,  // measure 45
0001
0000
0000
1000
0000
0000
0001
0000
0000
1000
0000
0001
0010
0000
0000
1000
0000
0000
0100
0000
0000
0100
0000
1000
,  // measure 46
0100
0000
0000
0001
0000
0000
1000
0000
0000
0000
0000
0001
1000
0000
0000
0000
0000
0000
0010
0000
0000
0000
0000
0000
,  // measure 47
0001
0000
0000
0100
0000
0000
0001
0000
0000
0000
0000
0100
1000
0000
0000
0100
0000
0000
0001
0000
0000
0000
0000
0000
,  // measure 48
1000
0100
0010
0001
1000
0100
0002
0003
,  // measure 49
1000
0000
0200
0000
0300
0000
0001
0000
0020
0000
0000
2030
0000
0000
3020
0000
,  // measure 50
0031
0000
0000
0000
0000
0000
0010
0000
0000
0000
0000
0000
0100
0000
0000
0000
0000
0000
1000
0000
0000
0000
0000
0000
0100
0000
0010
0000
0000
0000
0000
0000
0000
0000
0000
0000
1000
0000
0000
0001
0000
0000
0100
0000
0000
0000
0000
0000
,  // measure 51
0010
0100
0010
0200
0000
0302
1003
0000
,  // measure 52
1000
0000
0000
0100
0000
0000
0010
0001
0000
0000
0000
1000
0000
0000
0000
0100
0000
0000
0002
0000
0000
0000
0003
0000
,  // measure 53
1000
0000
0000
0000
0000
0000
0100
0000
0000
0000
0000
0000
0010
0000
0001
0000
0000
0000
0000
0000
0000
0000
1000
0000
0200
0000
0000
0000
0000
0000
0000
0000
0000
0320
0000
0000
0001
0000
0000
0000
0000
0000
1030
0000
0000
0000
0000
0000
,  // measure 54
1000
0000
0000
0000
0000
0000
0100
0000
0000
0000
0000
0000
1000
0000
0000
0000
0000
0000
0000
0000
0000
0000
0010
0000
0100
0000
0000
0000
0000
0000
0010
0000
0000
0000
0000
0000
1000
0000
0000
0100
0000
0000
0001
0000
0000
0000
0000
0000
,  // measure 55
1000
0000
0000
0000
0000
0000
0001
0000
0000
0020
0000
0100
0000
0000
0000
1030
0000
0000
2002
0000
0000
0000
0000
0000
,  // measure 56
3003
0000
0000
0000
;
