#TITLE:ILY2;
#SUBTITLE:(Euphoria Edit);
#ARTIST:Danny L. Harle vs. Charli XCX;
#TITLETRANSLIT:;
#SUBTITLETRANSLIT:;
#ARTISTTRANSLIT:;
#GENRE:;
#CREDIT:;
#BANNER:ily2euphoria.png;
#BACKGROUND:ily2bg.png;
#LYRICSPATH:;
#CDTITLE:;
#MUSIC:ILY2 (Danny L Harle's Euphoria Edit).mp3;
#OFFSET:0.000000;
#SAMPLESTART:42.715000;
#SAMPLELENGTH:14.789000;
#SELECTABLE:YES;
#BPMS:0.000000=130.000000
;
#STOPS:
;
#BGCHANGES:;
#KEYSOUNDS:;
#ATTACKS:;

//---------------dance-single - ----------------
#NOTES:
     dance-single:
     :
     Easy:
     4:
     0.335413,0.418352,0.416218,0.266806,0.000000,220.000000,181.000000,39.000000,25.000000,0.000000,0.000000,0.335413,0.418352,0.416218,0.266806,0.000000,220.000000,181.000000,39.000000,25.000000,0.000000,0.000000:
1000
0001
0010
0100
,
1000
0001
1000
0001
,
0010
0010
0010
0100
,
1000
0100
0010
0100
,
1000
0001
1000
0001
,
0010
0100
1000
0100
,
1000
0100
0010
0001
,
1000
0010
0100
0001
,
1000
0000
0001
0010
,
0100
0000
0010
0100
,
0010
0000
0001
0010
,
0001
0000
0100
1000
,
0100
0000
0010
0100
,
0001
0000
1100
0010
,
0100
0000
0101
0010
,
0100
0000
1000
0100
,
0010
0001
0010
0100
,
1000
0100
0010
0001
,
1000
0001
1000
0001
,
1000
0001
1000
0001
,
1001
0001
1001
1000
,
0110
0010
0110
0100
,
0100
1000
0100
1000
,
0002
0000
2000
3003
,
0001
1010
0100
0101
,
0010
1100
0110
0011
,
1000
0101
1000
0110
,
1100
0110
0011
0101
,
1000
0110
1000
0011
,
0110
1100
0010
0101
,
1000
0110
1000
0110
,
0001
0110
0011
1100
,
0010
0110
0101
1010
,
0100
0010
0100
0010
,
2000
3001
0020
0130
,
1000
0100
0010
0101
,
1010
0100
0100
0001
,
1001
0010
0100
0100
,
0110
0011
1100
0110
,
1001
0010
0100
1000
,
0002
2003
3020
0230
,
0320
0230
0302
2003
,
3002
0023
0030
0100
,
1000
0010
0100
0001
,
2000
3001
0020
0130
,
0200
2300
3020
0031
,
0002
2003
3020
0030
,
0200
0310
0100
0001
,
2020
0000
0000
0000
,
3030
0000
0000
0000
;

//---------------dance-single - ----------------
#NOTES:
     dance-single:
     :
     Medium:
     6:
     0.442136,0.444499,0.021344,0.128067,0.000000,290.000000,288.000000,2.000000,12.000000,0.000000,0.000000,0.442136,0.444499,0.021344,0.128067,0.000000,290.000000,288.000000,2.000000,12.000000,0.000000,0.000000:
1000
0001
1000
0010
,
0100
0001
0100
0001
,
1000
0001
0100
0010
,
0100
0001
0100
1000
,
0100
0000
0010
0001
0010
0000
1000
0000
,
1000
0000
0100
1000
0010
0000
0100
0000
,
0001
0000
0100
0001
0100
0000
0010
0000
,
0100
0000
1000
0001
1000
0010
0100
0000
,
1000
0000
0100
0010
0001
0100
0001
0000
,
1000
0000
0010
0100
0001
0010
0100
1000
,
0000
0000
0000
0001
0010
0100
0100
1000
,
0000
0001
1000
0010
0100
0100
1000
0001
,
1000
0000
0010
0100
0001
1000
0100
0000
,
1000
0000
0010
0100
0010
0100
0010
0000
,
0001
0000
0010
0001
0010
0001
0010
0000
,
1000
0001
0100
0010
1000
0100
1000
0100
,
1000
0100
0001
0100
,
1000
0010
1000
0100
,
1000
1000
0001
0001
,
0001
1000
0001
0100
,
0010
0001
0001
1000
0001
1000
0001
1000
,
0001
0001
1000
0001
1000
0001
1000
0001
,
2000
3002
0023
0230
2300
3020
0230
0302
,
2003
0000
0000
0020
0000
3030
0101
0000
,
0001
0000
0010
0100
1000
0001
1000
0000
,
0100
0000
0010
0100
0001
0010
0100
1000
,
1000
0000
0001
0001
0010
0100
0100
0000
,
1000
0000
0001
1000
0010
0100
0100
0010
,
0001
0000
1000
0010
0100
0100
1000
0001
,
1000
0000
0010
0100
0001
0010
0100
0000
,
1000
0000
0001
0100
0010
1000
0100
0100
,
0001
1000
0010
0100
0100
1000
0001
0100
,
0010
0000
0000
0000
1000
0100
0010
0001
,
1000
0000
0001
0100
0010
1000
0100
0100
,
0001
1000
0010
0100
0100
0000
1000
0000
,
0001
0000
0100
0010
1000
0100
0100
0001
,
1000
0000
0010
0100
0100
0000
1000
0000
,
0001
0000
0100
0010
0100
0001
1000
0100
,
1000
0000
0010
0100
0100
0010
0001
0000
,
1000
0000
0010
0100
0100
1000
0001
0100
,
0010
1000
0100
0100
,
0010
0100
0010
0100
0001
1000
0100
0000
,
1000
0000
0001
0100
0010
0100
0100
0100
,
0001
0100
0001
0100
0010
1000
0100
0000
,
0001
0000
0010
0100
0000
0010
1000
0000
,
0001
0000
0010
0100
0100
0010
0001
1000
,
1000
0000
0010
0100
0001
0010
0100
1000
,
0001
0100
0010
1000
0100
0100
0001
1000
,
0220
0000
0000
0000
,
0330
0000
0000
0000
;

//---------------dance-single - ----------------
#NOTES:
     dance-single:
     :
     Hard:
     9:
     0.516842,0.652841,0.042689,0.042689,0.277478,339.000000,335.000000,4.000000,4.000000,0.000000,0.000000,0.516842,0.652841,0.042689,0.042689,0.277478,339.000000,335.000000,4.000000,4.000000,0.000000,0.000000:
// measure 0
1000
0000
0001
0000
0010
0100
0010
0100
,  // measure 1
0001
0000
1000
0000
0100
1000
0100
1000
,  // measure 2
0001
0000
0100
0000
0010
1000
0100
1000
,  // measure 3
0001
0000
1000
0000
0010
0100
0010
0001
,  // measure 4
1000
0000
0000
0000
0001
0000
0000
0000
0010
0000
0100
0010
0000
0000
0100
0000
,  // measure 5
0001
0000
1000
0000
0100
1000
0001
1000
,  // measure 6
0010
0000
0000
0000
0100
0000
0000
0001
0000
0000
1000
0000
0010
0000
0000
0000
,  // measure 7
0100
0000
0010
1000
0100
1000
0001
0000
,  // measure 8
1000
0000
0000
0000
0001
0000
0000
0010
0000
0000
0100
0000
0001
0000
1000
0000
,  // measure 9
1000
0000
0000
0000
0001
0000
0000
0010
0000
0000
0100
0000
0010
0000
0100
0000
,  // measure 10
0001
0000
0000
0000
1000
0000
0000
0100
0000
0000
0010
0000
0100
0000
0010
0000
,  // measure 11
0001
0000
0000
0000
0100
0000
0000
0010
0000
0000
1000
0000
0100
0000
1000
0000
,  // measure 12
0010
0000
0100
0000
0001
0100
0001
0100
,  // measure 13
0010
0000
0000
0000
1000
0000
0000
0100
0000
0000
0010
0000
0001
0000
0010
0000
,  // measure 14
0001
0000
0000
0000
0100
0000
0000
0010
0000
0000
1000
0000
0100
0000
1000
0000
,  // measure 15
0001
0100
0010
1000
0100
1000
0001
1000
,  // measure 16
0001
1000
0001
1000
0001
1000
0001
1000
,  // measure 17
0001
1000
0001
1000
0001
1000
0001
1000
,  // measure 18
0001
1000
0001
1000
0001
1000
0001
1000
,  // measure 19
0001
1000
0001
1000
0001
1000
0001
1000
,  // measure 20
0010
0100
0010
0100
0010
0100
0010
0100
,  // measure 21
0010
0100
0010
0100
0010
0100
0010
0100
,  // measure 22
0001
0100
0001
0100
0001
0100
0001
0100
0001
0100
0001
0100
0001
0100
0001
0000
,  // measure 23
1001
0000
0000
0000
0000
0000
0000
0000
0010
0000
0000
0000
0200
0000
0000
0300
,  // measure 24
1100
0000
0001
0000
0010
0100
0100
0000
,  // measure 25
1000
0000
0000
0000
0001
0000
1000
0000
0010
0000
0100
0000
0001
0100
0000
0001
,  // measure 26
1000
0000
0000
0000
0100
0000
1000
0010
0000
0000
0100
0000
0001
0000
0000
0000
,  // measure 27
0010
0000
0000
0000
1000
0000
0100
1000
0000
0001
0000
0000
0110
0000
0000
0100
,  // measure 28
0001
0000
0000
0000
1000
0000
0100
1000
0000
0000
0010
0000
0100
0000
0000
0000
,  // measure 29
0001
0000
0000
0000
1000
0000
0010
0100
0000
0000
0001
0000
0100
0001
0000
0000
,  // measure 30
1000
0000
0000
0000
0100
0000
0010
0100
0000
0000
0001
0000
0010
0100
0000
0000
,  // measure 31
1000
0000
0000
0000
0001
0000
1000
0010
0100
0000
0001
0000
1000
0000
0100
0000
,  // measure 32
0100
0000
0000
0000
0001
0000
1000
0010
0000
0000
0100
0000
0001
0000
1000
0000
,  // measure 33
0010
0000
0000
0000
0100
0000
0000
0001
0000
0000
1000
0000
0100
0000
0010
0001
,  // measure 34
0000
0000
1000
0010
0100
0010
0000
0100
0000
0001
0000
0000
1000
0000
0100
0000
,  // measure 35
0010
0000
0000
0000
0001
0000
1000
0010
0000
0000
0100
0000
0001
0000
0100
0000
,  // measure 36
0010
0000
1000
0000
0100
0000
0000
0010
0000
0000
0001
0000
0100
0000
0010
0000
,  // measure 37
1000
0000
0000
0000
0001
0000
1000
0010
0000
0000
0100
0000
0001
0000
0100
0000
,  // measure 38
0010
0000
1000
0100
0010
0001
0010
0001
,  // measure 39
1000
0000
0010
0100
0001
1000
0010
0100
,  // measure 40
0002
0000
0000
0003
1000
0000
0001
0100
0000
0001
1000
0000
0010
0000
0100
0000
,  // measure 41
0100
0000
0000
0000
1000
0000
0001
0010
0000
0001
0010
0000
0100
0000
1000
0000
,  // measure 42
0010
0000
0000
0000
0100
0000
0001
0100
0000
0001
0100
0000
0010
0000
1000
0000
,  // measure 43
0100
0000
0000
0000
1000
0000
0100
0010
0000
0001
0010
0000
0001
0000
0000
0000
,  // measure 44
1000
0000
0000
0000
0010
0000
0100
0010
0000
0100
0001
0000
1000
0000
0000
0000
,  // measure 45
1000
0000
0000
0000
0100
0000
0010
0100
0000
0010
0001
0000
1000
0000
0000
0000
,  // measure 46
1000
0000
0000
0000
0100
0000
1000
0100
0000
1000
0001
0000
0000
0100
0000
0000
,  // measure 47
0010
1000
0100
0010
0001
1000
0010
0100
,  // measure 48
2002
0000
0000
0000
0000
0000
0000
0000
0000
0000
0000
0000
0000
0000
0000
3003
;
