#VERSION:0.83;
#TITLE:I Belong In Your Arms;
#SUBTITLE:;
#ARTIST:Chairlift;
#TITLETRANSLIT:;
#SUBTITLETRANSLIT:;
#ARTISTTRANSLIT:;
#GENRE:;
#ORIGIN:;
#CREDIT:;
#BANNER:IBIYA-bn.png;
#BACKGROUND:IBIYA-bg.png;
#PREVIEWVID:;
#JACKET:IBIYA-jacket.png;
#CDIMAGE:;
#DISCIMAGE:;
#LYRICSPATH:;
#CDTITLE:;
#MUSIC:IBIYA.ogg;
#OFFSET:0.000000;
#SAMPLESTART:38.240032;
#SAMPLELENGTH:13.210194;
#SELECTABLE:YES;
#BPMS:0.000=172.594;
#STOPS:;
#DELAYS:;
#WARPS:;
#TIMESIGNATURES:0.000=4=4;
#TICKCOUNTS:0.000=4;
#COMBOS:0.000=1;
#SPEEDS:0.000=1.000=0.000=0;
#SCROLLS:0.000=1.000;
#FAKES:;
#LABELS:0.000=Song Start;
#BGCHANGES:;
#KEYSOUNDS:;
#ATTACKS:
;

//---------------dance-single - ----------------
#NOTEDATA:;
#CHARTNAME:;
#STEPSTYPE:dance-single;
#DESCRIPTION:;
#CHARTSTYLE:;
#DIFFICULTY:Medium;
#METER:6;
#RADARVALUES:0.408456,0.538201,0.011213,0.291526,0.000000,255.000000,254.000000,1.000000,26.000000,0.000000,0.000000,0.000000,0.000000,0.000000,0.408456,0.538201,0.011213,0.291526,0.000000,255.000000,254.000000,1.000000,26.000000,0.000000,0.000000,0.000000,0.000000,0.000000;
#CREDIT:;
#NOTES:
0000
0000
0000
0000
,
0000
0000
0000
0000
,
0000
0000
0000
0000
,
0000
0000
0000
0000
,
1000
0000
0001
1000
0000
0000
0010
0000
,
0100
0000
0010
0100
0000
0000
0001
0000
,
1000
0000
0010
0000
1000
0000
0100
0001
,
0000
0100
0000
1000
0000
0100
0010
0000
,
0100
0010
0010
0000
0000
0000
1000
0000
,
0010
1000
0001
0000
0000
0000
0010
0000
,
0100
0000
0020
0000
0032
0000
0013
0001
,
0000
0100
0000
0010
0000
1000
0100
0000
,
0100
0001
0010
0001
0000
0000
1000
0000
,
0010
1000
0100
0000
0010
0000
0001
0000
,
0001
0010
0001
0000
1000
0100
1000
0000
,
0010
1000
0001
1000
,
0002
0000
0013
0100
,
1000
0010
0100
0010
,
2000
0000
3100
0100
,
0010
0000
0100
0000
0010
1000
0001
1000
,
0000
0000
0001
1000
0000
0010
0000
0100
,
0000
0001
0000
1000
0000
1000
0100
0001
,
0010
0000
0001
1000
0000
0010
1000
0100
,
0010
0001
1000
0001
,
0010
0100
0000
1000
0010
1000
0001
0010
,
0001
0000
0100
0001
0000
1000
0010
0000
,
0100
0000
0010
0100
0001
0000
0010
0000
,
0001
0000
0100
0000
0001
0010
0001
0000
,
2000
0000
0000
3002
0000
0000
0023
0000
,
0000
0230
0000
0000
2300
0000
0000
0000
,
3002
0000
0000
0000
,
2003
0000
0000
3010
,
0002
0000
0000
0203
0000
0000
0320
0000
,
0000
2030
0000
0000
3001
0000
0010
0000
,
0200
0000
0000
0000
,
2300
0000
0002
3003
,
1000
0001
0000
0000
0001
1000
0000
0000
,
0010
0100
0000
0000
0100
0010
0000
0000
,
0001
0010
0000
0000
0100
1000
0000
0000
,
1000
0000
0000
0010
1000
0000
0000
0000
,
0001
0010
0000
0000
0010
0001
0000
0000
,
0100
0001
0000
0000
1000
0010
0000
0000
,
1000
0100
0000
0000
0100
0001
0000
0100
,
0001
0000
0000
0010
0100
0000
0000
0000
,
1000
0010
0000
1000
0100
0010
0000
0001
,
0010
0001
0000
0100
0001
0010
0000
0100
,
1000
0010
0000
1000
0100
0010
0000
0010
,
0002
1003
2000
3001
,
0010
0100
0000
1000
0010
0100
0000
0100
,
0001
0010
0000
0001
0010
0001
0000
1000
,
0010
1000
0000
0001
0100
0010
0000
1000
,
0200
0000
0310
0001
2000
0000
3001
0000
,
0001
0010
0002
0000
1003
0010
2000
0000
,
3100
1000
0020
0000
1030
0001
0020
0000
,
0130
0000
0001
0000
0010
0100
0010
0000
,
1000
0001
1000
0001
0010
0000
0001
0000
,
0100
0001
0100
0000
0010
1000
0010
0000
,
1000
0100
1000
0000
0001
0010
0001
0000
,
0100
0010
0100
0010
1000
0010
1000
0000
,
0001
1000
0001
1000
0010
0100
0001
0000
,
1001
0000
0000
0000
;

//---------------dance-single - ----------------
#NOTEDATA:;
#CHARTNAME:;
#STEPSTYPE:dance-single;
#DESCRIPTION:;
#CHARTSTYLE:;
#DIFFICULTY:Beginner;
#METER:2;
#RADARVALUES:0.190613,0.235463,0.000000,0.313951,0.000000,119.000000,119.000000,0.000000,28.000000,0.000000,0.000000,0.000000,0.000000,0.000000,0.190613,0.235463,0.000000,0.313951,0.000000,119.000000,119.000000,0.000000,28.000000,0.000000,0.000000,0.000000,0.000000,0.000000;
#CREDIT:;
#NOTES:
0000
0000
0000
0000
,
0000
0000
0000
0000
,
0000
0000
0000
0000
,
0000
0000
0000
0000
,
1000
1000
0000
0000
,
0001
0001
0000
0000
,
0100
0000
0010
0000
,
0100
0010
0000
0010
,
0100
0100
0000
1000
,
0010
0010
0000
1000
,
1000
0000
0001
0000
,
1000
0001
0000
0001
,
1000
0000
0200
0000
,
0310
0000
0001
0100
,
0020
0030
2000
3000
,
0002
0000
0003
0010
,
0100
0000
2000
0000
,
0000
3000
0001
0000
,
0020
0000
0100
0000
,
0230
0000
0300
0001
,
1000
0000
0000
0000
,
0100
0000
0000
0000
,
0010
0000
0100
0000
,
1000
0000
0000
0000
,
0001
0000
0010
0000
,
0001
0000
0010
0000
,
0100
0000
1000
0000
,
0001
0000
0000
0010
,
2000
0000
3000
0200
,
0000
0300
0020
0030
,
0002
0000
0000
0003
,
0010
0000
0100
1000
,
0002
0000
0003
0020
,
0000
0030
0200
0300
,
2000
0000
0000
3000
,
0200
0000
0000
0000
,
0310
0000
0010
0000
,
1000
0000
1000
0000
,
0001
0000
0001
0000
,
0100
0000
0010
0000
,
1000
0000
0001
0000
,
1000
0000
0100
0000
,
0010
0000
0100
0000
,
0100
0000
0001
0000
,
2000
0000
3001
0000
,
0002
0000
1003
0000
,
0200
0000
0310
0000
,
0020
0130
0020
0030
,
0200
0000
0301
0000
,
0002
0000
0103
0000
,
0020
0000
1030
0000
,
2000
3010
2000
3000
,
0001
0010
0000
0001
,
1000
0100
0000
1000
,
0010
0000
0100
1000
,
0001
0010
0100
0000
,
2000
0001
0000
0001
,
3200
0010
0300
0010
,
1000
0000
0010
0000
,
0100
0000
0001
1000
,
0100
0000
0000
0000
;

//---------------dance-single - ----------------
#NOTEDATA:;
#CHARTNAME:;
#STEPSTYPE:dance-single;
#DESCRIPTION:;
#CHARTSTYLE:;
#DIFFICULTY:Easy;
#METER:4;
#RADARVALUES:0.273906,0.336376,0.044850,0.190613,0.000000,171.000000,167.000000,4.000000,17.000000,0.000000,0.000000,0.000000,0.000000,0.000000,0.273906,0.336376,0.044850,0.190613,0.000000,171.000000,167.000000,4.000000,17.000000,0.000000,0.000000,0.000000,0.000000,0.000000;
#CREDIT:;
#NOTES:
0000
0000
0000
0000
,
0000
0000
0000
0000
,
0000
0000
0000
0000
,
0000
0000
0000
0000
,
1000
0010
0000
0100
,
0010
0100
0000
0001
,
0010
0001
1000
0100
,
2000
0000
3001
0000
,
0010
0001
0000
0100
,
1000
0010
0000
0100
,
1000
0100
0010
0001
,
0002
0000
1003
0000
,
0010
0100
0000
0010
,
0100
0001
0000
0010
,
1000
0100
1000
0000
,
0010
0001
0010
0001
,
2000
0000
3001
0000
,
0010
0000
0100
0010
,
0200
0000
0310
0000
,
0001
0000
0010
0000
,
0001
0010
0001
0010
,
0001
0000
1000
0000
,
0100
1000
0100
0010
,
0001
0000
0010
0000
,
0100
0010
0010
0100
,
1000
0000
1000
0000
,
0002
1003
2000
3010
,
0100
0000
0001
0000
,
1000
0000
0000
0001
0000
0000
0010
0000
,
0000
0100
0000
0000
0020
0000
0000
0000
,
0230
0000
0000
0300
,
2000
0000
0000
3001
,
0001
0000
0000
1000
0000
0000
0010
0000
,
0000
0100
0000
0000
2000
0000
0000
0000
,
3020
0000
0030
0100
,
0002
0000
0000
0000
,
1003
0100
1000
0001
,
0010
0100
1000
0010
,
0100
0001
0010
0001
,
0010
0000
0100
0000
,
0001
0010
0001
1000
,
0100
0010
0001
0100
,
0010
1000
0100
1000
,
0001
0000
1000
0000
,
1002
0010
0000
0103
,
0010
1000
0000
0100
,
1000
0001
0100
0010
,
0100
0000
1000
0000
,
0120
1000
0000
1030
,
0001
0010
0000
0100
,
1000
1000
0001
1000
,
0010
0000
0100
0000
,
2000
3010
0100
0001
,
0020
0001
0000
0100
,
1030
0100
1000
0010
,
0200
0000
0301
0110
,
0010
0001
1000
0000
,
1000
0100
1000
1001
,
0001
0100
0001
0000
,
1000
0010
1000
0001
,
0100
0000
0000
0000
;

//---------------dance-single - ----------------
#NOTEDATA:;
#CHARTNAME:;
#STEPSTYPE:dance-single;
#DESCRIPTION:;
#CHARTSTYLE:;
#DIFFICULTY:Hard;
#METER:8;
#RADARVALUES:0.565431,0.717601,0.078488,0.459713,0.112125,353.000000,346.000000,7.000000,41.000000,0.000000,0.000000,0.000000,0.000000,0.000000,0.565431,0.717601,0.078488,0.459713,0.112125,353.000000,346.000000,7.000000,41.000000,0.000000,0.000000,0.000000,0.000000,0.000000;
#CREDIT:;
#NOTES:
// measure 0
0000
0000
0000
0000
,  // measure 1
0000
0000
0000
0000
,  // measure 2
0000
0000
0000
0000
,  // measure 3
0000
0000
0000
0000
,  // measure 4
1000
0000
0001
1000
0000
0010
1000
0010
,  // measure 5
0100
0001
0100
0001
0000
0010
0100
0000
,  // measure 6
1000
0000
0010
1000
0100
1000
0100
0001
,  // measure 7
0100
0010
0001
0000
1000
0010
0100
0000
,  // measure 8
0100
0001
0010
0001
0000
0100
0010
1000
,  // measure 9
0001
1000
0010
1000
0000
0100
0010
0001
,  // measure 10
0100
0010
0100
0010
1000
0001
0010
0002
,  // measure 11
0000
0103
0000
2000
0000
3010
1000
0000
,  // measure 12
0010
0100
0001
0100
0000
1000
0100
0100
,  // measure 13
1000
0010
1000
0010
0000
0100
0001
0000
,  // measure 14
0010
0000
0001
0010
0001
0100
1000
0100
,  // measure 15
0001
0000
0010
0100
0000
1000
0010
1000
,  // measure 16
0002
0000
1003
0100
0000
0000
0100
0010
,  // measure 17
0000
0100
0001
1000
0010
0100
0001
0000
,  // measure 18
1000
0001
1000
0000
0010
0000
0100
0010
,  // measure 19
2000
0000
0100
0000
3002
0000
0103
0010
,  // measure 20
0010
0001
1000
0100
0000
0010
0100
1000
,  // measure 21
0000
0001
0000
0010
0001
0000
0010
0100
,  // measure 22
0010
0001
1000
0010
0000
1000
0000
0100
,  // measure 23
0000
1000
0001
0010
0001
0000
2000
0000
,  // measure 24
3001
1000
0010
1000
0100
0000
1000
0010
,  // measure 25
0001
0010
1000
0100
0000
0100
0001
0010
,  // measure 26
0001
1000
0010
0100
0000
0001
0010
0100
,  // measure 27
0000
1000
0001
0000
1000
0010
2000
3000
,  // measure 28
1002
0000
0000
2003
0000
0000
3020
0000
,  // measure 29
0000
0230
0000
0000
0302
0000
0000
0000
,  // measure 30
2003
3002
0203
0320
,  // measure 31
0031
0000
0010
0000
1000
0001
0010
0100
,  // measure 32
2000
0000
0000
3002
0000
0000
0203
0000
,  // measure 33
0000
0320
0000
0000
2030
0000
0000
0000
,  // measure 34
3200
0000
0310
0000
0010
0001
1000
0001
,  // measure 35
2000
0000
3001
0000
0001
0010
0100
0010
,  // measure 36
0001
2000
0000
3010
1000
0200
0000
1300
,  // measure 37
0010
0200
0000
0301
0010
0002
0000
0103
,  // measure 38
0001
0020
0000
0031
1000
0020
0000
1030
,  // measure 39
0100
0000
0000
0000
0110
0000
0010
0000
0001
0000
0000
0000
1001
0000
0010
1000
,  // measure 40
0010
0200
0000
0310
1000
0002
0000
0013
,  // measure 41
0001
0200
0000
0310
0100
0020
0000
1030
,  // measure 42
0100
2000
0000
3100
0001
0100
1000
0001
,  // measure 43
0010
0000
1010
0010
1000
0000
0110
0000
,  // measure 44
1001
0000
0000
0001
1000
0000
0010
0000
1000
0000
0100
0000
1000
0000
0000
0000
,  // measure 45
0010
0000
1000
0000
0001
0000
0010
0000
0100
1000
0100
1000
0001
0000
0000
0000
,  // measure 46
0010
0000
0001
0000
1000
0000
0000
0010
0100
0000
0001
1000
0001
0000
0010
0000
,  // measure 47
0100
0000
1000
0001
0010
0000
1001
0000
,  // measure 48
0100
0001
1000
0000
0001
1000
0010
1000
,  // measure 49
0100
0000
0010
0000
0100
0000
0000
0000
1000
0100
1000
0001
0100
0000
0010
0000
,  // measure 50
1000
0000
0100
0000
1000
0000
0010
0001
0010
0000
1000
0000
0010
0000
1000
0000
,  // measure 51
0100
0010
0001
0010
0001
0000
0100
0000
,  // measure 52
0010
1000
0000
0001
0010
0000
0100
0000
1000
0000
0001
0000
0010
0000
0000
0000
,  // measure 53
0002
0000
0000
0000
0013
0000
0000
0000
0100
0000
1000
0000
0100
0000
1000
0010
,  // measure 54
1000
0000
0000
0000
0001
0000
0000
0001
1000
0000
0010
0000
1000
0000
0100
0000
,  // measure 55
1000
0000
0000
0000
0001
0000
0010
0000
0001
0000
0100
0000
0001
0000
1000
0010
,  // measure 56
1000
0100
0000
1000
0001
0000
0000
0000
0010
0000
0000
0001
0100
0000
0000
0000
,  // measure 57
0010
0000
0000
0000
1000
0001
1000
0000
0001
0000
0000
0100
0010
0000
0100
0000
,  // measure 58
2000
0000
3010
0200
0000
0301
0020
0000
,  // measure 59
0032
0000
0000
0000
1000
0000
0000
0000
0100
0000
0000
0000
0013
0000
0000
0002
,  // measure 60
2000
0000
0000
0000
,  // measure 61
0000
0000
0000
0000
,  // measure 62
0000
0000
0000
0000
,  // measure 63
0000
0000
0000
0000
,  // measure 64
3003
0000
0000
0000
;
